osu file format v4

[General]
AudioFilename: Wizard.mp3
AudioLeadIn: 0
AudioHash: 91c7433e3a32659b0a49977450a1ed02
PreviewTime: -1
SampleSet: Soft
EditorBookmarks: 5240,38427,115757

[Metadata]
Title:New Wave Jacket
Artist:Polysics
Creator:Enok Walker
Version:Normal

[Difficulty]
HPDrainRate:5
CircleSize:5
OverallDifficulty:5
SliderMultiplier: 1.4
SliderTickRate: 2

[Events]
3,0,163,162,255

[TimingPoints]
4950,288.600288600289,4,2,0

[HitObjects]
272,32,4950,2,0,B|272:32|160:128|272:192,1,140
336,160,5527,2,0,B|336:160|448:256|336:320,1,140
304,352,6104,2,4,L|304:352|160:352|160:208|16:208,1,420
32,96,7258,6,0,B|32:96|256:96|256:192|256:304|512:304,1,420
432,64,8557,1,0,
256,64,8990,1,4,
32,288,9567,6,0,B|32:288|256:288|256:192|256:80|512:80,1,420
432,320,10866,1,0,
256,320,11299,1,4,
480,96,11876,6,0,B|480:96|256:96|256:192|256:304|0:304,1,420
80,64,13175,1,0,
256,64,13608,1,4,
480,288,14185,6,0,B|480:288|256:288|256:192|256:80|0:80,1,420
80,320,15484,1,0,
256,320,15917,1,4,
256,192,16349,12,0,18225
256,32,18802,1,0,
176,112,19091,1,0,
112,208,19380,1,0,
224,208,19668,1,0,
336,208,19957,1,0,
448,208,20245,1,0,
448,304,20534,2,0,B|448:304|192:304,1,210
64,336,21400,6,0,B|64:336|64:48,1,280
176,48,22266,5,0,
208,80,22410,1,0,
240,112,22554,1,0,
256,160,22698,1,0,
272,208,22843,5,0,
288,256,22987,1,0,
320,288,23131,1,0,
256,352,23420,5,0,
176,272,23709,1,0,
112,176,23998,1,0,
224,176,24286,1,0,
336,176,24575,1,0,
448,176,24863,1,0,
448,80,25152,2,0,B|448:80|192:80,1,210
32,80,26017,2,0,L|32:80|32:352|464:352|464:352,1,700
256,32,28038,5,0,
336,112,28327,1,0,
400,208,28616,1,0,
288,208,28904,1,0,
176,208,29193,1,0,
64,208,29481,1,0,
64,304,29770,2,0,B|64:304|320:304,1,210
448,336,30636,6,0,B|448:336|448:48,1,280
336,48,31501,5,0,
304,80,31645,1,0,
272,112,31789,1,0,
256,160,31933,1,0,
240,208,32078,5,0,
224,256,32222,1,0,
192,288,32366,1,0,
256,352,32656,5,0,
336,272,32945,1,0,
400,176,33234,1,0,
288,176,33522,1,0,
176,176,33811,1,0,
64,176,34099,1,0,
64,80,34388,2,0,B|64:80|320:80,1,210
480,80,35253,2,0,L|480:80|480:352|48:352|48:352,1,700
256,32,37273,5,0,
256,96,37706,1,0,
256,160,38139,1,0,
256,224,38571,1,0,
160,192,39004,1,0,
144,192,39293,1,0,
256,192,39582,12,0,40159
256,288,40447,5,0,
256,192,40736,12,0,41313
256,288,41601,5,0,
256,352,41890,5,0,
256,288,42323,1,0,
256,224,42756,1,0,
256,160,43188,1,0,
352,192,43621,1,0,
368,192,43910,1,0,
256,192,44199,12,0,45065
192,96,45354,1,0,
256,96,45642,1,0,
320,96,45931,1,0,
256,160,46219,1,0,
256,224,46508,5,0,
192,288,46797,1,0,
256,288,47085,1,0,
320,288,47374,1,0,
256,352,47662,5,0,
176,272,47951,1,0,
112,176,48240,1,0,
224,176,48528,1,0,
336,176,48817,1,0,
448,176,49105,1,0,
448,80,49394,2,0,B|448:80|192:80,1,210
64,48,50260,6,0,B|64:48|64:336,1,280
176,336,51126,5,0,
208,304,51270,1,0,
240,272,51414,1,0,
256,224,51558,1,0,
272,176,51703,5,0,
288,128,51847,1,0,
320,96,51991,1,0,
256,32,52280,5,0,
176,112,52569,1,0,
112,208,52858,1,0,
224,208,53146,1,0,
336,208,53435,1,0,
448,208,53723,1,0,
448,304,54012,2,0,B|448:304|192:304,1,210
32,304,54877,2,0,L|32:304|32:32|464:32|464:32,1,700
256,352,56898,5,0,
336,272,57187,1,0,
400,176,57476,1,0,
288,176,57764,1,0,
176,176,58053,1,0,
64,176,58341,1,0,
64,80,58630,2,0,B|64:80|320:80,1,210
448,48,59496,6,0,B|448:48|448:336,1,280
336,336,60361,5,0,
304,304,60505,1,0,
272,272,60649,1,0,
256,224,60793,1,0,
240,176,60938,5,0,
224,128,61082,1,0,
192,96,61226,1,0,
256,32,61516,5,0,
336,112,61805,1,0,
400,208,62094,1,0,
288,208,62382,1,0,
176,208,62671,1,0,
64,208,62959,1,0,
64,304,63248,2,0,B|64:304|320:304,1,210
480,304,64113,2,0,L|480:304|480:32|48:32|48:32,1,700
448,192,66133,5,0,
384,192,66566,1,0,
320,192,66999,1,0,
256,192,67431,1,0,
256,96,67864,1,0,
256,80,68153,1,0,
256,192,68442,12,0,69019
128,192,69307,5,0,
256,192,69596,12,0,70173
128,192,70461,5,0,
64,192,70750,5,0,
128,192,71183,1,0,
192,192,71616,1,0,
256,192,72048,1,0,
256,288,72481,1,0,
256,304,72770,1,0,
256,192,73059,12,0,73925
352,128,74214,1,0,
352,192,74502,1,0,
352,256,74791,1,0,
288,192,75079,1,0,
224,192,75368,5,0,
160,128,75657,1,0,
160,192,75945,1,0,
160,256,76234,1,0,
256,192,76522,12,0,78398
256,192,78831,12,0,80707
256,192,81140,12,0,83016
256,192,83449,12,0,85325
32,192,85758,2,0,B|32:192|96:128|176:160,1,140
128,240,86335,2,0,B|128:240|192:304|272:272,1,140
256,192,86912,2,0,B|256:192|320:128|400:160,1,140
352,240,87489,2,0,B|352:240|416:304|496:272,1,140
480,192,88066,6,0,B|480:192|416:128|336:160,1,140
384,240,88643,2,0,B|384:240|320:304|240:272,1,140
256,192,89220,2,0,B|256:192|192:128|112:160,1,140
160,240,89797,2,0,B|160:240|96:304|16:272,1,140
32,192,90375,6,0,B|32:192|144:64|208:112|256:16,1,280
320,32,91241,1,0,
384,32,91530,1,0,
384,96,91818,1,0,
448,96,92107,1,0,
448,32,92395,1,0,
480,192,92684,2,0,B|480:192|368:320|304:272|256:368,1,280
192,352,93550,1,0,
128,352,93839,1,0,
128,288,94127,1,0,
64,288,94416,1,0,
64,352,94704,1,0,
256,192,95281,12,0,96291
256,192,96724,6,0,B|256:192|256:48,1,140
256,192,97302,12,0,98312
256,192,98745,6,0,B|256:192|400:192,1,140
256,192,99322,12,0,100332
256,192,100765,6,0,B|256:192|256:336,1,140
256,192,101342,12,0,102352
256,192,102785,2,0,L|256:192|192:192|192:144|321:144|321:238|94:239,1,560
128,160,104228,6,0,L|128:160|240:64,1,140
276,70,104805,6,0,L|276:70|388:166,1,140
384,224,105382,6,0,L|384:224|272:320,1,140
232,315,105960,6,0,L|232:315|120:219,1,140
64,160,106537,5,0,
176,96,106826,1,0,
288,32,107115,1,0,
288,128,107403,1,0,
288,224,107692,1,0,
288,336,107980,1,0,
416,336,108269,2,0,B|416:336|416:80,1,210
416,32,109135,6,0,B|416:32|128:32,1,280
112,112,110000,5,0,
144,144,110144,1,0,
176,176,110288,1,0,
224,192,110432,1,0,
272,208,110577,5,0,
320,224,110721,1,0,
352,256,110865,1,0,
448,160,111154,5,0,
336,96,111443,1,0,
224,32,111732,1,0,
224,128,112020,1,0,
224,224,112309,1,0,
224,336,112597,1,0,
96,336,112886,2,0,B|96:336|96:80,1,210
52,32,113752,2,0,L|52:32|464:32|464:320,1,700
448,224,115772,5,0,
336,288,116061,1,0,
224,352,116350,1,0,
224,256,116638,1,0,
224,160,116927,1,0,
224,48,117215,1,0,
96,48,117504,2,0,B|96:48|96:304,1,210
96,352,118370,6,0,B|96:352|384:352,1,280
400,272,119235,5,0,
368,240,119379,1,0,
336,208,119523,1,0,
288,192,119667,1,0,
240,176,119812,5,0,
192,160,119956,1,0,
160,128,120100,1,0,
64,224,120389,5,0,
176,288,120678,1,0,
288,352,120967,1,0,
288,256,121255,1,0,
288,160,121544,1,0,
288,48,121832,1,0,
416,48,122121,2,0,B|416:48|416:304,1,210
460,352,122987,2,0,L|460:352|48:352|48:64,1,700
96,192,125007,5,0,
160,192,125440,1,0,
224,192,125873,1,0,
288,192,126305,1,0,
256,288,126738,1,0,
256,304,127027,1,0,
256,192,127316,12,0,127893
384,192,128181,5,0,
256,192,128470,12,0,129047
384,192,129335,5,0,
448,192,129624,5,0,
384,192,130057,1,0,
320,192,130490,1,0,
256,192,130922,1,0,
256,96,131355,1,0,
256,80,131644,1,0,
256,192,131934,12,0,132511
128,192,132799,5,0,
256,192,133088,12,0,133665
128,192,133953,5,0,
64,192,134242,5,0,
128,192,134675,1,0,
192,192,135108,1,0,
256,192,135540,1,0,
256,288,135973,1,0,
256,304,136262,1,0,
256,192,136551,12,0,137994
192,96,140014,5,0,
256,96,140302,1,0,
320,96,140591,1,0,
256,160,140879,1,0,
256,224,141168,5,0,
192,288,141457,1,0,
256,288,141745,1,0,
320,288,142034,1,0,
256,192,142323,12,0,144199
256,192,144632,12,0,146508
256,192,146941,12,0,148817
256,192,149250,12,0,151126
256,192,151558,12,0,153434
256,192,153867,12,0,155743
256,192,155887,12,0,156032
256,192,156176,12,0,156321
256,192,156465,12,0,156610
256,192,156753,12,0,156898
256,192,157042,12,0,157187
256,192,157330,12,0,157475
256,192,157619,12,0,157764
256,192,157908,12,0,158053
