osu file format v14

[General]
AudioFilename: Nakimushi pierrot - IA.mp3
AudioLeadIn: 0
PreviewTime: 67214
Countdown: 0
SampleSet: Soft
StackLeniency: 0.7
Mode: 0
LetterboxInBreaks: 0
WidescreenStoryboard: 0

[Editor]
Bookmarks: 88797
DistanceSpacing: 0.91
BeatDivisor: 4
GridSize: 4
TimelineZoom: 2.2

[Metadata]
Title:Nakimushi Pierrot feat. IA
TitleUnicode:泣き虫ピエロ
Artist:PolyphonicBranch
ArtistUnicode:PolyphonicBranch
Creator:Zyl
Version:Drawing Perspective
Source:
Tags:Kano Natsuka Sousou △○□× ygarshy Dennou Ryodan Cyber Brigade
BeatmapID:1502587
BeatmapSetID:710786

[Difficulty]
HPDrainRate:6
CircleSize:4
OverallDifficulty:8
ApproachRate:9
SliderMultiplier:1.6
SliderTickRate:1

[Events]
//Background and Video events
0,0,"BG.png",0,0
//Break Periods
2,22331,23697
//Storyboard Layer 0 (Background)
//Storyboard Layer 1 (Fail)
//Storyboard Layer 2 (Pass)
//Storyboard Layer 3 (Foreground)
//Storyboard Sound Samples

[TimingPoints]
798,333.333333333333,4,2,0,50,1,0
11298,-100,4,2,0,70,0,1
16631,-100,4,2,0,50,0,0
19297,-142.857142857143,4,2,0,50,0,0
24797,-100,4,2,0,50,0,0
46131,-166.666666666667,4,2,0,50,0,0
54631,-200,4,2,0,50,0,0
56631,-166.666666666667,4,2,0,50,0,0
58797,-125,4,2,0,50,0,0
62131,-100,4,2,0,50,0,0
67296,-100,4,2,0,70,0,1
77942,-100,4,2,0,50,0,0
77963,-100,4,2,0,70,0,1
88797,-100,4,2,0,50,0,0
90131,-100,4,2,0,40,0,0
91464,-100,4,2,0,30,0,0
92797,-100,4,2,0,20,0,0
94131,-100,4,2,0,10,0,0

[Colours]
Combo1 : 6,131,255
Combo2 : 70,70,255
Combo3 : 0,64,128

[HitObjects]
148,49,6131,5,0,0:0:0:0:
186,251,6298,1,0,0:0:0:0:
280,41,6631,5,0,0:0:0:0:
67,136,6798,1,0,0:0:0:0:
273,250,7131,5,0,0:0:0:0:
178,76,7298,1,0,0:0:0:0:
99,278,7631,5,0,0:0:0:0:
264,153,7798,1,0,0:0:0:0:
82,133,8131,5,0,0:0:0:0:
199,264,8298,1,0,0:0:0:0:
250,57,8631,5,0,0:0:0:0:
250,57,8798,2,0,L|265:162,1,80
311,264,9131,5,0,0:0:0:0:
155,195,9297,2,0,L|165:97,1,80
232,261,9631,1,0,0:0:0:0:
232,261,9714,1,0,0:0:0:0:
232,261,9797,2,0,L|224:356,1,80
367,384,10131,6,0,L|354:304,1,80
395,228,10464,1,0,0:0:0:0:
315,182,10798,5,0,0:0:0:0:
407,21,10965,1,0,0:0:0:0:
254,251,11298,6,0,P|306:271|406:207,1,160
315,182,11798,1,0,0:0:0:0:
315,182,11881,1,0,0:0:0:0:
315,182,11965,1,0,0:0:0:0:
385,307,12131,2,0,L|395:227,1,80
283,370,12464,1,0,0:0:0:0:
254,251,12631,1,0,0:0:0:0:
391,242,12798,5,0,0:0:0:0:
218,188,12965,1,0,0:0:0:0:
370,135,13131,5,0,0:0:0:0:
205,194,13298,1,0,0:0:0:0:
366,223,13465,5,0,0:0:0:0:
191,202,13631,1,0,0:0:0:0:
277,59,13798,5,0,0:0:0:0:
302,255,13965,1,0,0:0:0:0:
302,255,14048,1,0,0:0:0:0:
302,255,14131,6,0,L|296:351,1,80
420,239,14465,2,0,L|414:143,1,80
330,65,14798,5,0,0:0:0:0:
289,225,14965,1,0,0:0:0:0:
328,86,15131,5,0,0:0:0:0:
163,119,15298,1,0,0:0:0:0:
326,106,15465,5,0,0:0:0:0:
203,231,15631,1,0,0:0:0:0:
227,56,15798,5,0,0:0:0:0:
365,228,15965,1,0,0:0:0:0:
130,192,16131,5,0,0:0:0:0:
303,131,16298,1,0,0:0:0:0:
303,131,16381,1,0,0:0:0:0:
303,131,16465,5,0,0:0:0:0:
270,326,16631,1,0,0:0:0:0:
243,187,16797,5,0,0:0:0:0:
365,228,16964,1,0,0:0:0:0:
203,286,17131,5,0,0:0:0:0:
189,134,17297,1,0,0:0:0:0:
322,169,17464,5,0,0:0:0:0:
203,286,17631,1,0,0:0:0:0:
141,78,17797,5,0,0:0:0:0:
322,169,17964,1,0,0:0:0:0:
118,234,18131,5,0,0:0:0:0:
225,34,18297,1,0,0:0:0:0:
365,228,18464,5,0,0:0:0:0:
166,135,18631,1,0,0:0:0:0:
381,85,18797,5,0,0:0:0:0:
312,333,18964,1,0,0:0:0:0:
305,293,19047,1,0,0:0:0:0:
298,254,19130,1,0,0:0:0:0:
291,214,19213,1,0,0:0:0:0:
280,177,19297,6,0,B|241:171|209:189|209:189|190:181|190:181|149:200|103:172,1,167.999994873047
48,116,19964,1,0,0:0:0:0:
167,59,20131,2,0,L|150:122,1,55.9999982910157
45,189,20464,2,0,L|28:126,1,55.9999982910157
0,257,20797,6,0,B|56:269|56:269|120:239,1,111.999996582031
131,125,21297,2,0,P|191:111|253:141,1,111.999996582031
319,221,21797,2,0,L|333:121,1,83.9999974365235
328,117,22131,5,0,0:0:0:0:
162,111,24297,5,0,0:0:0:0:
166,130,24380,1,0,0:0:0:0:
170,150,24463,1,0,0:0:0:0:
174,169,24546,1,0,0:0:0:0:
178,189,24630,1,0,0:0:0:0:
182,208,24713,1,0,0:0:0:0:
187,226,24797,6,0,L|196:138,1,80
279,24,25131,2,0,L|287:103,1,80
196,61,25464,1,0,0:0:0:0:
361,46,25631,1,0,0:0:0:0:
299,190,25797,1,0,0:0:0:0:
288,18,25964,6,0,L|471:27,1,160
501,113,26464,1,0,0:0:0:0:
442,252,26631,2,0,B|446:202|424:178|424:178|433:159|433:159|414:131|422:85,1,160
345,41,27131,1,0,0:0:0:0:
363,171,27297,6,0,P|437:190|498:143,1,160
419,20,27797,2,0,L|420:106,1,80
510,53,28131,1,0,0:0:0:0:
510,53,28297,1,0,0:0:0:0:
344,85,28464,2,0,L|345:171,1,80
439,130,28797,5,0,0:0:0:0:
439,130,28964,1,0,0:0:0:0:
254,148,29131,2,0,L|255:234,1,80
354,255,29464,1,0,0:0:0:0:
278,126,29631,1,0,0:0:0:0:
148,200,29797,1,0,0:0:0:0:
186,191,29880,1,0,0:0:0:0:
224,201,29963,1,0,0:0:0:0:
254,227,30046,1,0,0:0:0:0:
268,261,30131,6,0,L|275:351,1,80
178,276,30464,5,0,0:0:0:0:
340,239,30631,1,0,0:0:0:0:
274,364,30797,5,0,0:0:0:0:
263,190,30964,1,0,0:0:0:0:
369,318,31131,5,0,0:0:0:0:
167,355,31297,2,0,B|191:272|191:272|158:193,1,160
150,193,31797,1,0,0:0:0:0:
130,185,32131,2,0,B|117:241|117:241|132:287|132:287|110:356,1,160
55,150,32631,6,0,L|232:137,1,160
290,243,33131,2,0,L|281:344,1,80
377,288,33464,1,0,0:0:0:0:
377,288,33631,1,0,0:0:0:0:
218,161,33797,2,0,L|209:262,1,80
348,188,34131,5,0,0:0:0:0:
348,188,34297,1,0,0:0:0:0:
139,114,34464,2,0,L|130:215,1,80
156,301,34797,1,0,0:0:0:0:
126,217,34964,1,0,0:0:0:0:
216,240,35131,1,0,0:0:0:0:
86,138,35464,6,0,L|71:41,1,80
176,78,35797,5,0,0:0:0:0:
90,211,35964,1,0,0:0:0:0:
0,71,36131,5,0,0:0:0:0:
185,166,36297,1,0,0:0:0:0:
21,154,36464,5,0,0:0:0:0:
86,34,36631,2,0,B|179:51|179:51|250:15,1,160
279,88,37131,2,0,B|221:119|221:119|178:203,1,160
254,350,37797,1,0,0:0:0:0:
373,327,37964,6,0,B|304:298|228:321|228:321|197:305|197:305|122:334|49:305,1,320
71,233,38797,2,0,P|135:242|221:180,1,160
240,96,39297,6,0,P|224:191|296:91,1,320
51,83,40297,1,0,0:0:0:0:
78,171,40464,1,0,0:0:0:0:
138,96,40631,6,0,P|123:37|21:8,1,160
78,171,41131,1,0,0:0:0:0:
204,130,41297,1,0,0:0:0:0:
51,83,41464,1,0,0:0:0:0:
197,209,41631,2,0,L|205:105,1,80
125,250,41964,6,0,P|198:295|262:261,1,160
281,181,42464,1,0,0:0:0:0:
197,209,42631,1,0,0:0:0:0:
276,343,42797,2,0,L|253:245,1,80
125,250,43131,2,0,L|110:346,1,80
197,209,43464,6,0,P|81:182|50:280,1,240
13,132,44131,2,0,P|66:97|168:95,1,160
271,177,44631,6,0,B|315:193|361:167|361:167|387:185|387:185|429:157|510:179,1,240
439,337,45297,1,0,0:0:0:0:
439,337,45381,1,0,0:0:0:0:
439,337,45464,2,0,L|452:243,1,80
497,175,45797,2,0,P|468:118|488:54,1,120
495,50,46131,6,0,P|447:66|364:22,1,143.999995605469
302,89,46797,2,0,P|318:137|274:220,1,143.999995605469
193,262,47464,6,0,L|205:326,1,47.9999985351563
195,332,48131,2,0,L|203:235,1,95.9999970703126
186,55,48797,6,0,L|160:112,1,47.9999985351563
219,213,49131,2,0,L|230:265,1,47.9999985351563
314,148,49464,6,0,L|307:100,1,47.9999985351563
213,185,49797,2,0,L|206:233,1,47.9999985351563
368,295,50131,6,0,L|361:247,1,47.9999985351563
267,332,50464,2,0,L|260:380,1,47.9999985351563
401,308,50797,6,0,L|388:254,1,47.9999985351563
280,197,51131,2,0,L|265:245,1,47.9999985351563
356,136,51464,6,0,P|288:152|225:120,1,143.999995605469
149,33,52131,2,0,L|136:139,1,95.9999970703126
124,146,52797,6,0,P|162:134|259:188,1,143.999995605469
330,276,53464,2,0,L|441:269,1,95.9999970703126
442,254,54131,6,0,P|396:229|376:178,1,95.9999970703126
309,97,54631,6,0,P|306:143|223:43,1,340
239,38,56131,1,0,0:0:0:0:
239,114,56297,1,0,0:0:0:0:
257,22,56464,1,0,0:0:0:0:
156,343,56797,6,0,P|135:282|160:197,1,143.999995605469
255,175,57464,2,0,P|210:188|129:129,1,143.999995605469
217,15,58131,6,0,L|209:119,1,95.9999970703126
411,324,58797,6,0,P|386:291|344:277,1,64
263,345,59131,2,0,P|223:331|181:343,1,64
278,200,59464,2,0,B|272:224|287:248|287:248|283:268|283:268|296:285|285:338,1,128
189,133,60131,2,0,P|239:94|320:101,1,128
194,222,60631,1,0,0:0:0:0:
135,38,60797,6,0,P|167:37|197:22,1,64
360,53,61131,2,0,P|324:53|294:67,1,64
401,253,61464,2,0,P|413:223|412:189,1,64
411,191,61714,1,0,0:0:0:0:
411,191,61798,2,0,P|412:159|426:130,1,64
237,274,62131,6,0,L|246:360,1,80
147,220,62464,2,0,B|152:175|141:141|141:141|150:117|150:117|134:95|130:44,1,160
245,170,62964,1,0,0:0:0:0:
66,118,63131,1,0,0:0:0:0:
221,35,63297,6,0,B|225:99|225:99|221:117|221:117|224:197,1,160
299,335,63797,2,0,B|300:305|316:283|316:283|307:259|307:259|318:225|313:180,1,160
48,293,64464,1,0,0:0:0:0:
272,349,64631,1,0,0:0:0:0:
256,192,64714,12,0,66797,0:0:0:0:
70,103,67297,6,0,L|87:277,1,160
226,111,67797,2,0,L|155:48,1,80
213,208,68131,2,0,P|257:202|320:95,1,160
166,57,68631,1,0,0:0:0:0:
114,179,68797,6,0,B|107:226|136:252|136:252|127:276|127:276|145:305|135:353,1,160
53,367,69297,2,0,B|131:335|131:335|216:374,1,160
266,321,69797,1,0,0:0:0:0:
506,266,69964,6,0,L|350:235,1,160
465,171,70464,1,0,0:0:0:0:
409,316,70631,1,0,0:0:0:0:
343,146,70797,5,0,0:0:0:0:
509,158,70964,1,0,0:0:0:0:
350,235,71131,5,0,0:0:0:0:
445,82,71297,1,0,0:0:0:0:
494,254,71464,5,0,0:0:0:0:
343,146,71631,2,0,L|440:160,1,80
285,209,71964,2,0,P|259:158|323:65,1,160
333,63,72464,1,0,0:0:0:0:
194,218,72631,6,0,B|227:295|227:295|192:380,1,160
16,276,73131,2,0,L|82:220,1,80
140,358,73464,5,0,0:0:0:0:
62,216,73631,1,0,0:0:0:0:
194,218,73797,5,0,0:0:0:0:
67,313,73964,1,0,0:0:0:0:
136,161,74131,6,0,B|199:172|199:172|226:164|226:164|303:171,1,160
326,272,74631,2,0,P|320:204|417:169,1,160
411,179,75131,5,0,0:0:0:0:
340,22,75297,1,0,0:0:0:0:
232,130,75464,5,0,0:0:0:0:
406,86,75631,1,0,0:0:0:0:
239,13,75797,5,0,0:0:0:0:
333,213,75964,2,0,L|327:111,1,80
261,253,76297,2,0,P|296:284|392:266,1,120
399,268,76631,6,0,B|428:214|405:172|405:172|413:154|413:154|402:132|405:111,1,160
408,17,77131,5,0,0:0:0:0:
481,116,77297,1,0,0:0:0:0:
268,165,77464,1,0,0:0:0:0:
236,169,77547,1,0,0:0:0:0:
204,173,77630,1,0,0:0:0:0:
172,177,77713,1,0,0:0:0:0:
140,181,77797,1,0,0:0:0:0:
108,185,77880,1,0,0:0:0:0:
71,189,77964,6,0,B|134:200|134:200|161:192|161:192|238:199,1,160
71,189,78464,5,0,0:0:0:0:
236,169,78631,1,0,0:0:0:0:
129,312,78797,5,0,0:0:0:0:
141,103,78964,1,0,0:0:0:0:
211,246,79131,5,0,0:0:0:0:
35,273,79297,1,0,0:0:0:0:
174,31,79464,6,0,P|97:36|62:104,1,160
168,259,79964,2,0,L|137:87,1,160
233,188,80464,1,0,0:0:0:0:
11,141,80631,6,0,P|53:90|148:109,1,160
32,241,81131,5,0,0:0:0:0:
9,31,81297,1,0,0:0:0:0:
176,162,81464,5,0,0:0:0:0:
12,142,81631,1,0,0:0:0:0:
174,28,81797,5,0,0:0:0:0:
167,268,81964,1,0,0:0:0:0:
311,201,82131,2,0,L|232:187,1,80
250,365,82464,1,0,0:0:0:0:
458,286,82631,2,0,B|395:297|395:297|368:289|368:289|291:296,1,160
167,268,83131,2,0,L|170:347,1,80
177,256,83464,5,0,0:0:0:0:
95,321,83631,1,0,0:0:0:0:
114,158,83797,5,0,0:0:0:0:
170,347,83964,1,0,0:0:0:0:
232,174,84131,5,0,0:0:0:0:
22,283,84297,1,0,0:0:0:0:
250,334,84464,5,0,0:0:0:0:
159,48,84631,6,0,P|215:29|310:77,1,160
260,242,85131,5,0,0:0:0:0:
220,145,85297,1,0,0:0:0:0:
339,39,85464,5,0,0:0:0:0:
334,78,85547,1,0,0:0:0:0:
330,118,85630,1,0,0:0:0:0:
325,158,85713,1,0,0:0:0:0:
321,197,85797,1,0,0:0:0:0:
317,234,85881,1,0,0:0:0:0:
315,270,85964,6,0,P|364:308|461:277,1,160
387,148,86464,2,0,L|386:215,1,40
387,148,86631,2,0,P|339:173|240:126,1,160
404,59,87131,1,0,0:0:0:0:
317,234,87297,2,0,L|140:222,1,160
316,155,87797,6,0,P|377:180|392:249,1,120
327,353,88131,2,0,L|315:222,1,120
202,237,88464,2,0,P|259:251|315:233,1,120
179,162,88797,5,0,0:0:0:0:
256,192,88881,12,0,98131,0:0:0:0:
