osu file format v14

[General]
AudioFilename: KAREMESHILOLOLOLOLOL.mp3
AudioLeadIn: 0
PreviewTime: 124238
Countdown: 0
SampleSet: Normal
StackLeniency: 0.7
Mode: 1
LetterboxInBreaks: 0
WidescreenStoryboard: 0

[Editor]
DistanceSpacing: 0.8
BeatDivisor: 4
GridSize: 32
TimelineZoom: 2.2

[Metadata]
Title:Love x Love Whistle
TitleUnicode:愛×愛ホイッスル
Artist:PolyphonicBranch
ArtistUnicode:PolyphonicBranch
Creator:AxelHino
Version:Inner Oni
Source:
Tags:vocaloid rin kagamine miku hatsune 鏡音リン 初音ミク
BeatmapID:704689
BeatmapSetID:316229

[Difficulty]
HPDrainRate:6
CircleSize:5
OverallDifficulty:6
ApproachRate:5
SliderMultiplier:1.4
SliderTickRate:1

[Events]
//Background and Video events
0,0,"imcomingforyoukaremeshi.jpg",0,0
//Break Periods
//Storyboard Layer 0 (Background)
//Storyboard Layer 1 (Fail)
//Storyboard Layer 2 (Pass)
//Storyboard Layer 3 (Foreground)
//Storyboard Sound Samples

[TimingPoints]
834,375,4,1,0,80,1,0
32709,375,4,1,0,80,1,0
45834,333.333333333333,4,1,0,80,1,8
46167,333.333333333333,4,1,0,80,1,0
58166,-100,4,1,0,80,0,1
71500,-100,4,1,0,80,0,0
87833,-90.9090909090909,4,1,0,80,0,0
88166,-83.3333333333333,4,1,0,80,0,0
88500,250,4,1,0,80,1,8
88500,-105.263157894737,4,1,0,80,0,0
88750,250,4,1,0,80,1,0
88750,-105.263157894737,4,1,0,80,0,0
112750,302.267002518892,4,1,0,80,1,0
113656,-102.040816326531,4,1,0,80,0,0
113807,-106.382978723404,4,1,0,80,0,0
113959,333.333333333333,4,1,0,80,1,0
124625,-100,4,1,0,80,0,1
134958,-83.3333333333333,4,1,0,80,0,1
151292,-100,4,1,0,80,0,0

[HitObjects]
224,160,834,5,0,0:0:0:0:
224,160,1209,1,0,0:0:0:0:
224,160,1584,1,0,0:0:0:0:
224,160,1771,1,0,0:0:0:0:
224,160,1959,1,0,0:0:0:0:
224,160,2334,1,0,0:0:0:0:
256,128,2521,1,0,0:0:0:0:
256,128,2709,1,0,0:0:0:0:
256,128,2896,1,0,0:0:0:0:
256,128,3271,1,0,0:0:0:0:
256,128,3459,1,0,0:0:0:0:
224,64,3834,1,0,0:0:0:0:
224,64,4209,1,0,0:0:0:0:
320,96,4584,1,0,0:0:0:0:
320,96,4771,1,0,0:0:0:0:
320,96,4959,1,0,0:0:0:0:
320,96,5334,1,0,0:0:0:0:
320,96,5521,1,0,0:0:0:0:
320,96,5709,1,0,0:0:0:0:
320,96,5896,1,0,0:0:0:0:
320,96,6271,1,0,0:0:0:0:
320,96,6459,1,12,0:0:0:0:
320,96,6834,1,8,0:0:0:0:
320,96,7021,1,8,0:0:0:0:
320,96,7115,1,0,0:0:0:0:
320,96,7302,1,8,0:0:0:0:
192,160,7490,1,0,0:0:0:0:
192,160,7677,1,0,0:0:0:0:
192,160,7865,1,0,0:0:0:0:
192,160,7959,1,8,0:0:0:0:
192,160,8146,1,8,0:0:0:0:
192,160,8334,1,8,0:0:0:0:
192,160,8521,1,8,0:0:0:0:
192,160,8615,1,0,0:0:0:0:
192,160,8802,1,8,0:0:0:0:
192,160,8990,1,0,0:0:0:0:
320,128,9177,1,0,0:0:0:0:
320,128,9271,1,0,0:0:0:0:
320,128,9459,1,8,0:0:0:0:
320,128,9646,1,8,0:0:0:0:
320,96,9834,1,0,0:0:0:0:
320,96,10021,1,8,0:0:0:0:
320,96,10115,1,0,0:0:0:0:
320,96,10302,1,8,0:0:0:0:
192,160,10490,1,0,0:0:0:0:
192,160,10677,1,0,0:0:0:0:
192,160,10865,1,0,0:0:0:0:
192,160,10959,1,8,0:0:0:0:
192,160,11146,1,8,0:0:0:0:
192,160,11334,1,8,0:0:0:0:
192,128,11521,1,0,0:0:0:0:
192,128,11709,1,8,0:0:0:0:
192,128,11802,1,0,0:0:0:0:
192,128,11990,1,8,0:0:0:0:
320,128,12177,1,8,0:0:0:0:
320,128,12271,1,0,0:0:0:0:
320,128,12459,1,0,0:0:0:0:
224,160,12646,1,8,0:0:0:0:
320,96,12834,1,8,0:0:0:0:
320,96,13021,1,8,0:0:0:0:
320,96,13115,1,0,0:0:0:0:
320,96,13302,1,8,0:0:0:0:
192,160,13490,1,0,0:0:0:0:
192,160,13677,1,0,0:0:0:0:
192,160,13865,1,0,0:0:0:0:
192,160,13959,1,8,0:0:0:0:
192,160,14146,1,8,0:0:0:0:
192,160,14334,1,8,0:0:0:0:
192,160,14521,1,8,0:0:0:0:
192,160,14615,1,0,0:0:0:0:
192,160,14802,1,8,0:0:0:0:
192,160,14990,1,0,0:0:0:0:
320,128,15177,1,0,0:0:0:0:
320,128,15271,1,0,0:0:0:0:
320,128,15459,1,8,0:0:0:0:
320,128,15646,1,8,0:0:0:0:
320,96,15834,1,0,0:0:0:0:
320,96,16021,1,8,0:0:0:0:
320,96,16115,1,0,0:0:0:0:
320,96,16302,1,8,0:0:0:0:
192,160,16490,1,0,0:0:0:0:
192,160,16677,1,0,0:0:0:0:
192,160,16865,1,0,0:0:0:0:
192,160,16959,1,8,0:0:0:0:
192,160,17146,1,8,0:0:0:0:
192,160,17334,1,8,0:0:0:0:
192,128,17521,1,0,0:0:0:0:
192,128,17709,1,8,0:0:0:0:
192,128,17802,1,0,0:0:0:0:
192,128,17990,1,8,0:0:0:0:
320,128,18177,1,8,0:0:0:0:
320,128,18271,1,0,0:0:0:0:
320,128,18459,1,0,0:0:0:0:
224,160,18646,1,8,0:0:0:0:
384,224,18834,1,8,0:0:0:0:
384,224,19209,1,8,0:0:0:0:
384,224,19584,1,8,0:0:0:0:
384,224,19771,1,8,0:0:0:0:
384,224,19959,1,8,0:0:0:0:
192,192,20334,1,0,0:0:0:0:
192,192,20427,1,0,0:0:0:0:
192,192,20521,1,8,0:0:0:0:
192,192,20615,1,0,0:0:0:0:
192,192,20709,1,0,0:0:0:0:
192,192,20802,1,8,0:0:0:0:
192,192,20990,1,0,0:0:0:0:
192,192,21084,1,8,0:0:0:0:
192,192,21177,1,8,0:0:0:0:
192,192,21271,1,0,0:0:0:0:
192,192,21365,1,8,0:0:0:0:
192,192,21459,1,0,0:0:0:0:
192,192,21646,1,0,0:0:0:0:
192,192,21834,1,8,0:0:0:0:
192,192,21927,1,8,0:0:0:0:
192,192,22021,1,0,0:0:0:0:
192,192,22115,1,0,0:0:0:0:
192,192,22209,1,8,0:0:0:0:
224,128,22396,1,0,0:0:0:0:
224,192,22490,1,0,0:0:0:0:
224,128,22584,1,8,0:0:0:0:
224,128,22677,1,8,0:0:0:0:
224,128,22771,1,0,0:0:0:0:
224,128,22865,1,0,0:0:0:0:
128,160,23334,1,8,0:0:0:0:
128,160,23427,1,0,0:0:0:0:
128,160,23521,1,8,0:0:0:0:
128,160,23615,1,0,0:0:0:0:
128,160,23709,1,8,0:0:0:0:
128,160,23802,1,8,0:0:0:0:
311,153,23896,1,0,0:0:0:0:
128,160,23990,1,8,0:0:0:0:
128,160,24177,1,8,0:0:0:0:
128,160,24271,1,8,0:0:0:0:
128,160,24365,1,0,0:0:0:0:
32,160,24459,1,0,0:0:0:0:
128,160,24646,1,0,0:0:0:0:
128,160,24834,1,8,0:0:0:0:
128,160,25021,1,0,0:0:0:0:
128,160,25209,1,8,0:0:0:0:
128,160,25396,1,8,0:0:0:0:
128,160,25584,1,0,0:0:0:0:
128,160,25771,1,8,0:0:0:0:
128,160,25865,1,0,0:0:0:0:
311,153,26052,1,0,0:0:0:0:
128,160,26146,1,0,0:0:0:0:
128,160,26334,1,8,0:0:0:0:
128,160,26427,1,8,0:0:0:0:
128,160,26521,1,8,0:0:0:0:
128,160,26615,1,8,0:0:0:0:
128,192,26709,1,0,0:0:0:0:
128,160,26802,1,0,0:0:0:0:
160,160,26896,1,0,0:0:0:0:
128,192,26990,1,0,0:0:0:0:
352,160,27084,1,8,0:0:0:0:
352,160,27271,1,0,0:0:0:0:
352,160,27365,1,0,0:0:0:0:
352,160,27552,1,0,0:0:0:0:
352,160,27646,1,0,0:0:0:0:
352,160,27740,1,0,0:0:0:0:
352,160,27834,1,8,0:0:0:0:
352,160,27927,1,0,0:0:0:0:
352,160,28021,1,0,0:0:0:0:
352,160,28115,1,0,0:0:0:0:
352,160,28209,1,8,0:0:0:0:
352,160,28396,1,0,0:0:0:0:
352,160,28490,1,8,0:0:0:0:
352,160,28677,1,8,0:0:0:0:
352,160,28865,1,0,0:0:0:0:
352,160,29052,1,0,0:0:0:0:
352,160,29240,1,0,0:0:0:0:
352,160,29334,1,8,0:0:0:0:
96,128,29427,1,8,0:0:0:0:
96,128,29521,1,0,0:0:0:0:
96,128,29615,1,0,0:0:0:0:
96,128,29709,1,8,0:0:0:0:
96,128,29802,1,8,0:0:0:0:
96,128,29896,1,8,0:0:0:0:
96,128,29990,1,0,0:0:0:0:
96,128,30084,1,8,0:0:0:0:
96,128,30177,1,8,0:0:0:0:
96,128,30271,1,0,0:0:0:0:
96,128,30365,1,0,0:0:0:0:
96,128,30459,1,0,0:0:0:0:
32,128,30646,1,0,0:0:0:0:
32,128,30834,1,8,0:0:0:0:
32,128,30927,1,8,0:0:0:0:
32,128,31021,1,0,0:0:0:0:
32,128,31115,1,0,0:0:0:0:
32,128,31209,1,8,0:0:0:0:
32,128,31302,1,8,0:0:0:0:
32,128,31396,1,0,0:0:0:0:
32,128,31490,1,0,0:0:0:0:
32,128,31584,1,8,0:0:0:0:
32,128,31771,1,0,0:0:0:0:
32,128,31959,1,8,0:0:0:0:
32,128,32334,1,12,0:0:0:0:
160,128,32709,1,0,0:0:0:0:
160,128,32802,1,0,0:0:0:0:
160,128,32896,1,8,0:0:0:0:
160,128,32990,1,8,0:0:0:0:
96,160,33084,1,0,0:0:0:0:
96,160,33177,1,0,0:0:0:0:
96,160,33271,1,8,0:0:0:0:
96,160,33365,1,8,0:0:0:0:
96,160,33552,1,8,0:0:0:0:
96,160,33646,1,0,0:0:0:0:
96,160,33740,1,0,0:0:0:0:
96,160,34209,1,0,0:0:0:0:
96,160,34302,1,0,0:0:0:0:
96,160,34396,1,0,0:0:0:0:
96,160,34490,1,0,0:0:0:0:
256,128,34677,1,0,0:0:0:0:
256,128,34865,1,0,0:0:0:0:
256,128,34959,1,8,0:0:0:0:
256,128,35146,1,8,0:0:0:0:
256,128,35240,1,0,0:0:0:0:
256,128,35427,1,0,0:0:0:0:
256,128,35521,1,0,0:0:0:0:
256,128,35615,1,0,0:0:0:0:
256,128,35709,1,8,0:0:0:0:
256,128,35802,1,8,0:0:0:0:
256,128,35896,1,8,0:0:0:0:
256,128,35990,1,8,0:0:0:0:
256,128,36084,1,0,0:0:0:0:
256,128,36177,1,0,0:0:0:0:
256,128,36271,1,0,0:0:0:0:
256,128,36365,1,8,0:0:0:0:
224,160,36552,1,8,0:0:0:0:
224,160,36646,1,8,0:0:0:0:
224,160,36740,1,0,0:0:0:0:
224,160,36927,1,0,0:0:0:0:
224,160,37021,1,0,0:0:0:0:
224,160,37115,1,0,0:0:0:0:
224,160,37209,1,8,0:0:0:0:
224,160,37396,1,0,0:0:0:0:
224,160,37490,1,0,0:0:0:0:
224,160,37584,1,8,0:0:0:0:
224,160,37677,1,8,0:0:0:0:
224,160,37865,1,8,0:0:0:0:
224,160,37959,1,8,0:0:0:0:
32,128,38146,1,8,0:0:0:0:
32,128,38427,1,0,0:0:0:0:
32,128,38521,1,0,0:0:0:0:
32,128,38615,1,0,0:0:0:0:
32,128,38709,1,8,0:0:0:0:
32,128,38802,1,8,0:0:0:0:
32,128,38896,1,8,0:0:0:0:
32,128,38990,1,8,0:0:0:0:
32,128,39084,1,8,0:0:0:0:
32,128,39177,1,0,0:0:0:0:
32,128,39271,1,0,0:0:0:0:
320,256,39365,1,0,0:0:0:0:
320,256,39459,1,8,0:0:0:0:
32,128,39552,1,8,0:0:0:0:
32,128,39646,1,0,0:0:0:0:
320,256,39740,1,0,0:0:0:0:
32,128,39927,1,0,0:0:0:0:
32,128,40020,1,0,0:0:0:0:
32,128,40114,1,0,0:0:0:0:
320,256,40209,1,8,0:0:0:0:
320,256,40302,1,8,0:0:0:0:
320,256,40396,1,8,0:0:0:0:
320,256,40490,1,8,0:0:0:0:
320,256,40584,1,8,0:0:0:0:
320,256,40677,1,0,0:0:0:0:
320,256,40771,1,0,0:0:0:0:
320,256,40865,1,8,0:0:0:0:
320,256,40959,1,8,0:0:0:0:
320,256,41146,1,8,0:0:0:0:
320,256,41240,1,0,0:0:0:0:
320,256,41427,1,0,0:0:0:0:
320,256,41521,1,0,0:0:0:0:
320,256,41615,1,0,0:0:0:0:
320,256,41709,1,8,0:0:0:0:
320,256,41802,1,8,0:0:0:0:
320,256,41896,1,8,0:0:0:0:
320,256,41990,1,8,0:0:0:0:
320,256,42084,1,0,0:0:0:0:
320,256,42177,1,8,0:0:0:0:
320,256,42271,1,0,0:0:0:0:
320,256,42365,1,8,0:0:0:0:
320,256,42459,1,8,0:0:0:0:
320,256,42552,1,8,0:0:0:0:
320,256,42646,1,8,0:0:0:0:
320,256,42740,1,0,0:0:0:0:
320,256,42834,1,0,0:0:0:0:
320,256,43209,1,8,0:0:0:0:
288,256,43396,1,8,0:0:0:0:
288,256,43490,1,8,0:0:0:0:
288,256,43584,1,0,0:0:0:0:
288,256,43771,1,8,0:0:0:0:
288,256,43865,1,0,0:0:0:0:
288,256,43959,1,0,0:0:0:0:
288,256,44146,1,0,0:0:0:0:
160,160,44240,1,0,0:0:0:0:
288,256,44334,1,8,0:0:0:0:
288,256,44709,1,12,0:0:0:0:
320,160,46167,1,8,0:0:0:0:
320,160,46250,1,8,0:0:0:0:
320,160,46333,1,8,0:0:0:0:
320,160,46417,1,8,0:0:0:0:
320,160,46500,1,8,0:0:0:0:
320,160,46583,1,8,0:0:0:0:
320,160,46667,1,8,0:0:0:0:
320,160,46750,1,8,0:0:0:0:
320,160,46833,1,0,0:0:0:0:
320,160,46917,1,0,0:0:0:0:
320,160,47000,1,0,0:0:0:0:
320,160,47083,1,0,0:0:0:0:
320,160,47167,1,0,0:0:0:0:
320,160,47250,1,0,0:0:0:0:
320,160,47333,1,0,0:0:0:0:
320,160,47417,1,0,0:0:0:0:
320,160,47500,1,8,0:0:0:0:
320,160,47667,1,8,0:0:0:0:
320,160,47750,1,8,0:0:0:0:
320,160,47833,1,0,0:0:0:0:
320,160,48000,1,8,0:0:0:0:
320,160,48167,1,0,0:0:0:0:
320,160,48333,1,0,0:0:0:0:
320,160,48417,1,0,0:0:0:0:
320,160,48500,1,8,0:0:0:0:
320,160,48667,1,8,0:0:0:0:
320,160,48833,1,0,0:0:0:0:
320,160,49000,1,8,0:0:0:0:
320,160,49083,1,8,0:0:0:0:
320,160,49167,1,0,0:0:0:0:
320,160,49333,1,8,0:0:0:0:
320,160,49500,1,0,0:0:0:0:
320,160,49584,1,8,0:0:0:0:
320,160,49667,1,8,0:0:0:0:
320,160,49833,1,0,0:0:0:0:
320,160,50000,1,8,0:0:0:0:
320,160,50167,1,0,0:0:0:0:
320,160,50250,1,0,0:0:0:0:
320,160,50333,1,8,0:0:0:0:
320,160,50417,1,0,0:0:0:0:
320,160,50500,1,8,0:0:0:0:
320,160,50667,1,0,0:0:0:0:
320,160,50750,1,8,0:0:0:0:
320,160,50917,1,8,0:0:0:0:
320,160,51000,1,0,0:0:0:0:
320,160,51167,1,8,0:0:0:0:
224,160,51500,1,0,0:0:0:0:
224,160,51583,1,0,0:0:0:0:
224,160,51667,1,8,0:0:0:0:
224,160,51750,1,0,0:0:0:0:
224,160,51833,1,8,0:0:0:0:
224,160,52000,1,0,0:0:0:0:
224,160,52083,1,8,0:0:0:0:
224,160,52250,1,8,0:0:0:0:
224,160,52333,1,0,0:0:0:0:
224,160,52500,1,8,0:0:0:0:
320,160,52833,1,8,0:0:0:0:
320,160,53000,1,8,0:0:0:0:
320,160,53083,1,8,0:0:0:0:
320,160,53166,1,0,0:0:0:0:
320,160,53333,1,8,0:0:0:0:
320,160,53500,1,0,0:0:0:0:
320,160,53666,1,0,0:0:0:0:
320,160,53750,1,0,0:0:0:0:
320,160,53833,1,8,0:0:0:0:
320,160,54000,1,8,0:0:0:0:
320,160,54166,1,0,0:0:0:0:
320,160,54333,1,8,0:0:0:0:
320,160,54416,1,8,0:0:0:0:
320,160,54500,1,0,0:0:0:0:
320,160,54666,1,8,0:0:0:0:
320,160,54833,1,0,0:0:0:0:
320,160,54917,1,8,0:0:0:0:
320,160,55000,1,8,0:0:0:0:
320,160,55166,1,0,0:0:0:0:
352,192,55500,1,8,0:0:0:0:
352,192,55722,1,8,0:0:0:0:
352,192,55833,1,0,0:0:0:0:
352,192,56055,1,8,0:0:0:0:
352,192,56166,1,8,0:0:0:0:
352,192,56389,1,8,0:0:0:0:
352,192,56500,1,0,0:0:0:0:
256,96,56722,1,8,0:0:0:0:
352,192,56833,1,8,0:0:0:0:
256,96,57055,1,0,0:0:0:0:
352,192,57167,1,8,0:0:0:0:
192,96,57500,1,8,0:0:0:0:
192,96,58167,1,4,0:0:0:0:
352,192,58333,1,8,0:0:0:0:
352,192,58417,1,8,0:0:0:0:
352,192,58500,1,0,0:0:0:0:
352,192,58667,1,8,0:0:0:0:
352,192,58833,1,0,0:0:0:0:
352,192,58917,1,0,0:0:0:0:
352,192,59000,1,8,0:0:0:0:
352,192,59083,1,8,0:0:0:0:
352,192,59167,1,0,0:0:0:0:
352,192,59333,1,8,0:0:0:0:
352,192,59500,1,0,0:0:0:0:
352,192,59667,1,8,0:0:0:0:
352,192,59750,1,8,0:0:0:0:
352,192,59833,1,0,0:0:0:0:
352,192,60000,1,8,0:0:0:0:
352,192,60167,1,0,0:0:0:0:
352,192,60250,1,0,0:0:0:0:
352,192,60333,1,8,0:0:0:0:
352,192,60500,1,8,0:0:0:0:
352,192,60833,1,0,0:0:0:0:
352,192,61000,1,8,0:0:0:0:
352,192,61083,1,0,0:0:0:0:
352,192,61167,1,0,0:0:0:0:
352,192,61333,1,8,0:0:0:0:
352,192,61500,1,0,0:0:0:0:
352,192,61583,1,0,0:0:0:0:
352,192,61667,1,8,0:0:0:0:
352,192,61833,1,0,0:0:0:0:
352,192,62000,1,8,0:0:0:0:
352,192,62167,1,0,0:0:0:0:
352,192,62250,1,0,0:0:0:0:
352,192,62333,1,8,0:0:0:0:
352,192,62417,1,8,0:0:0:0:
352,192,62500,1,0,0:0:0:0:
352,192,62583,1,0,0:0:0:0:
352,192,62667,1,8,0:0:0:0:
352,192,62750,1,8,0:0:0:0:
352,192,62833,1,0,0:0:0:0:
352,192,63167,1,12,0:0:0:0:
352,192,63500,1,0,0:0:0:0:
352,192,63667,1,0,0:0:0:0:
352,192,63750,1,8,0:0:0:0:
352,192,63833,1,8,0:0:0:0:
352,192,64000,1,8,0:0:0:0:
224,160,64083,1,8,0:0:0:0:
224,160,64167,1,0,0:0:0:0:
224,160,64333,1,0,0:0:0:0:
224,160,64500,1,8,0:0:0:0:
224,160,64667,1,8,0:0:0:0:
224,160,64750,1,8,0:0:0:0:
224,160,64833,1,0,0:0:0:0:
224,160,65000,1,8,0:0:0:0:
224,160,65167,1,0,0:0:0:0:
224,160,65250,1,0,0:0:0:0:
224,160,65333,1,8,0:0:0:0:
224,160,65500,1,8,0:0:0:0:
224,160,65667,1,8,0:0:0:0:
224,160,65750,1,8,0:0:0:0:
224,160,65833,1,0,0:0:0:0:
224,160,66167,1,8,0:0:0:0:
224,160,66250,1,0,0:0:0:0:
224,160,66333,1,0,0:0:0:0:
224,160,66417,1,0,0:0:0:0:
224,160,66500,1,8,0:0:0:0:
224,160,66583,1,0,0:0:0:0:
224,160,66667,1,0,0:0:0:0:
224,160,66750,1,0,0:0:0:0:
224,160,66833,1,8,0:0:0:0:
224,160,66917,1,8,0:0:0:0:
224,160,67000,1,0,0:0:0:0:
224,160,67083,1,0,0:0:0:0:
224,160,67167,1,8,0:0:0:0:
224,160,67500,1,8,0:0:0:0:
224,160,67583,1,0,0:0:0:0:
224,160,67667,1,0,0:0:0:0:
224,160,67750,1,0,0:0:0:0:
224,160,67833,1,8,0:0:0:0:
224,160,67917,1,0,0:0:0:0:
224,160,68000,1,0,0:0:0:0:
224,160,68083,1,0,0:0:0:0:
224,160,68167,1,8,0:0:0:0:
224,160,68250,1,8,0:0:0:0:
224,160,68333,1,0,0:0:0:0:
224,160,68417,1,0,0:0:0:0:
224,160,68500,1,8,0:0:0:0:
224,160,68833,1,12,0:0:0:0:
224,160,69167,1,0,0:0:0:0:
224,160,69333,1,8,0:0:0:0:
224,160,69667,1,0,0:0:0:0:
224,160,70000,1,4,0:0:0:0:
224,160,70333,1,4,0:0:0:0:
224,160,70667,1,4,0:0:0:0:
224,160,70833,1,12,0:0:0:0:
224,160,71500,1,12,0:0:0:0:
224,160,71833,1,8,0:0:0:0:
224,160,72083,1,0,0:0:0:0:
224,160,72167,1,0,0:0:0:0:
224,160,72333,1,8,0:0:0:0:
128,192,72666,1,0,0:0:0:0:
128,192,72833,1,8,0:0:0:0:
128,192,73000,1,8,0:0:0:0:
128,192,73166,1,8,0:0:0:0:
128,192,73416,1,0,0:0:0:0:
128,192,73499,1,0,0:0:0:0:
128,192,73666,1,8,0:0:0:0:
128,192,74000,1,0,0:0:0:0:
224,160,74166,1,8,0:0:0:0:
224,160,74499,1,8,0:0:0:0:
224,160,74749,1,0,0:0:0:0:
224,160,74833,1,0,0:0:0:0:
224,160,74999,1,8,0:0:0:0:
128,192,75332,1,0,0:0:0:0:
128,192,75499,1,8,0:0:0:0:
128,192,75666,1,8,0:0:0:0:
128,192,75832,1,8,0:0:0:0:
128,192,76082,1,0,0:0:0:0:
128,192,76165,1,0,0:0:0:0:
128,192,76332,1,8,0:0:0:0:
128,192,76666,1,0,0:0:0:0:
224,160,76833,1,12,0:0:0:0:
224,160,77166,1,8,0:0:0:0:
224,160,77416,1,0,0:0:0:0:
224,160,77500,1,0,0:0:0:0:
224,160,77666,1,8,0:0:0:0:
128,192,77999,1,0,0:0:0:0:
128,192,78166,1,8,0:0:0:0:
128,192,78333,1,8,0:0:0:0:
128,192,78499,1,8,0:0:0:0:
128,192,78749,1,0,0:0:0:0:
128,192,78832,1,0,0:0:0:0:
128,192,78999,1,8,0:0:0:0:
128,192,79333,1,0,0:0:0:0:
224,160,79500,1,8,0:0:0:0:
224,160,79833,1,8,0:0:0:0:
224,160,80083,1,0,0:0:0:0:
224,160,80167,1,0,0:0:0:0:
224,160,80333,1,8,0:0:0:0:
128,192,80666,1,0,0:0:0:0:
256,192,80833,12,0,81833,0:0:0:0:
96,160,82166,5,12,0:0:0:0:
96,160,86166,1,12,0:0:0:0:
96,160,87500,1,8,0:0:0:0:
96,160,87833,1,8,0:0:0:0:
96,160,88166,1,8,0:0:0:0:
96,160,88500,1,8,0:0:0:0:
96,160,88750,1,4,0:0:0:0:
96,160,89000,1,8,0:0:0:0:
96,160,89125,1,0,0:0:0:0:
96,160,89250,1,0,0:0:0:0:
96,160,89500,1,8,0:0:0:0:
96,160,89625,1,0,0:0:0:0:
96,160,89875,1,0,0:0:0:0:
96,160,90000,1,8,0:0:0:0:
384,288,90125,1,0,0:0:0:0:
384,288,90187,1,0,0:0:0:0:
384,288,90250,1,0,0:0:0:0:
224,160,90500,1,8,0:0:0:0:
224,160,90625,1,8,0:0:0:0:
224,160,90750,1,0,0:0:0:0:
192,160,91000,1,8,0:0:0:0:
192,160,91125,1,0,0:0:0:0:
224,160,91375,1,0,0:0:0:0:
192,160,91500,1,8,0:0:0:0:
192,160,91625,1,8,0:0:0:0:
192,160,91750,1,0,0:0:0:0:
192,160,91875,1,0,0:0:0:0:
192,160,92000,1,8,0:0:0:0:
192,160,92125,1,8,0:0:0:0:
192,160,92250,1,0,0:0:0:0:
192,160,92500,1,8,0:0:0:0:
192,160,92750,1,0,0:0:0:0:
192,160,93000,1,8,0:0:0:0:
192,160,93125,1,8,0:0:0:0:
192,160,93250,1,0,0:0:0:0:
192,160,93500,1,8,0:0:0:0:
192,160,93625,1,0,0:0:0:0:
192,160,93875,1,0,0:0:0:0:
192,160,94000,1,0,0:0:0:0:
128,128,94062,1,0,0:0:0:0:
128,128,94125,1,0,0:0:0:0:
192,160,94250,1,8,0:0:0:0:
192,160,94500,1,8,0:0:0:0:
192,160,94625,1,0,0:0:0:0:
192,160,94750,1,8,0:0:0:0:
192,160,95000,1,8,0:0:0:0:
192,160,95250,1,0,0:0:0:0:
192,160,95500,1,8,0:0:0:0:
192,160,95875,1,8,0:0:0:0:
192,160,96000,1,8,0:0:0:0:
192,160,96250,1,0,0:0:0:0:
192,160,96500,1,8,0:0:0:0:
192,160,96750,1,0,0:0:0:0:
192,160,97000,1,8,0:0:0:0:
192,160,97125,1,8,0:0:0:0:
192,160,97250,1,0,0:0:0:0:
192,160,97375,1,0,0:0:0:0:
192,160,97500,1,8,0:0:0:0:
192,160,97625,1,0,0:0:0:0:
192,160,97750,1,8,0:0:0:0:
192,160,98000,1,8,0:0:0:0:
192,160,98250,1,8,0:0:0:0:
192,160,98312,1,8,0:0:0:0:
192,160,98375,1,8,0:0:0:0:
192,160,98500,1,8,0:0:0:0:
160,160,98625,1,8,0:0:0:0:
160,160,98750,1,0,0:0:0:0:
192,160,98875,1,0,0:0:0:0:
192,160,99000,1,8,0:0:0:0:
192,160,99125,1,8,0:0:0:0:
192,160,99250,1,0,0:0:0:0:
192,160,99375,1,8,0:0:0:0:
192,160,99500,1,0,0:0:0:0:
192,160,99625,1,8,0:0:0:0:
192,160,99750,1,8,0:0:0:0:
224,96,100000,1,8,0:0:0:0:
224,96,100250,1,8,0:0:0:0:
224,96,100375,1,8,0:0:0:0:
224,96,100500,1,0,0:0:0:0:
224,96,100625,1,8,0:0:0:0:
224,96,100750,1,0,0:0:0:0:
224,96,100812,1,0,0:0:0:0:
224,96,100875,1,0,0:0:0:0:
224,96,101000,1,8,0:0:0:0:
224,96,101125,1,8,0:0:0:0:
224,96,101250,1,8,0:0:0:0:
224,96,101375,1,8,0:0:0:0:
224,96,101500,1,0,0:0:0:0:
224,96,101625,1,8,0:0:0:0:
224,96,101875,1,8,0:0:0:0:
224,96,101937,1,8,0:0:0:0:
224,96,102000,1,8,0:0:0:0:
224,96,102125,1,0,0:0:0:0:
224,96,102250,1,8,0:0:0:0:
224,96,102500,1,8,0:0:0:0:
224,96,102625,1,0,0:0:0:0:
224,96,102750,1,8,0:0:0:0:
224,96,103000,1,8,0:0:0:0:
224,96,103250,1,8,0:0:0:0:
224,96,103375,1,8,0:0:0:0:
224,96,103625,1,8,0:0:0:0:
224,96,103875,1,8,0:0:0:0:
224,96,104000,1,8,0:0:0:0:
224,96,104125,1,8,0:0:0:0:
224,96,104250,1,8,0:0:0:0:
224,96,104750,1,12,0:0:0:0:
224,96,105000,1,8,0:0:0:0:
224,96,105125,1,0,0:0:0:0:
224,96,105187,1,0,0:0:0:0:
224,96,105250,1,0,0:0:0:0:
224,96,105375,1,8,0:0:0:0:
224,96,105500,1,0,0:0:0:0:
224,96,105562,1,0,0:0:0:0:
224,96,105625,1,0,0:0:0:0:
224,96,105750,1,8,0:0:0:0:
224,96,106000,1,8,0:0:0:0:
224,96,106125,1,0,0:0:0:0:
224,96,106187,1,0,0:0:0:0:
224,96,106250,1,0,0:0:0:0:
224,96,106375,1,8,0:0:0:0:
224,96,106500,1,0,0:0:0:0:
224,96,106562,1,0,0:0:0:0:
224,96,106625,1,0,0:0:0:0:
224,96,106750,1,8,0:0:0:0:
224,96,106875,1,0,0:0:0:0:
224,96,107000,1,8,0:0:0:0:
192,64,107125,1,0,0:0:0:0:
128,192,107250,1,8,0:0:0:0:
128,192,107375,1,8,0:0:0:0:
192,64,107500,1,0,0:0:0:0:
192,96,107625,1,0,0:0:0:0:
192,96,107750,1,8,0:0:0:0:
192,96,108000,1,0,0:0:0:0:
192,96,108250,1,8,0:0:0:0:
192,96,108312,1,8,0:0:0:0:
192,96,108375,1,8,0:0:0:0:
192,96,108437,1,8,0:0:0:0:
192,96,108500,1,8,0:0:0:0:
224,96,108750,1,12,0:0:0:0:
224,96,109000,1,8,0:0:0:0:
224,96,109125,1,0,0:0:0:0:
224,96,109187,1,0,0:0:0:0:
224,96,109250,1,0,0:0:0:0:
224,96,109375,1,8,0:0:0:0:
224,96,109500,1,0,0:0:0:0:
224,96,109562,1,0,0:0:0:0:
224,96,109625,1,0,0:0:0:0:
224,96,109750,1,8,0:0:0:0:
224,96,110000,1,8,0:0:0:0:
224,96,110125,1,0,0:0:0:0:
224,96,110187,1,0,0:0:0:0:
224,96,110250,1,0,0:0:0:0:
224,96,110375,1,8,0:0:0:0:
224,96,110500,1,0,0:0:0:0:
224,96,110562,1,0,0:0:0:0:
224,96,110625,1,0,0:0:0:0:
224,96,110750,1,8,0:0:0:0:
224,96,110875,1,0,0:0:0:0:
224,96,111000,1,8,0:0:0:0:
192,64,111125,1,0,0:0:0:0:
128,192,111250,1,8,0:0:0:0:
128,192,111375,1,8,0:0:0:0:
192,64,111500,1,0,0:0:0:0:
192,96,111625,1,0,0:0:0:0:
192,96,111750,1,8,0:0:0:0:
224,96,111875,1,0,0:0:0:0:
224,96,112000,1,0,0:0:0:0:
224,96,112125,1,0,0:0:0:0:
224,96,112250,1,8,0:0:0:0:
224,256,112750,1,8,0:0:0:0:
224,256,112901,1,8,0:0:0:0:
224,256,113052,1,8,0:0:0:0:
224,256,113203,1,8,0:0:0:0:
224,256,113354,1,0,0:0:0:0:
224,256,113505,1,0,0:0:0:0:
224,256,113656,1,0,0:0:0:0:
224,256,113807,1,0,0:0:0:0:
320,160,113959,1,8,0:0:0:0:
320,160,114126,1,8,0:0:0:0:
320,160,114209,1,8,0:0:0:0:
320,160,114292,1,0,0:0:0:0:
320,160,114459,1,8,0:0:0:0:
320,160,114626,1,0,0:0:0:0:
320,160,114792,1,0,0:0:0:0:
320,160,114876,1,0,0:0:0:0:
320,160,114959,1,8,0:0:0:0:
320,160,115126,1,8,0:0:0:0:
320,160,115292,1,0,0:0:0:0:
320,160,115459,1,8,0:0:0:0:
320,160,115542,1,8,0:0:0:0:
320,160,115626,1,0,0:0:0:0:
320,160,115792,1,8,0:0:0:0:
320,160,115959,1,0,0:0:0:0:
320,160,116042,1,8,0:0:0:0:
320,160,116125,1,8,0:0:0:0:
320,160,116292,1,0,0:0:0:0:
320,160,116459,1,8,0:0:0:0:
320,160,116626,1,0,0:0:0:0:
320,160,116709,1,0,0:0:0:0:
320,160,116792,1,8,0:0:0:0:
320,160,116876,1,0,0:0:0:0:
320,160,116959,1,8,0:0:0:0:
320,160,117126,1,0,0:0:0:0:
320,160,117209,1,8,0:0:0:0:
320,160,117376,1,8,0:0:0:0:
320,160,117459,1,0,0:0:0:0:
320,160,117626,1,8,0:0:0:0:
224,160,117959,1,0,0:0:0:0:
224,160,118042,1,0,0:0:0:0:
224,160,118126,1,8,0:0:0:0:
224,160,118209,1,0,0:0:0:0:
224,160,118292,1,8,0:0:0:0:
224,160,118459,1,0,0:0:0:0:
224,160,118542,1,8,0:0:0:0:
224,160,118709,1,8,0:0:0:0:
224,160,118792,1,0,0:0:0:0:
224,160,118959,1,8,0:0:0:0:
320,160,119292,1,8,0:0:0:0:
320,160,119459,1,8,0:0:0:0:
320,160,119542,1,8,0:0:0:0:
320,160,119625,1,0,0:0:0:0:
320,160,119792,1,8,0:0:0:0:
320,160,119959,1,0,0:0:0:0:
320,160,120125,1,0,0:0:0:0:
320,160,120209,1,0,0:0:0:0:
320,160,120292,1,8,0:0:0:0:
320,160,120459,1,8,0:0:0:0:
320,160,120625,1,0,0:0:0:0:
320,160,120792,1,8,0:0:0:0:
320,160,120875,1,8,0:0:0:0:
320,160,120959,1,0,0:0:0:0:
320,160,121125,1,8,0:0:0:0:
320,160,121292,1,0,0:0:0:0:
320,160,121376,1,8,0:0:0:0:
320,160,121459,1,8,0:0:0:0:
320,160,121625,1,0,0:0:0:0:
352,192,121959,1,8,0:0:0:0:
352,192,122181,1,8,0:0:0:0:
352,192,122292,1,0,0:0:0:0:
352,192,122514,1,8,0:0:0:0:
352,192,122626,1,8,0:0:0:0:
352,192,122848,1,8,0:0:0:0:
352,192,122959,1,0,0:0:0:0:
352,192,123181,1,8,0:0:0:0:
352,192,123292,1,8,0:0:0:0:
96,160,123514,1,0,0:0:0:0:
352,192,123626,1,8,0:0:0:0:
192,96,123959,1,8,0:0:0:0:
192,96,124626,1,4,0:0:0:0:
352,192,124792,1,8,0:0:0:0:
352,192,124876,1,8,0:0:0:0:
352,192,124959,1,0,0:0:0:0:
352,192,125126,1,8,0:0:0:0:
352,192,125292,1,0,0:0:0:0:
352,192,125376,1,0,0:0:0:0:
352,192,125459,1,8,0:0:0:0:
352,192,125542,1,8,0:0:0:0:
352,192,125626,1,0,0:0:0:0:
352,192,125792,1,8,0:0:0:0:
352,192,125959,1,0,0:0:0:0:
352,192,126126,1,8,0:0:0:0:
352,192,126209,1,8,0:0:0:0:
352,192,126292,1,0,0:0:0:0:
352,192,126459,1,8,0:0:0:0:
352,192,126626,1,0,0:0:0:0:
352,192,126708,1,0,0:0:0:0:
352,192,126792,1,8,0:0:0:0:
352,192,126959,1,8,0:0:0:0:
352,192,127292,1,0,0:0:0:0:
352,192,127459,1,8,0:0:0:0:
352,192,127542,1,0,0:0:0:0:
352,192,127626,1,0,0:0:0:0:
352,192,127792,1,8,0:0:0:0:
352,192,127959,1,0,0:0:0:0:
352,192,128042,1,0,0:0:0:0:
352,192,128126,1,8,0:0:0:0:
352,192,128292,1,0,0:0:0:0:
352,192,128459,1,8,0:0:0:0:
352,192,128626,1,0,0:0:0:0:
352,192,128709,1,0,0:0:0:0:
352,192,128792,1,8,0:0:0:0:
352,192,128876,1,8,0:0:0:0:
352,192,128959,1,0,0:0:0:0:
352,192,129042,1,0,0:0:0:0:
352,192,129126,1,8,0:0:0:0:
352,192,129209,1,8,0:0:0:0:
352,192,129292,1,0,0:0:0:0:
352,192,129626,1,12,0:0:0:0:
352,192,129959,1,0,0:0:0:0:
352,192,130042,1,0,0:0:0:0:
128,192,130208,1,0,0:0:0:0:
352,192,130292,1,8,0:0:0:0:
352,192,130459,1,8,0:0:0:0:
224,160,130542,1,0,0:0:0:0:
224,160,130626,1,0,0:0:0:0:
224,160,130792,1,0,0:0:0:0:
224,160,130959,1,8,0:0:0:0:
224,160,131126,1,8,0:0:0:0:
224,160,131209,1,8,0:0:0:0:
224,160,131292,1,0,0:0:0:0:
224,160,131459,1,8,0:0:0:0:
224,160,131626,1,0,0:0:0:0:
224,160,131708,1,0,0:0:0:0:
224,160,131792,1,8,0:0:0:0:
224,160,131959,1,0,0:0:0:0:
224,160,132126,1,8,0:0:0:0:
224,160,132209,1,8,0:0:0:0:
224,160,132292,1,0,0:0:0:0:
224,160,132626,1,8,0:0:0:0:
224,160,132709,1,0,0:0:0:0:
224,160,132792,1,0,0:0:0:0:
224,160,132876,1,0,0:0:0:0:
224,160,132959,1,8,0:0:0:0:
224,160,133042,1,0,0:0:0:0:
224,160,133126,1,0,0:0:0:0:
224,160,133209,1,0,0:0:0:0:
224,160,133292,1,8,0:0:0:0:
224,160,133376,1,8,0:0:0:0:
224,160,133459,1,0,0:0:0:0:
224,160,133542,1,0,0:0:0:0:
224,160,133626,1,8,0:0:0:0:
224,160,133959,1,8,0:0:0:0:
224,160,134042,1,0,0:0:0:0:
224,160,134126,1,0,0:0:0:0:
224,160,134209,1,0,0:0:0:0:
224,160,134292,1,8,0:0:0:0:
224,160,134376,1,0,0:0:0:0:
224,160,134459,1,0,0:0:0:0:
224,160,134542,1,0,0:0:0:0:
224,160,134626,1,8,0:0:0:0:
96,192,134959,1,12,0:0:0:0:
192,96,135292,1,4,0:0:0:0:
352,192,135458,1,8,0:0:0:0:
352,192,135542,1,8,0:0:0:0:
352,192,135625,1,0,0:0:0:0:
352,192,135792,1,8,0:0:0:0:
352,192,135958,1,0,0:0:0:0:
352,192,136042,1,0,0:0:0:0:
352,192,136125,1,8,0:0:0:0:
352,192,136208,1,8,0:0:0:0:
352,192,136292,1,0,0:0:0:0:
352,192,136458,1,8,0:0:0:0:
224,96,136542,1,8,0:0:0:0:
352,192,136625,1,0,0:0:0:0:
352,192,136792,1,8,0:0:0:0:
352,192,136875,1,8,0:0:0:0:
352,192,136958,1,0,0:0:0:0:
352,192,137125,1,8,0:0:0:0:
352,192,137292,1,8,0:0:0:0:
352,192,137458,1,0,0:0:0:0:
224,96,137542,1,0,0:0:0:0:
352,192,137625,1,8,0:0:0:0:
352,192,137958,1,0,0:0:0:0:
352,192,138125,1,8,0:0:0:0:
352,192,138208,1,0,0:0:0:0:
352,192,138292,1,0,0:0:0:0:
352,192,138458,1,8,0:0:0:0:
352,192,138625,1,0,0:0:0:0:
352,192,138708,1,0,0:0:0:0:
352,192,138792,1,8,0:0:0:0:
224,96,138875,1,8,0:0:0:0:
352,192,138958,1,0,0:0:0:0:
352,192,139125,1,8,0:0:0:0:
352,192,139292,1,0,0:0:0:0:
352,192,139375,1,0,0:0:0:0:
352,192,139458,1,8,0:0:0:0:
352,192,139542,1,8,0:0:0:0:
352,192,139625,1,0,0:0:0:0:
352,192,139708,1,0,0:0:0:0:
352,192,139792,1,8,0:0:0:0:
352,192,139875,1,8,0:0:0:0:
352,192,139958,1,0,0:0:0:0:
352,192,140292,1,12,0:0:0:0:
352,192,140625,1,0,0:0:0:0:
352,192,140958,1,8,0:0:0:0:
352,192,141125,1,8,0:0:0:0:
224,160,141208,1,8,0:0:0:0:
224,160,141292,1,0,0:0:0:0:
224,160,141458,1,0,0:0:0:0:
224,160,141625,1,8,0:0:0:0:
224,160,141708,1,8,0:0:0:0:
224,160,141792,1,8,0:0:0:0:
224,160,141875,1,8,0:0:0:0:
224,160,141958,1,0,0:0:0:0:
224,160,142125,1,8,0:0:0:0:
224,160,142292,1,0,0:0:0:0:
224,160,142375,1,0,0:0:0:0:
224,160,142458,1,8,0:0:0:0:
224,160,142625,1,8,0:0:0:0:
224,160,142708,1,8,0:0:0:0:
224,160,142792,1,0,0:0:0:0:
224,160,142875,1,8,0:0:0:0:
224,160,142958,1,0,0:0:0:0:
224,160,143292,1,8,0:0:0:0:
224,160,143375,1,0,0:0:0:0:
224,160,143458,1,0,0:0:0:0:
224,160,143542,1,0,0:0:0:0:
224,160,143625,1,8,0:0:0:0:
224,160,143708,1,0,0:0:0:0:
224,160,143792,1,0,0:0:0:0:
224,160,143875,1,0,0:0:0:0:
224,160,143958,1,8,0:0:0:0:
224,160,144042,1,8,0:0:0:0:
224,160,144125,1,0,0:0:0:0:
224,160,144208,1,0,0:0:0:0:
224,160,144292,1,8,0:0:0:0:
224,160,144625,1,8,0:0:0:0:
224,160,144708,1,0,0:0:0:0:
224,160,144792,1,0,0:0:0:0:
224,160,144875,1,0,0:0:0:0:
224,160,144958,1,8,0:0:0:0:
224,160,145042,1,0,0:0:0:0:
224,160,145125,1,0,0:0:0:0:
224,160,145208,1,0,0:0:0:0:
224,160,145292,1,8,0:0:0:0:
224,160,145375,1,8,0:0:0:0:
224,160,145458,1,0,0:0:0:0:
224,160,145542,1,0,0:0:0:0:
224,160,145625,1,8,0:0:0:0:
224,160,145958,1,12,0:0:0:0:
224,160,146292,1,0,0:0:0:0:
224,160,146458,1,8,0:0:0:0:
224,160,146792,1,0,0:0:0:0:
224,160,147125,1,4,0:0:0:0:
224,160,147458,1,4,0:0:0:0:
224,160,147792,1,4,0:0:0:0:
224,160,147958,1,12,0:0:0:0:
224,160,148625,1,12,0:0:0:0:
224,160,148959,1,0,0:0:0:0:
224,160,149125,1,8,0:0:0:0:
224,160,149459,1,0,0:0:0:0:
224,160,149792,1,4,0:0:0:0:
224,160,150125,1,4,0:0:0:0:
224,160,150459,1,4,0:0:0:0:
224,160,150625,1,12,0:0:0:0:
320,192,151292,1,0,0:0:0:0:
320,192,151625,1,0,0:0:0:0:
320,192,151959,1,0,0:0:0:0:
320,192,152292,1,8,0:0:0:0:
320,192,152403,1,8,0:0:0:0:
320,192,152514,1,8,0:0:0:0:
320,192,152625,1,0,0:0:0:0:
320,192,152959,1,0,0:0:0:0:
320,192,153292,1,0,0:0:0:0:
320,192,153625,1,8,0:0:0:0:
320,192,153736,1,8,0:0:0:0:
320,192,153847,1,8,0:0:0:0:
320,192,153959,1,0,0:0:0:0:
320,192,154292,1,0,0:0:0:0:
320,192,154625,1,0,0:0:0:0:
320,192,154959,1,8,0:0:0:0:
320,192,155070,1,8,0:0:0:0:
320,192,155181,1,8,0:0:0:0:
320,192,155292,1,0,0:0:0:0:
320,192,155625,1,0,0:0:0:0:
320,192,155959,1,0,0:0:0:0:
