osu file format v5

[General]
AudioFilename: PKMN.mp3
AudioLeadIn: 971
PreviewTime: -1
Countdown: 1
SampleSet: Soft
StackLeniency: 0.7
Mode: 0
LetterboxInBreaks: 1

[Metadata]
Title:Final Battle
Artist:Pokemon G/S/C
Creator:Larto
Version:vs. Rattata
Source:Fairuzon from Newsground
Tags:

[Difficulty]
HPDrainRate:2
CircleSize:3
OverallDifficulty:4
SliderMultiplier:0.9
SliderTickRate:2

[Events]
//Background and Video events
0,0,"Two.PNG"
//Break Periods
2,21925,22325
2,63325,67475
//Storyboard Layer 0 (Background)
//Storyboard Layer 1 (Failing)
//Storyboard Layer 2 (Passing)
//Storyboard Layer 3 (Foreground)
//Storyboard Sound Samples
//Background Colour Transformations
3,100,0,0,0

[TimingPoints]
1342,300,4,2,0,100,1
6062,-100,4,1,0,100,0
33137,-100,4,2,0,100,0
34637,-100,4,1,0,100,0
35612,-100,4,2,0,100,0
36662,-100,4,1,0,100,0
49262,-100,4,2,0,100,0
49449,-100,4,2,0,91,0
49599,-100,4,2,0,80,0
49749,-100,4,2,0,70,0
49899,-100,4,2,0,59,0
50049,-100,4,2,0,50,0
50199,-100,4,2,0,49,0
50349,-100,4,2,0,39,0
50499,-100,4,2,0,30,0
54099,-100,4,1,0,100,0
63742,-100,4,1,0,0,0
63817,-100,4,1,0,100,0
78737,-100,4,2,0,100,0
80162,-100,4,1,0,100,0
81137,-100,4,2,0,100,0
82787,-100,4,1,0,100,0
94787,-100,4,2,0,100,0
99287,-100,4,1,0,100,0

[Colours]
Combo1 : 50,62,109
Combo2 : 230,230,0
Combo3 : 192,192,192

[HitObjects]
256,192,1342,1,2
256,192,2542,5,2
256,192,3742,5,2
256,192,4942,5,2
120,192,6142,6,8,C|256:312,1,180
392,192,7342,6,8,C|256:312,1,180
192,144,8542,6,8,C|264:328,1,180
320,144,9742,6,8,C|248:328,1,180
88,192,10942,5,0
144,304,11542,1,8
200,192,12142,1,0
256,304,12742,1,8
312,192,13342,5,0
368,304,13942,1,8
424,192,14542,1,0
480,304,15142,1,8
352,304,15742,6,2,C|160:304,1,180,2|8
264,224,16942,2,2,C|464:224,1,180,2|8
352,136,18142,2,2,C|160:136,1,180,2|8
264,56,19342,2,2,C|456:56,1,180,2|8
368,184,20542,5,4
256,184,21142,1,4
144,184,21742,1,6
256,184,22942,6,2,C|256:328,1,135,2|8
320,184,24142,1,0
192,184,24742,1,0
192,56,25342,1,4
320,56,25942,1,4
256,160,26542,5,0
256,160,26842,1,2
256,160,27142,1,0
256,160,27442,1,2
256,160,27742,6,2,C|256:16,1,135,2|8
320,160,28942,1,0
192,160,29542,1,0
192,288,30142,1,4
320,288,30742,1,4
256,184,31342,5,0
256,184,31642,1,0
256,184,31942,1,2
200,296,32542,6,8,C|256:328|256:328|312:296,1,135
288,208,33442,2,0,C|288:112,1,90
224,120,34042,2,0,C|224:232,1,90
312,296,34942,6,8,C|256:328|256:328|200:296,1,135
224,208,35842,2,0,C|224:112,1,90
288,120,36442,2,0,C|288:232,1,90,0|8
416,216,37342,5,2
296,168,37942,1,0
176,216,38542,1,2
56,168,39142,1,0
256,192,39742,12,4,42142
256,192,43342,5,4
424,280,44542,6,2,C|424:80,1,180
304,128,45742,1,0
304,256,46342,1,4
88,104,46942,6,2,C|88:304,1,180
208,256,48142,1,0
208,128,48742,1,4
144,16,49342,6,4,C|176:96|256:136|336:96|376:8,3,360
256,160,53842,1,4
256,160,54142,6,4,C|64:160,1,180,12|12
256,160,55342,2,4,C|256:344,1,180
256,160,56542,2,8,C|448:160,1,180
256,160,57742,1,0
256,160,58042,1,0
256,160,58342,1,8
160,240,58942,6,6,L|160:184|160:184|224:216|224:216|224:160,1,180
352,240,60142,6,6,L|352:184|352:184|288:216|288:216|288:160,1,180
184,232,61342,6,6,B|216:280|240:296|256:272|272:296|296:280|328:232,3,180
256,192,68542,5,2
144,192,69142,1,0
200,280,69742,1,0
312,280,70342,1,0
368,192,70942,2,8,B|256:192,2,90
304,96,72142,2,4,B|304:56|304:24|256:24|216:16|216:56|216:120,1,180
160,192,73342,6,2,B|160:336,1,135
256,232,74542,2,8,B|256:128,2,90
352,192,75742,2,2,B|352:344,2,135
352,192,76942,2,2,B|352:48,2,135
280,208,78142,6,8,B|224:208,1,45,8|8
256,128,78592,1,8
256,192,78742,12,4,80242
280,176,80542,6,8,B|224:176,1,45,8|8
256,256,80992,1,8
256,192,81142,12,0,82642
112,192,82942,5,0
208,240,83542,1,0
304,192,84142,1,0
400,240,84742,1,0
408,128,85342,6,0,B|296:8|208:8|96:144,3,360,0|0|0|0
256,112,89842,1,0
256,192,90142,6,2,B|256:304,3,90
256,192,91342,1,8
256,192,91642,1,8
256,192,91942,1,8
256,192,92242,1,0
256,192,92542,6,2,B|256:80,3,90
256,192,93742,1,8
256,192,94042,1,8
256,192,94342,1,8
256,192,94642,1,0
288,280,94942,6,0,B|328:320,6,45,0|0|0|0|0|0|8
288,216,96142,2,0,B|328:184,6,45,0|0|0|0|0|0|4
224,216,97342,2,0,B|184:176,6,45,0|0|0|0|0|0|8
224,280,98542,2,0,B|184:312,6,45
216,216,99742,6,8,B|112:216|112:96,1,180
216,112,100942,2,4,B|216:8|336:8,1,180,4|4
304,112,102142,2,8,B|408:112|408:232,1,180
304,208,103342,2,4,B|304:312|184:312,1,180,4|4
80,280,104542,5,0
144,192,105142,1,2
208,280,105742,1,0
272,192,106342,1,2
192,112,106942,5,0
256,24,107542,1,2
320,112,108142,1,2
384,24,108742,1,2
256,192,109342,12,4,110542
