osu file format v5

[General]
AudioFilename: Pokemon-Advance Adventure.mp3
AudioLeadIn: 0
PreviewTime: 50000
Countdown: 1
SampleSet: Normal
StackLeniency: 0.7
Mode: 0
LetterboxInBreaks: 1
EditorBookmarks: 50000,67322

[Metadata]
Title:Advance Adventure
Artist:GARDEN
Creator:luke0719
Version:Hard
Source:Pokemon Adavance Generation Opening
Tags:garden pokemon Advance Generation Adventure

[Difficulty]
HPDrainRate:7
CircleSize:6
OverallDifficulty:7
SliderMultiplier:1.4
SliderTickRate:2

[Events]
//Background and Video events
0,0,"wallpaper_1024x768.jpg"
//Break Periods
2,23034,25916
2,29992,31625
2,48902,49765
2,75128,78398
2,95911,99004
2,139664,140529
//Storyboard Layer 0 (Background)
//Storyboard Layer 1 (Failing)
//Storyboard Layer 2 (Passing)
//Storyboard Layer 3 (Foreground)
//Storyboard Sound Samples
//Background Colour Transformations
3,100,163,162,255

[TimingPoints]
715,357.142857142857,4,1,0,100,1

[Colours]
Combo1 : 255,255,255
Combo2 : 128,255,128
Combo3 : 60,157,255
Combo4 : 255,140,85
Combo5 : 255,157,255

[HitObjects]
66,63,6429,1,4
165,115,6786,1,0
207,78,6965,1,0
317,62,7322,1,0
394,142,7679,5,4
292,189,8036,1,0
247,155,8215,1,0
194,173,8393,1,0
144,148,8572,1,0
35,174,8929,1,0
86,273,9286,5,4
197,287,9643,1,0
243,255,9822,1,0
350,285,10179,1,0
418,196,10536,5,4
319,143,10893,1,0
265,124,11072,1,0
164,174,11429,1,4
357,61,12143,5,0
244,61,12500,1,0
131,62,12857,2,0,B|90:92|58:134|52:168|52:200,1,140
53,174,13393,1,0
53,174,13572,2,0,B|54:226|60:251|74:279|92:309|116:344|164:355,1,210
427,351,15000,5,0
466,246,15357,1,0
462,133,15714,2,0,B|445:84|421:66|392:52|353:42,1,140
362,44,16250,1,0
362,44,16429,1,0
306,44,16607,1,0
250,48,16786,2,4,B|214:39|180:66,1,70
66,317,17857,5,4
145,238,18214,1,0
182,279,18393,1,0
277,220,18750,1,0
278,332,19107,1,4
276,219,19464,1,0
278,330,19822,1,0
375,274,20179,1,0
431,275,20357,1,0
466,168,20714,5,4
382,93,21072,1,0
337,126,21250,1,0
236,77,21607,1,0
129,110,21964,1,4
73,207,22322,1,0
102,254,22500,1,0
202,302,22857,1,0
456,89,27143,5,0
407,60,27322,1,0
350,63,27500,2,0,B|302:131,1,70
253,125,27857,1,0
158,64,28214,1,0
117,102,28393,1,0
80,144,28572,5,0
45,188,28750,1,0
99,199,28929,2,0,B|173:218,1,70
192,266,29286,2,0,B|120:310,1,70
213,225,29822,1,0
58,64,32857,5,0
111,48,33036,1,0
165,60,33214,1,0
148,113,33393,2,0,B|113:100|65:111,1,70
190,111,33929,1,0
190,111,34107,1,0
290,62,34464,5,0
400,78,34822,1,0
446,47,35000,1,0
446,158,35357,1,0
400,125,35536,1,0
290,102,35893,1,0
345,103,36072,2,0,B|329:151|314:174|282:193|243:205,1,140
141,202,36786,1,0
179,242,36965,1,0
312,249,37322,1,0
422,248,37857,1,4
207,314,38572,5,0
151,314,38750,1,0
106,280,38929,1,0
106,280,39107,1,0
156,256,39286,2,0,B|201:254|227:240|255:217|252:174,1,140
196,170,39822,1,0
152,133,40000,1,0
181,85,40179,1,0
347,104,40715,5,4
474,332,41429,5,0
373,281,41786,1,0
472,230,42143,1,0
473,62,42679,1,0
472,117,42857,1,0
471,173,43036,1,0
343,61,43572,5,4
119,60,44286,6,0,B|83:98|70:125|70:154|95:194,1,140
89,184,44822,1,0
89,184,45000,2,0,B|119:220|130:253|124:283|99:315,1,140
101,311,45536,1,0
157,314,45715,2,0,B|197:299|236:323,1,70
381,257,46429,5,0
483,209,46786,1,0
377,174,47143,1,0
426,146,47322,1,0
331,204,47679,1,0
330,147,47857,1,0
330,35,48214,1,0
218,35,48572,1,0
275,35,48751,1,0
118,198,50714,6,4,B|149:181|189:167|229:185|257:201,1,140
252,198,51250,1,0
252,198,51429,1,0
363,201,51786,1,0
252,198,52143,2,4,B|209:176|174:168|124:191|101:206,1,140
118,196,52679,1,0
118,196,52857,1,0
120,83,53214,5,0
230,86,53571,2,4,B|264:70|304:62|342:73|371:88,1,140
365,86,54107,1,0
364,85,54286,1,0
364,224,54643,2,0,B|311:247|275:216,1,70
229,138,55179,1,0
110,188,55536,1,0
154,221,55714,1,0
200,189,55893,1,0
245,221,56071,1,0
199,253,56250,1,0
199,253,56429,1,0
258,66,57143,5,0
212,98,57321,1,0
258,128,57500,1,0
305,98,57679,1,0
257,199,58036,1,0
145,200,58393,1,0
33,198,58750,1,0
129,60,59286,6,0,B|165:82|194:98,1,70
301,96,59821,1,0
188,95,60179,1,0
301,96,60536,1,0
405,137,60893,1,0
326,216,61250,1,0
425,267,61607,1,0
433,97,62143,6,4,B|410:83|372:72|332:80|298:97,1,140
298,97,62679,1,0
298,97,62857,1,0
296,209,63214,1,0
183,209,63571,2,4,B|160:196|122:185|82:193|46:211,1,140
48,209,64107,1,0
48,209,64286,1,0
46,321,64643,5,0
158,322,65000,2,4,B|145:299|134:261|142:221|161:185,1,140
158,189,65536,1,0
214,187,65714,1,0
325,187,66071,1,0
381,187,66250,1,0
268,187,66607,1,0
359,121,66964,5,0
360,65,67142,1,0
303,65,67321,1,0
246,65,67500,1,0
189,65,67679,1,0
438,192,68572,5,0
410,143,68751,1,0
387,194,68930,1,0
413,243,69108,1,0
281,195,69465,1,0
168,195,69822,1,0
55,195,70180,1,0
127,43,70715,5,0
182,43,70893,1,0
294,42,71250,2,0,B|328:25|368:17|406:28|437:48,1,140
402,151,71965,1,4
327,234,72322,1,4
235,169,72679,1,4
145,235,73036,1,4
256,192,73215,12,4,75000
54,298,79286,1,4
99,331,79465,1,0
205,297,79822,1,0
306,345,80179,1,0
399,282,80536,5,4
456,186,80893,1,0
376,106,81250,1,0
266,105,81607,1,0
322,105,81786,1,0
244,185,82143,5,4
118,73,82679,1,0
173,73,82857,1,0
60,73,83215,1,0
60,129,83393,5,4
124,220,83750,1,0
161,261,83929,1,0
86,177,84286,1,4
244,61,85000,5,0
356,61,85357,1,0
291,152,85715,2,0,B|251:182|219:224|213:258|213:280,1,140
214,264,86250,1,0
158,264,86429,2,0,B|142:237|128:209|122:184|122:113,1,140
122,130,86965,1,0
401,130,87857,6,0,B|355:104|321:101|277:126|262:137,1,140
268,132,88393,1,0
212,133,88572,1,0
155,132,88750,1,0
99,133,88929,2,0,B|77:167|69:198|76:235|99:273,1,140
206,262,89643,1,0
150,262,89822,1,0
429,263,90714,5,4
471,159,91072,1,0
437,113,91250,1,0
325,104,91607,1,0
374,204,91964,2,4,B|344:231|311:237|272:234|236:196,1,140
246,206,92500,1,0
248,317,92857,1,0
256,94,93572,5,4
256,206,93929,1,0
255,149,94107,1,0
255,261,94464,1,0
366,262,94822,2,4,B|339:236|334:198|341:164|379:123,1,140
368,135,95357,1,0
256,133,95714,1,0
256,195,100000,5,0
423,196,100357,1,0
367,196,100536,1,0
310,196,100714,1,0
311,84,101072,1,0
310,140,101250,1,0
310,252,101607,1,0
198,252,101964,1,0
254,252,102143,1,0
254,196,102322,1,0
255,326,102679,1,4
329,196,103214,5,0
329,139,103393,1,0
441,139,103750,1,0
385,139,103929,1,0
385,83,104107,1,0
386,195,104464,1,0
386,307,104822,1,4
172,195,105536,5,0
59,195,105893,1,0
59,82,106250,1,0
59,137,106429,1,0
171,138,106786,1,0
114,137,106964,1,0
112,248,107322,2,0,B|136:222|174:209|207:219|248:257,1,140
237,247,107857,1,0
348,247,108214,2,0,B|389:232|398:174,1,70
349,92,108750,1,0
349,147,108929,1,0
107,218,109643,5,0
162,218,109822,1,0
274,218,110179,1,4
274,50,110714,1,4
90,118,111429,5,0
200,118,111786,1,0
312,119,112143,2,0,B|343:148|358:175|364:214|365:247|357:282|338:314|308:340|247:340,1,280
266,338,113036,2,4,B|235:299|195:291|156:294|125:301|97:318|72:338,1,210
62,166,114286,6,0,B|38:124|49:91|75:66|108:47,1,140
159,54,114822,1,0
215,54,115000,1,0
103,54,115357,1,0
46,54,115536,1,0
46,111,115714,1,0
93,140,115893,1,0
454,289,117143,5,0
415,329,117322,1,0
303,342,117679,2,0,B|340:309|350:272|337:214|264:167,1,210
433,185,118572,1,0
377,185,118750,1,0
229,105,119286,5,0
340,105,119643,1,0
451,105,120000,1,0
395,106,120179,1,0
283,104,120536,2,0,B|262:143|292:188,1,70
170,170,121072,1,0
170,226,121250,2,0,B|211:272|267:272|303:218,1,140
459,234,122143,5,4
290,234,122679,5,4
148,323,123214,5,4
213,231,123572,6,4,B|186:196|174:171|171:133|174:100|188:67|218:35,1,210
214,39,124286,1,0
269,40,124464,1,0
325,40,124643,1,0
436,42,125000,6,0,B|410:70|396:103|393:136|396:174|408:199|437:237,1,210
434,233,125714,1,0
378,234,125893,1,0
321,234,126072,1,0
209,240,126429,6,0,B|182:214|149:200|116:197|78:200|53:212|15:241,1,210
18,238,127143,1,0
59,275,127322,1,0
104,308,127500,1,0
161,266,127679,1,0
262,313,128036,1,0
373,310,128393,5,0
340,264,128572,5,0
369,216,128750,5,0
338,169,128929,5,0
369,122,129107,5,0
336,75,129286,5,0
112,81,130000,5,0
162,106,130179,1,0
207,74,130357,1,0
252,106,130536,1,0
252,217,130893,1,0
252,106,131250,1,0
364,105,131607,1,0
196,104,132143,5,0
139,105,132322,1,0
196,200,132679,1,0
308,202,133036,1,0
420,202,133393,1,0
308,202,133750,1,0
308,314,134107,1,0
196,314,134464,1,0
228,148,135000,6,4,B|193:175|168:187|130:190|97:187|64:173|32:143,1,210
36,147,135714,1,0
36,92,135893,1,0
36,37,136072,1,0
148,36,136429,6,4,B|175:64|189:97|192:130|189:168|177:193|149:231,1,210
151,227,137143,1,0
207,228,137322,1,0
264,228,137500,1,0
264,116,137857,6,4,B|292:143|325:157|358:160|396:157|421:145|457:118,1,210
456,119,138572,1,0
415,82,138750,1,0
370,49,138929,1,0
325,81,139107,1,0
219,42,139464,1,4
257,343,141429,5,0
212,309,141607,1,0
185,260,141786,1,0
228,224,141964,2,0,B|265:232|289:252|306:279|308:341,1,140
419,327,142679,1,0
419,214,143036,1,0
202,166,143572,5,0
257,166,143750,1,0
258,278,144107,2,0,B|292:261|332:253|370:264|401:284,1,140
394,166,144822,1,4
392,278,145179,1,4
293,223,145536,1,4
293,111,145893,1,4
256,192,146072,12,4,147857
