osu file format v9

[General]
AudioFilename: Suichuu Pokemon Show.mp3
AudioLeadIn: 0
PreviewTime: 15600
Countdown: 0
SampleSet: Soft
StackLeniency: 0.7
Mode: 0
LetterboxInBreaks: 1

[Editor]
DistanceSpacing: 0.8
BeatDivisor: 1
GridSize: 16

[Metadata]
Title:Underwater Pokemon Show
Artist:Pokemon
Creator:Chillarmy
Version:Normal
Source:Pokemon Movie 9
Tags:pokemon

[Difficulty]
HPDrainRate:5
CircleSize:3
OverallDifficulty:3
ApproachRate:3
SliderMultiplier:1
SliderTickRate:2

[Events]
//Background and Video events
0,0,"manaphywallpapers.jpg"
//Break Periods
2,45800,53535
2,70643,75097
2,89862,103222
//Storyboard Layer 0 (Background)
//Storyboard Layer 1 (Fail)
//Storyboard Layer 2 (Pass)
//Storyboard Layer 3 (Foreground)
//Storyboard Sound Samples
//Background Colour Transformations
3,100,163,162,255

[TimingPoints]
600,468.75,4,2,0,100,1,0
15600,-80,4,2,0,100,0,1
45600,-80,4,2,0,100,0,0
75600,-50,4,2,0,100,0,0
79350,-80,4,2,0,100,0,0
112162,-80,4,2,0,100,0,1
138881,-90.9090909090909,4,2,0,100,0,0
142162,-90.9090909090909,4,2,0,100,0,1

[HitObjects]
160,128,8100,2,0,B|256:80|352:128,1,200,6|0
416,192,9506,1,2
352,240,9975,2,0,B|256:288|160:240,1,200,2|0
96,192,11381,1,2
160,144,11850,6,0,B|256:144,2,75,2|0|2
160,144,12787,2,0,B|96:80,2,75,2|0|2
256,192,13725,12,0,15600
416,160,16537,6,2,B|496:96,2,93.7499986030162,2|0|2
368,192,17475,2,0,B|256:288|128:192,1,249.99999627471,2|0
48,144,18881,1,2
128,80,19350,6,2,B|256:80|256:192,2,187.499997206032,2|2|2
128,176,21225,2,2,B|128:304|240:304,2,187.499997206032
128,80,23100,5,4
224,80,23568,2,2,B|384:80,1,124.999998137355
448,80,24506,1,0
448,80,24975,1,0
384,144,25443,2,2,B|288:240,1,124.999998137355
224,304,26381,1,2
224,208,26850,6,2,B|224:80|112:80,2,187.499997206032
224,304,28725,2,2,B|96:304|96:192,2,187.499997206032
320,304,30600,5,4
416,304,31068,2,0,B|496:304|512:208,1,124.999998137355,0|2
448,144,32006,1,0
416,112,32240,1,0
384,80,32475,1,2
288,80,32943,1,0
256,112,33178,1,0
224,144,33412,1,2
160,208,33881,1,2
240,272,34350,6,2,B|464:288|368:224,2,187.499997206032
240,176,36225,2,2,B|16:160|112:224,2,187.499997206032
256,192,38100,12,6,41850
192,288,42787,2,2,B|336:288,1,124.999998137355,2|0
272,192,43725,2,2,B|144:192,1,124.999998137355,2|0
192,96,44662,2,0,B|320:96,1,124.999998137355,2|0
416,96,45600,1,6
464,64,54975,6,0,B|320:64,1,124.999998137355,2|0
240,64,55912,2,0,B|112:64,1,124.999998137355,2|0
112,160,56850,6,2,B|112:224|32:224,2,93.7499986030162
112,160,57787,2,2,B|112:96|192:96,2,93.7499986030162
112,208,58725,5,2
160,288,59193,1,0
256,320,59662,1,2
352,288,60131,1,0
416,208,60600,6,2,B|416:144|336:144,2,93.7499986030162
416,208,61537,2,2,B|416:272|496:272,2,93.7499986030162
208,64,63412,6,2,B|464:64,1,249.99999627471
464,272,65287,2,2,B|208:272,1,249.99999627471
160,80,67162,5,2
224,160,67631,1,0
160,240,68100,1,2
224,320,68568,1,0
288,240,69037,2,2,B|400:240|512:144|400:48|272:48,1,374.999994412065
256,112,76537,6,2,B|128:-32|80:176|256:304|256:304|432:176|400:-48|256:112,1,800,6|6
64,192,79350,5,2
144,128,79818,1,0
224,192,80287,2,2,B|224:288|368:288,2,187.499997206032
224,96,82162,5,2
304,32,82631,1,0
384,96,83100,1,2
464,160,83568,1,0
384,224,84037,2,2,B|384:320|240:320,2,187.499997206032
384,128,85912,5,2
352,96,86146,1,0
320,64,86381,1,2
224,64,86850,1,2
192,96,87084,1,0
160,128,87318,1,2
160,224,87787,1,2
192,256,88021,1,0
224,288,88256,1,2
320,288,88725,1,2
352,256,88959,1,0
384,224,89193,1,2
448,144,89662,1,6
464,48,104662,6,8,B|464:160,1,93.7499986030162,8|2
464,224,105365,1,8
400,224,105600,2,8,B|304:224,1,93.7499986030162,8|2
224,224,106303,1,8
176,224,106537,1,8
128,224,106771,2,10,B|64:224,1,62.4999990686774,2|2
64,176,107240,2,8,B|64:112,1,62.4999990686774
112,112,107709,2,2,B|176:112,1,62.4999990686774
176,160,108178,2,8,B|176:224,1,62.4999990686774
176,320,108881,1,2
256,256,109350,1,8
336,320,109818,1,2
256,192,110287,12,6,112162
96,224,113100,6,2,B|16:288,2,93.7499986030162,2|0|2
144,192,114038,2,0,B|256:96|384:192,1,249.99999627471,2|0
464,240,115444,1,2
384,304,115913,6,2,B|256:304|256:192,2,187.499997206032,2|2|2
384,208,117788,2,2,B|384:80|272:80,2,187.499997206032
384,304,119663,5,4
288,304,120131,2,2,B|128:304,1,124.999998137355
64,304,121069,1,0
64,304,121538,1,0
128,240,122006,2,2,B|224:144,1,124.999998137355
288,80,122944,1,2
288,176,123413,6,2,B|288:304|400:304,2,187.499997206032
288,80,125288,2,2,B|416:80|416:192,2,187.499997206032
192,80,127163,5,4
96,80,127631,2,0,B|16:80|0:176,1,124.999998137355,0|2
64,240,128569,1,0
96,272,128803,1,0
128,304,129038,1,2
224,304,129506,1,0
256,272,129741,1,0
288,240,129975,1,2
352,176,130444,1,2
272,112,130913,6,2,B|48:96|144:160,2,187.499997206032
272,208,132788,2,2,B|496:224|400:160,2,187.499997206032
256,192,134662,12,6,138412
336,336,139350,6,2,B|144:80|144:80|256:0|336:0|400:144|288:176,1,659.999980330468,0|6
