osu file format v5

[General]
AudioFilename: 9-born-to-be-a-winner-season-theme-.mp3
AudioLeadIn: 0
PreviewTime: -1
Countdown: 1
SampleSet: Normal

[Metadata]
Title:Born to Be A Winner
Artist:Pokemon
Creator:Shady11
Version:Easy

[Difficulty]
HPDrainRate:5
CircleSize:5
OverallDifficulty:5
SliderMultiplier:1.4
SliderTickRate:1

[Events]
//Background and Video events
0,0,"Darkrai.jpg"
//Break Periods
//Storyboard Layer 0 (Background)
//Storyboard Layer 1 (Failing)
//Storyboard Layer 2 (Passing)
//Storyboard Layer 3 (Foreground)
//Storyboard Sound Samples
//Background Colour Transformations
3,100,163,162,255

[TimingPoints]
0,1000,4,1,0,100

[HitObjects]
256,96,2500,1,0
320,160,4000,1,0
288,288,5000,1,0
352,128,5500,1,0
160,128,6500,1,0
352,128,7000,1,0
128,160,7500,1,0
288,288,8000,1,0
384,192,8500,1,0
384,192,9500,1,0
224,160,11000,1,2
352,256,11500,1,2
64,96,13000,1,2
128,128,14000,1,2
224,160,14500,1,2
320,192,15000,1,2
288,128,16500,5,2
128,256,17000,1,2
320,160,18000,1,2
416,160,18500,1,2
224,96,19000,1,2
160,192,20000,1,2
352,192,20500,1,2
192,128,21000,1,2
384,64,21500,1,2
128,96,23500,5,2
192,64,24500,5,2
256,128,26000,1,2
256,192,26500,1,2
352,224,27000,1,2
256,192,28000,12,2,29000
160,128,29500,1,2
352,128,30000,1,2
224,256,30500,1,2
224,256,31000,1,2
352,128,31500,1,2
192,128,32000,1,2
352,128,32500,1,2
160,128,33000,1,2
160,128,33500,1,2
160,128,34000,1,2
256,288,35000,1,2
352,288,35500,1,2
320,192,36000,1,2
288,160,36500,1,2
192,192,37500,1,2
160,256,38000,1,2
352,224,39500,1,2
224,128,40000,1,2
224,128,40500,1,2
384,192,41500,1,2
224,256,42000,1,2
96,224,42500,1,2
256,192,43500,12,2,44500
224,192,48000,1,2
384,160,48500,1,2
