osu file format v14

[General]
AudioFilename: POIPOIPOI[www.MP3Fiber.com].mp3
AudioLeadIn: 0
PreviewTime: -1
Countdown: 1
SampleSet: Soft
StackLeniency: 0.7
Mode: 0
LetterboxInBreaks: 1
WidescreenStoryboard: 0

[Editor]
DistanceSpacing: 0.9
BeatDivisor: 4
GridSize: 4
TimelineZoom: 1.5

[Metadata]
Title:PoiPoiPoi
TitleUnicode:PoiPoiPoi
Artist:Poi
ArtistUnicode:Poi
Creator:swash984
Version:PoiXtra
Source:Poitube
Tags:poi poi poi poi swash984 and poi
BeatmapID:674839
BeatmapSetID:300927

[Difficulty]
HPDrainRate:6
CircleSize:4
OverallDifficulty:6
ApproachRate:10
SliderMultiplier:2.1
SliderTickRate:1

[Events]
//Background and Video events
0,0,"poiii.jpg",0,0
//Break Periods
//Storyboard Layer 0 (Background)
//Storyboard Layer 1 (Fail)
//Storyboard Layer 2 (Pass)
//Storyboard Layer 3 (Foreground)
//Storyboard Sound Samples

[TimingPoints]
128,468.75,4,2,0,100,1,0
61065,-83.3333333333333,4,2,0,100,0,0
90010,-66.6666666666667,4,2,0,100,0,0
97628,-100,4,2,0,100,0,0

[HitObjects]
56,48,120,6,0,P|92:96|132:116,1,105
248,184,588,2,0,P|200:220|180:260,1,105
68,340,1058,1,0,0:0:0:0:
268,276,1293,1,0,0:0:0:0:
444,160,1528,2,0,P|456:104|448:40,1,105
272,108,1997,5,0,0:0:0:0:
100,188,2232,1,0,0:0:0:0:
268,276,2467,1,0,0:0:0:0:
436,188,2702,1,0,0:0:0:0:
272,108,2936,1,0,0:0:0:0:
268,276,3170,1,0,0:0:0:0:
436,188,3405,2,0,P|416:252|380:292,1,105
204,308,3874,6,0,L|296:208,1,105
412,104,4343,2,0,L|292:148,1,105
132,244,4812,5,0,0:0:0:0:
244,64,5047,1,0,0:0:0:0:
356,240,5282,2,0,P|328:296|288:328,1,105
216,272,5752,5,0,0:0:0:0:
214,220,5869,1,0,0:0:0:0:
240,175,5986,1,0,0:0:0:0:
286,150,6103,1,0,0:0:0:0:
332,164,6220,2,0,L|376:192,2,52.5
300,128,6572,1,0,0:0:0:0:
255,101,6689,1,0,0:0:0:0:
203,92,6806,1,0,0:0:0:0:
152,101,6924,1,0,0:0:0:0:
108,129,7042,1,0,0:0:0:0:
76,168,7159,2,0,P|44:216|32:268,1,105
124,288,7628,6,0,P|216:292|256:272,1,105
188,200,8096,2,0,P|177:148|187:97,1,105
272,56,8565,1,0,0:0:0:0:
364,36,8799,1,0,0:0:0:0:
452,72,9034,1,0,0:0:0:0:
372,244,9503,5,0,0:0:0:0:
284,280,9737,1,0,0:0:0:0:
188,288,9971,1,0,0:0:0:0:
104,248,10206,1,0,0:0:0:0:
60,164,10440,1,0,0:0:0:0:
100,80,10674,1,0,0:0:0:0:
192,52,10909,2,0,P|260:52|296:72,1,105
272,160,11378,6,0,P|300:204|360:232,1,105
268,284,11846,2,0,P|224:324|156:332,1,105
52,196,12315,1,0,0:0:0:0:
69,146,12432,1,0,0:0:0:0:
103,107,12549,1,0,0:0:0:0:
149,82,12666,1,0,0:0:0:0:
196,68,12784,2,0,P|256:60|304:72,1,105
380,164,13253,6,0,P|360:216|272:264,1,157.5
228,264,13721,1,0,0:0:0:0:
178,246,13838,1,0,0:0:0:0:
139,212,13955,1,0,0:0:0:0:
116,165,14072,1,0,0:0:0:0:
124,104,14190,1,0,0:0:0:0:
272,56,14424,1,0,0:0:0:0:
412,132,14659,2,0,P|452:192|464:248,1,105
332,316,15128,6,0,P|287:282|221:272,1,105
328,180,15596,2,0,P|361:135|371:69,1,105
252,52,16065,1,0,0:0:0:0:
203,70,16182,1,0,0:0:0:0:
164,104,16299,1,0,0:0:0:0:
139,150,16416,1,0,0:0:0:0:
124,196,16534,2,0,P|116:256|128:304,1,105
204,200,17003,5,0,0:0:0:0:
255,199,17120,1,0,0:0:0:0:
300,225,17237,1,0,0:0:0:0:
325,271,17354,1,0,0:0:0:0:
312,316,17471,2,0,L|284:360,2,52.5
348,284,17823,1,0,0:0:0:0:
374,240,17940,1,0,0:0:0:0:
383,188,18057,1,0,0:0:0:0:
374,137,18174,1,0,0:0:0:0:
346,93,18291,1,0,0:0:0:0:
300,48,18409,2,0,P|252:16|192:28,1,105
96,76,18878,6,0,P|108:128|176:176,1,105
276,156,19346,2,0,P|276:212|228:272,1,105
128,264,19815,1,0,0:0:0:0:
104,232,19932,1,0,0:0:0:0:
128,200,20049,1,0,0:0:0:0:
104,164,20167,1,0,0:0:0:0:
136,140,20284,2,0,P|184:96|232:80,1,105
364,116,20753,5,0,0:0:0:0:
456,228,20987,1,0,0:0:0:0:
332,308,21221,1,0,0:0:0:0:
196,256,21456,1,0,0:0:0:0:
316,172,21690,1,0,0:0:0:0:
316,24,21924,1,0,0:0:0:0:
192,100,22159,2,0,P|136:136|112:180,1,105
40,292,22628,6,0,P|124:304|184:296,1,105
252,340,23096,2,0,P|264:256|256:196,1,105
160,188,23565,2,0,P|96:156|68:112,2,105
276,196,24268,1,0,0:0:0:0:
356,112,24503,5,0,0:0:0:0:
412,212,24737,1,0,0:0:0:0:
372,320,24971,1,0,0:0:0:0:
260,352,25206,1,0,0:0:0:0:
148,324,25440,1,0,0:0:0:0:
68,240,25674,1,0,0:0:0:0:
44,128,25909,2,0,P|68:72|112:44,1,105
212,88,26378,6,0,P|256:108|328:88,1,105
264,196,26846,2,0,P|273:246|252:294,1,105
152,268,27315,1,0,0:0:0:0:
192,232,27432,1,0,0:0:0:0:
192,180,27549,1,0,0:0:0:0:
232,144,27667,1,0,0:0:0:0:
280,120,27784,2,0,P|340:108|396:108,1,105
356,208,28253,6,0,P|328:268|296:296,1,105
212,348,28721,1,0,0:0:0:0:
162,333,28838,1,0,0:0:0:0:
133,291,28955,1,0,0:0:0:0:
136,240,29072,1,0,0:0:0:0:
171,202,29189,1,0,0:0:0:0:
208,220,29307,5,0,0:0:0:0:
243,182,29424,1,0,0:0:0:0:
246,130,29541,1,0,0:0:0:0:
217,88,29658,1,0,0:0:0:0:
167,74,29775,1,0,0:0:0:0:
120,100,29893,1,0,0:0:0:0:
76,160,30128,5,0,0:0:0:0:
144,252,30362,1,0,0:0:0:0:
243,182,30596,1,0,0:0:0:0:
332,256,30831,1,0,0:0:0:0:
420,180,31065,2,0,B|464:228|472:304|472:304|384:336|256:312,1,315
184,284,32003,2,0,P|132:256|96:216,1,105
132,112,32471,2,0,P|148:161|187:195,1,105
268,112,32940,2,0,B|335:141|369:164|369:164|428:158|428:158|429:233|357:286,1,315
268,340,33878,6,0,L|196:260,1,105
84,268,34346,2,0,L|156:188,1,105
268,200,34815,2,0,L|196:120,1,105
84,128,35283,2,0,L|156:48,1,105
244,44,35753,6,0,L|316:124,1,105
428,116,36221,2,0,L|356:196,1,105
244,184,36690,2,0,L|316:264,1,105
428,256,37158,2,0,L|356:336,1,105
360,216,37628,5,0,0:0:0:0:
292,124,37862,1,0,0:0:0:0:
193,194,38096,1,0,0:0:0:0:
104,120,38331,1,0,0:0:0:0:
68,228,38565,2,0,B|103:310|180:363|180:363|238:313|252:250,1,315
252,92,39503,2,0,P|304:120|340:160,1,105
304,264,39971,2,0,P|287:214|248:180,1,105
168,264,40440,2,0,B|100:234|66:211|66:211|7:217|7:217|6:142|78:89,1,315
280,116,41378,6,0,L|364:188,1,105
16,340,42315,2,0,P|8:288|8:224,1,105
100,252,42784,2,0,P|104:164|96:132,1,105
8,136,43253,2,0,P|-4:76|8:12,1,105
256,192,43721,12,0,44073,0:0:0:0:
256,192,44190,12,0,44542,0:0:0:0:
456,336,45128,6,0,P|420:288|380:268,1,105
264,200,45596,2,0,P|312:164|332:124,1,105
444,44,46065,1,0,0:0:0:0:
244,108,46299,1,0,0:0:0:0:
68,224,46534,2,0,P|56:280|64:344,1,105
240,276,47003,5,0,0:0:0:0:
412,196,47237,1,0,0:0:0:0:
244,108,47471,1,0,0:0:0:0:
76,196,47706,1,0,0:0:0:0:
240,276,47940,1,0,0:0:0:0:
244,108,48174,1,0,0:0:0:0:
76,196,48409,2,0,P|96:132|132:92,1,105
308,76,48878,6,0,L|216:176,1,105
100,280,49346,2,0,L|220:236,1,105
380,140,49815,5,0,0:0:0:0:
268,320,50049,1,0,0:0:0:0:
156,144,50284,2,0,P|184:88|224:56,1,105
296,112,50753,5,0,0:0:0:0:
298,164,50870,1,0,0:0:0:0:
272,209,50987,1,0,0:0:0:0:
226,234,51104,1,0,0:0:0:0:
180,220,51221,2,0,L|136:192,2,52.5
212,256,51573,1,0,0:0:0:0:
257,283,51690,1,0,0:0:0:0:
309,292,51807,1,0,0:0:0:0:
360,283,51924,1,0,0:0:0:0:
404,255,52041,1,0,0:0:0:0:
436,216,52159,2,0,P|468:168|480:116,1,105
388,96,52628,6,0,P|296:92|256:112,1,105
324,184,53096,2,0,P|335:236|325:287,1,105
240,328,53565,1,0,0:0:0:0:
148,348,53799,1,0,0:0:0:0:
60,312,54034,1,0,0:0:0:0:
140,140,54503,5,0,0:0:0:0:
228,104,54737,1,0,0:0:0:0:
324,96,54971,1,0,0:0:0:0:
408,136,55206,1,0,0:0:0:0:
452,220,55440,1,0,0:0:0:0:
412,304,55674,1,0,0:0:0:0:
320,332,55909,2,0,P|252:332|216:312,1,105
240,224,56378,6,0,P|212:180|152:152,1,105
244,100,56846,2,0,P|288:60|356:52,1,105
460,188,57315,1,0,0:0:0:0:
443,238,57432,1,0,0:0:0:0:
409,277,57549,1,0,0:0:0:0:
363,302,57666,1,0,0:0:0:0:
316,316,57784,2,0,P|256:324|208:312,1,105
132,220,58253,6,0,P|152:168|240:120,1,157.5
284,120,58721,1,0,0:0:0:0:
334,138,58838,1,0,0:0:0:0:
373,172,58955,1,0,0:0:0:0:
396,219,59072,1,0,0:0:0:0:
388,280,59190,1,0,0:0:0:0:
240,328,59424,1,0,0:0:0:0:
100,252,59659,2,0,P|60:192|48:136,1,105
180,68,60128,6,0,P|225:102|291:112,1,105
184,204,60596,2,0,P|151:249|141:315,1,105
200,312,61065,2,0,P|232:320|268:316,1,62.9999980773926
292,316,61299,2,0,P|324:313|357:298,1,62.9999980773926
380,288,61534,2,0,P|436:248|460:192,1,125.999996154785
408,140,62003,6,0,L|352:104,1,62.9999980773926
348,104,62237,2,0,L|280:104,1,62.9999980773926
280,104,62471,2,0,L|212:104,2,62.9999980773926
280,104,62823,2,0,L|332:52,2,62.9999980773926
276,108,63174,2,0,L|224:164,1,62.9999980773926
228,156,63409,2,0,P|156:192|144:244,1,125.999996154785
48,316,63878,6,0,P|100:340|172:336,1,125.999996154785
168,212,64346,2,0,P|230:208|287:233,1,125.999996154785
228,348,64815,2,0,L|296:328,1,62.9999980773926
292,328,65049,2,0,L|348:276,1,62.9999980773926
344,280,65284,2,0,L|364:208,1,62.9999980773926
352,204,65753,6,0,L|312:152,1,62.9999980773926
308,152,65987,2,0,L|240:128,1,62.9999980773926
244,132,66221,2,0,L|176:132,1,62.9999980773926
176,136,66456,2,0,L|120:176,1,62.9999980773926
120,176,66690,2,0,L|96:240,1,62.9999980773926
100,240,66924,2,0,L|120:312,1,62.9999980773926
120,304,67159,2,0,P|212:340|244:340,1,125.999996154785
360,316,67628,6,0,P|420:224|432:196,1,125.999996154785
376,96,68096,2,0,P|272:132|212:172,1,125.999996154785
132,140,68565,2,0,L|80:188,1,62.9999980773926
68,244,68799,2,0,L|68:312,1,62.9999980773926
120,344,69034,2,0,L|200:360,1,62.9999980773926
368,328,69503,6,0,L|424:276,1,62.9999980773926
424,224,69737,2,0,L|424:160,1,62.9999980773926
412,100,69971,2,0,L|364:52,1,62.9999980773926
304,64,70206,2,0,L|232:96,1,62.9999980773926
184,92,70440,2,0,L|116:92,1,62.9999980773926
116,156,70674,2,0,L|116:232,1,62.9999980773926
104,280,70909,2,0,P|176:344|216:352,1,125.999996154785
464,68,71378,6,0,P|412:44|340:48,1,125.999996154785
344,172,71846,2,0,P|282:176|225:151,1,125.999996154785
284,36,72315,2,0,L|216:56,1,62.9999980773926
220,56,72549,2,0,L|164:108,1,62.9999980773926
168,104,72784,2,0,L|148:176,1,62.9999980773926
160,180,73253,6,0,L|200:232,1,62.9999980773926
204,232,73487,2,0,L|272:256,1,62.9999980773926
268,252,73721,2,0,L|336:252,1,62.9999980773926
336,248,73956,2,0,L|392:208,1,62.9999980773926
392,208,74190,2,0,L|416:144,1,62.9999980773926
412,144,74424,2,0,L|392:72,1,62.9999980773926
392,80,74659,2,0,P|300:44|268:44,1,125.999996154785
104,128,75131,6,0,P|104:192|140:252,1,125.999996154785
168,280,75482,1,0,0:0:0:0:
208,308,75599,2,0,P|272:332|340:340,1,125.999996154785
408,256,76068,6,0,P|408:192|372:132,1,125.999996154785
344,104,76419,1,0,0:0:0:0:
304,76,76535,2,0,P|240:52|172:44,1,125.999996154785
204,144,77004,6,0,B|260:176|288:176|288:176|320:212,1,125.999996154785
292,248,77355,1,0,0:0:0:0:
268,292,77472,2,0,B|324:323|338:347|338:347|373:354,1,125.999996154785
424,268,77941,6,0,B|392:212|392:184|392:184|356:152,1,125.999996154785
320,180,78292,1,0,0:0:0:0:
276,204,78409,2,0,B|244:147|220:133|220:133|213:98,1,125.999996154785
164,188,78878,6,0,B|112:232|112:232|112:248|88:288,1,125.999996154785
128,320,79229,1,0,0:0:0:0:
172,344,79346,2,0,B|224:300|224:300|224:284|246:247,1,125.999996154785
304,164,79815,6,0,B|356:120|356:120|356:104|380:64,1,125.999996154785
340,32,80166,1,0,0:0:0:0:
296,8,80283,2,0,B|244:52|244:52|244:68|221:104,1,125.999996154785
124,76,80753,6,0,P|144:152|184:184,1,125.999996154785
204,224,81104,1,0,0:0:0:0:
244,256,81221,2,0,P|304:332|312:368,1,125.999996154785
408,332,81690,6,0,P|388:256|348:224,1,125.999996154785
328,184,82041,1,0,0:0:0:0:
288,152,82158,2,0,P|228:76|220:40,1,125.999996154785
128,88,82628,6,0,B|168:84|168:120|184:104|184:104|252:80,1,125.999996154785
292,96,82979,1,0,0:0:0:0:
312,140,83096,2,0,B|294:176|263:156|268:179|268:179|253:249,1,125.999996154785
248,340,83565,6,0,B|208:344|208:308|192:324|192:324|124:348,1,125.999996154785
84,332,83916,1,0,0:0:0:0:
64,288,84033,2,0,B|81:251|112:271|107:248|107:248|122:178,1,125.999996154785
408,256,84503,6,0,P|408:192|372:132,1,125.999996154785
344,104,84854,1,0,0:0:0:0:
304,76,84971,2,0,P|240:52|172:44,1,125.999996154785
104,128,85440,6,0,P|104:192|140:252,1,125.999996154785
168,280,85791,1,0,0:0:0:0:
208,308,85907,2,0,P|272:332|340:340,1,125.999996154785
308,240,86376,6,0,B|252:208|224:208|224:208|192:172,1,125.999996154785
220,136,86727,1,0,0:0:0:0:
244,92,86844,2,0,B|187:60|173:36|173:36|138:29,1,125.999996154785
88,116,87313,6,0,B|120:172|120:200|120:200|156:232,1,125.999996154785
192,204,87664,1,0,0:0:0:0:
236,180,87781,2,0,B|267:236|291:250|291:250|298:285,1,125.999996154785
348,196,88250,6,0,B|400:152|400:152|400:136|424:96,1,125.999996154785
384,64,88601,1,0,0:0:0:0:
340,40,88718,2,0,B|288:84|288:84|288:100|265:136,1,125.999996154785
208,220,89187,6,0,B|156:264|156:264|156:280|132:320,1,125.999996154785
172,352,89538,1,0,0:0:0:0:
216,376,89655,2,0,B|268:332|268:332|268:316|290:279,1,125.999996154785
448,76,90128,5,0,0:0:0:0:
0,76,90596,1,0,0:0:0:0:
328,344,91065,1,0,0:0:0:0:
380,32,91299,1,0,0:0:0:0:
76,124,91534,1,0,0:0:0:0:
188,336,92003,5,0,0:0:0:0:
472,200,92237,1,0,0:0:0:0:
200,44,92471,1,0,0:0:0:0:
472,204,92706,1,0,0:0:0:0:
200,44,92940,1,0,0:0:0:0:
188,360,93174,1,0,0:0:0:0:
464,208,93409,1,0,0:0:0:0:
64,184,93878,5,0,0:0:0:0:
396,192,94346,1,0,0:0:0:0:
372,252,94815,1,0,0:0:0:0:
96,104,95049,1,0,0:0:0:0:
412,72,95284,1,0,0:0:0:0:
84,304,95753,5,0,0:0:0:0:
372,176,95987,1,0,0:0:0:0:
64,244,96221,1,0,0:0:0:0:
380,240,96456,1,0,0:0:0:0:
72,308,96690,1,0,0:0:0:0:
208,24,96924,1,0,0:0:0:0:
392,280,97159,1,0,0:0:0:0:
56,48,97628,6,0,P|92:96|132:116,1,105
248,184,98096,2,0,P|200:220|180:260,1,105
68,340,98566,1,0,0:0:0:0:
268,276,98801,1,0,0:0:0:0:
444,160,99036,2,0,P|456:104|448:40,1,105
272,108,99505,5,0,0:0:0:0:
100,188,99740,1,0,0:0:0:0:
268,276,99975,1,0,0:0:0:0:
436,188,100210,1,0,0:0:0:0:
272,108,100444,1,0,0:0:0:0:
268,276,100678,1,0,0:0:0:0:
436,188,100913,2,0,P|416:252|380:292,1,105
204,308,101382,6,0,L|296:208,1,105
412,104,101851,2,0,L|292:148,1,105
132,244,102320,5,0,0:0:0:0:
244,64,102555,1,0,0:0:0:0:
356,240,102790,2,0,P|328:296|288:328,1,105
216,272,103260,5,0,0:0:0:0:
214,220,103377,1,0,0:0:0:0:
240,175,103494,1,0,0:0:0:0:
286,150,103611,1,0,0:0:0:0:
332,164,103728,2,0,L|376:192,2,52.5
300,128,104080,1,0,0:0:0:0:
255,101,104197,1,0,0:0:0:0:
203,92,104314,1,0,0:0:0:0:
152,101,104432,1,0,0:0:0:0:
108,129,104550,1,0,0:0:0:0:
76,168,104667,2,0,P|44:216|32:268,1,105
124,288,105136,6,0,P|216:292|256:272,1,105
188,200,105604,2,0,P|177:148|187:97,1,105
272,56,106073,1,0,0:0:0:0:
364,36,106307,1,0,0:0:0:0:
452,72,106542,1,0,0:0:0:0:
372,244,107011,5,0,0:0:0:0:
284,280,107245,1,0,0:0:0:0:
188,288,107479,1,0,0:0:0:0:
104,248,107714,1,0,0:0:0:0:
60,164,107948,1,0,0:0:0:0:
100,80,108182,1,0,0:0:0:0:
192,52,108417,2,0,P|260:52|296:72,1,105
272,160,108886,6,0,P|300:204|360:232,1,105
268,284,109354,2,0,P|224:324|156:332,1,105
52,196,109823,1,0,0:0:0:0:
69,146,109940,1,0,0:0:0:0:
103,107,110057,1,0,0:0:0:0:
149,82,110174,1,0,0:0:0:0:
196,68,110292,2,0,P|256:60|304:72,1,105
380,164,110761,6,0,P|360:216|272:264,1,157.5
228,264,111229,1,0,0:0:0:0:
178,246,111346,1,0,0:0:0:0:
139,212,111463,1,0,0:0:0:0:
116,165,111580,1,0,0:0:0:0:
124,104,111698,1,0,0:0:0:0:
272,56,111932,1,0,0:0:0:0:
412,132,112167,2,0,P|452:192|464:248,1,105
332,316,112636,6,0,P|287:282|221:272,1,105
328,180,113104,2,0,P|361:135|371:69,1,105
252,52,113573,1,0,0:0:0:0:
203,70,113690,1,0,0:0:0:0:
164,104,113807,1,0,0:0:0:0:
140,144,113917,1,0,0:0:0:0:
124,196,114042,2,0,P|116:256|128:304,1,105
204,200,114511,5,0,0:0:0:0:
255,199,114628,1,0,0:0:0:0:
300,225,114745,1,0,0:0:0:0:
325,271,114862,1,0,0:0:0:0:
312,316,114979,2,0,L|284:360,2,52.5
348,284,115331,1,0,0:0:0:0:
374,240,115448,1,0,0:0:0:0:
383,188,115565,1,0,0:0:0:0:
374,137,115682,1,0,0:0:0:0:
346,93,115799,1,0,0:0:0:0:
300,48,115917,2,0,P|252:16|192:28,1,105
96,76,116386,6,0,P|108:128|176:176,1,105
276,156,116854,2,0,P|276:212|228:272,1,105
128,264,117323,1,0,0:0:0:0:
104,232,117440,1,0,0:0:0:0:
128,200,117557,1,0,0:0:0:0:
104,164,117675,1,0,0:0:0:0:
136,140,117792,2,0,P|184:96|232:80,1,105
364,116,118261,5,0,0:0:0:0:
456,228,118495,1,0,0:0:0:0:
332,308,118729,1,0,0:0:0:0:
196,256,118964,1,0,0:0:0:0:
316,172,119198,1,0,0:0:0:0:
316,24,119432,1,0,0:0:0:0:
192,100,119667,2,0,P|136:136|112:180,1,105
40,292,120136,6,0,P|124:304|184:296,1,105
252,340,120604,2,0,P|264:256|256:196,1,105
160,188,121073,2,0,P|96:156|68:112,2,105
276,196,121776,1,0,0:0:0:0:
356,112,122011,5,0,0:0:0:0:
412,212,122245,1,0,0:0:0:0:
372,320,122479,1,0,0:0:0:0:
260,352,122714,1,0,0:0:0:0:
148,324,122948,1,0,0:0:0:0:
68,240,123182,1,0,0:0:0:0:
44,128,123417,2,0,P|68:72|112:44,1,105
212,88,123886,6,0,P|256:108|328:88,1,105
264,196,124354,2,0,P|273:246|252:294,1,105
152,268,124823,1,0,0:0:0:0:
192,232,124940,1,0,0:0:0:0:
192,180,125057,1,0,0:0:0:0:
232,144,125175,1,0,0:0:0:0:
280,120,125292,2,0,P|340:108|396:108,1,105
356,208,125761,6,0,P|328:268|296:296,1,105
212,348,126229,1,0,0:0:0:0:
162,333,126346,1,0,0:0:0:0:
133,291,126463,1,0,0:0:0:0:
136,240,126580,1,0,0:0:0:0:
171,202,126697,1,0,0:0:0:0:
208,220,126815,5,0,0:0:0:0:
243,182,126932,1,0,0:0:0:0:
246,130,127049,1,0,0:0:0:0:
217,88,127166,1,0,0:0:0:0:
167,74,127283,1,0,0:0:0:0:
124,84,127393,2,0,L|236:56,1,105
