osu file format v5

[General]
AudioFilename: Pogo - Alice.mp3
AudioLeadIn: 0
PreviewTime: -1
Countdown: 1
SampleSet: Soft
StackLeniency: 0.7
Mode: 0

[Metadata]
Title:Alice
Artist:Pogo
Creator:Red Kinikacha
Version:Normal
Source:
Tags:

[Difficulty]
HPDrainRate:5
CircleSize:5
OverallDifficulty:5
SliderMultiplier:1.4
SliderTickRate:1

[Events]
//Background and Video events
1,0,"Alice.avi"
//Break Periods
2,67473,71264
2,124572,128939
//Storyboard Layer 0 (Background)
//Storyboard Layer 1 (Failing)
//Storyboard Layer 2 (Passing)
//Storyboard Layer 3 (Foreground)
//Storyboard Sound Samples
//Background Colour Transformations
3,100,163,162,255

[TimingPoints]
3831,600.0600060006,4,2,1,100

[HitObjects]
204,280,3254,1,0
309,301,3830,1,2
356,204,4407,1,0
300,111,4984,5,0
297,231,5631,1,0
203,220,6138,1,0
116,156,6714,1,0
82,285,7431,1,0
31,221,7868,1,0
135,194,8445,1,2
242,185,9021,1,2
389,27,10175,2,0,B|485:155|485:155|517:155,5,140
248,242,14500,2,0,B|278:68|278:70,5,140
200,142,17932,1,0
358,194,18826,5,0
384,89,19403,1,0
279,63,19980,1,2
187,118,20556,1,0
135,212,21133,1,2
228,265,21710,1,0
403,140,22863,1,0
101,220,24533,5,0
90,101,25170,1,0
192,133,25747,1,0
294,164,26324,1,0
390,115,26901,1,0
318,195,27477,1,0
217,234,28054,1,0
77,70,29208,2,2,B|185:196|184:196|184:196|192:196,4,140
457,231,33822,5,2
350,215,34398,1,2
245,241,34975,1,2
137,238,35552,1,0
341,304,36705,1,0
349,196,37282,1,2
339,112,37734,1,2
208,104,38436,1,0
116,159,39012,2,0,B|186:120|186:120|184:95,1,70
150,227,39878,2,0,B|90:276|90:276|88:257,1,70
189,222,40743,2,0,B|144:310|148:303|148:307,1,70
256,247,41608,2,0,B|331:267|331:267|327:259,1,70
305,106,42761,2,0,B|371:181|372:181|372:181|383:170,2,93.3333333333333
220,80,44035,1,0
198,271,45068,5,0
301,242,45645,1,2
200,115,46510,1,0
299,74,47087,1,0
256,192,47664,12,0,49971
257,197,51124,1,0
240,65,51835,1,0
162,94,52278,1,0
119,192,52855,1,0
334,192,54008,1,0
335,299,54585,1,0
119,300,55738,1,0
255,133,56892,1,0
147,122,57469,1,0
274,295,58622,1,0
351,220,59199,1,2
312,119,59776,1,2
163,274,60929,1,0
124,173,61506,1,2
101,67,62083,1,0
193,121,62659,2,2,B|417:313|417:313|417:281,4,280
258,194,72464,5,0
255,301,73041,1,2
170,233,73618,1,2
180,125,74194,1,2
258,99,74638,1,2
386,132,75348,1,2
376,222,75838,1,0
182,196,76886,5,0
251,177,77270,1,0
350,137,77847,1,0
445,87,78424,1,0
443,266,79385,2,2,B|292:217|292:217|302:224,4,140
254,205,82846,1,0
65,100,83999,2,0,B|195:184|192:179,4,140
146,218,87171,1,0
245,176,87748,1,0
339,125,88325,1,0
437,167,88902,1,0
350,230,89478,1,0
259,289,90055,1,0
103,140,91209,5,0
245,64,92074,1,0
289,161,92650,1,0
347,251,93227,1,0
239,254,93804,1,0
2,33,95534,2,0,B|113:136|114:137|114:137|110:119,1,140
302,56,97265,1,0
180,162,98130,1,0
265,227,98706,1,0
316,243,98995,1,0
53,302,100437,1,0
182,130,101590,1,0
289,123,102167,1,0
395,109,102744,1,0
350,319,103897,1,0
265,252,104474,1,0
157,240,105051,1,0
408,142,106493,1,2
306,105,107069,1,2
198,96,107646,1,2
105,150,108223,1,0
282,271,109376,5,0
386,244,109953,1,2
311,166,110530,1,0
203,155,111107,1,2
117,172,112548,1,0
110,279,113125,2,0,B|404:279|404:279|397:269,2,280
80,193,116009,1,0
185,171,116586,5,0
243,261,117162,1,0
338,210,117739,1,2
245,77,118604,1,2
261,183,119181,1,2
65,92,120335,2,0,B|180:194|180:194|178:182,7,140
93,142,130139,6,2,B|153:209|153:209|151:185,1,70
180,161,130716,1,2
281,125,131293,1,0
359,198,131870,1,2
344,304,132446,1,2
236,308,133023,1,0
192,275,133312,2,0,B|379:36|379:36|353:43,1,280
265,56,135042,1,0
173,113,135619,1,2
120,206,136195,1,0
261,284,137060,1,2
353,228,137637,1,0
247,40,138791,1,2
140,52,139367,1,0
101,263,140521,1,0
232,232,141244,1,0
294,181,141674,1,0
398,154,142251,1,0
75,176,143982,5,0
176,211,144558,1,0
280,185,145135,1,0
495,187,146289,1,0
400,135,146865,1,0
293,118,147442,1,2
188,90,148019,1,2
83,117,148596,1,0
79,224,149172,5,0
267,328,150326,1,2
417,173,151479,1,0
244,44,152633,1,2
67,314,154363,1,2
92,209,154940,1,0
252,66,156093,1,2
288,167,156670,1,0
90,132,157746,1,2
174,219,158400,1,0
256,193,161284,5,0
363,193,161861,1,0
255,192,162438,1,0
10,192,163746,1,2
