osu file format v12

[General]
AudioFilename: Poets of the Fall - Carnival of Rust.mp3
AudioLeadIn: 0
PreviewTime: 64064
Countdown: 0
SampleSet: Soft
StackLeniency: 0.7
Mode: 0
LetterboxInBreaks: 1
WidescreenStoryboard: 1

[Editor]
Bookmarks: 240663,246102
DistanceSpacing: 0.8
BeatDivisor: 8
GridSize: 4

[Metadata]
Title:Carnival Of Rust
TitleUnicode:Carnival Of Rust
Artist:Poets Of The Fall
ArtistUnicode:Poets Of The Fall
Creator:AlexaBM
Version:Easy
Source:
Tags:alternative rock soft-rock finland insomniac Alarido
BeatmapID:330989
BeatmapSetID:121075

[Difficulty]
HPDrainRate:2
CircleSize:3
OverallDifficulty:2
ApproachRate:3
SliderMultiplier:1.2
SliderTickRate:2

[Events]
//Background and Video events
0,0,"bg.jpg",0,0
Video,0,"video.avi"
//Break Periods
2,90692,99601
2,190912,191909
2,204098,213008
//Storyboard Layer 0 (Background)
//Storyboard Layer 1 (Fail)
//Storyboard Layer 2 (Pass)
//Storyboard Layer 3 (Foreground)
//Storyboard Sound Samples
//Background Colour Transformations
3,100,163,162,255

[TimingPoints]
822,659.340659340659,4,2,1,67,1,0
822,-100,4,2,1,30,0,0
64118,-100,4,1,1,87,0,1
90492,-100,4,2,1,64,0,0
122140,-100,4,2,1,73,0,0
143239,-100,4,1,1,87,0,1
153047,-100,4,1,2,87,0,1
153212,-100,4,1,1,87,0,1
163679,-100,4,1,1,87,0,0
164338,-100,4,1,1,87,0,1
185437,-100,4,2,1,64,0,0
190712,-100,4,2,1,15,0,0
193349,-100,4,2,1,56,0,0
214448,-100,4,1,1,87,0,1
220300,-100,4,1,2,87,0,1
220464,-100,4,1,1,87,0,1
240821,-100,4,2,1,30,0,0

[Colours]
Combo1 : 191,98,98
Combo2 : 252,165,3
Combo3 : 250,20,78

[HitObjects]
104,96,21920,2,0,P|184:120|216:168,1,120,0|2,0:0|0:0,0:0:0:0:
306,145,23239,2,0,P|349:105|408:96,1,120,0|2,0:0|0:0,0:0:0:0:
388,188,24558,1,0,0:0:0:0:
304,232,25217,1,2,0:0:0:0:
208,232,25876,1,0,0:0:0:0:
124,188,26536,1,2,0:0:0:0:
200,124,27195,6,0,P|256:104|312:124,2,120,0|2|0,0:0|0:0|0:0,0:0:0:0:
256,200,29173,1,2,0:0:0:0:
312,276,29832,2,0,P|256:296|200:276,2,120,0|2|0,0:0|0:0|0:0,0:0:0:0:
396,332,31811,2,0,P|408:260|384:200,1,120,2|0,0:0|0:0,0:0:0:0:
312,166,33129,6,0,B|270:159|256:144|256:144|240:160|199:167,2,120,2|0|2,0:0|0:0|0:0,0:0:0:0:
256,244,35107,1,0,0:0:0:0:
340,292,35767,2,0,L|352:360,2,60,2|0|0,0:0|0:0|0:0,0:0:0:0:
316,200,37085,2,0,P|256:204|188:200,1,120,2|0,0:0|0:0,0:0:0:0:
184,104,38404,6,0,B|136:64|136:64|84:64|64:28,2,120,2|0|2,0:0|0:0|0:0,0:0:0:0:
256,168,40382,1,0,0:0:0:0:
328,104,41041,2,0,B|376:64|376:64|428:64|448:28,2,120,2|0|2,0:0|0:0|0:0,0:0:0:0:
252,164,43019,6,0,P|240:244|264:292,1,120,0|2,0:0|0:0,0:0:0:0:
328,220,44338,2,0,P|340:140|316:92,1,120,0|2,0:0|0:0,0:0:0:0:
256,40,45657,1,0,0:0:0:0:
208,124,46316,2,0,P|140:152|84:152,2,120,2|0|2,0:0|0:0|0:0,0:0:0:0:
304,124,48294,6,0,P|372:152|428:152,1,120,0|2,0:0|0:0,0:0:0:0:
408,56,49613,2,0,L|484:44,2,60,0|0|2,0:0|0:0|0:0,0:0:0:0:
328,112,50931,2,0,P|260:141|210:138,1,120,0|2,0:0|0:0,0:0:0:0:
249,45,52250,2,0,P|316:15|366:18,2,120,0|2|0,0:0|0:0|0:0,0:0:0:0:
256,148,54228,5,2,0:0:0:0:
206,230,54887,1,0,0:0:0:0:
302,230,55547,1,2,0:0:0:0:
304,324,56206,2,0,B|348:317|370:288|370:288|438:285,2,120,0|2|0,0:0|0:0|0:0,0:0:0:0:
208,324,58184,2,0,B|163:317|141:288|141:288|73:285,1,120,2|0,0:0|0:0,0:0:0:0:
32,216,59503,5,2,0:0:0:0:
92,140,60162,2,0,B|148:120|148:120|212:140,1,120,0|2,0:0|0:0,0:0:0:0:
264,216,61481,2,0,B|208:236|208:236|151:218,1,120,0|2,0:0|0:0,0:0:0:0:
92,140,62800,1,0,0:0:0:0:
256,232,64118,5,4,0:0:0:0:
348,240,64778,2,0,L|368:300|348:360,2,120,8|0|8,0:0|0:0|0:0,0:0:0:0:
348,144,66756,2,0,L|368:84|348:24,2,120,0|8|0,0:0|0:0|0:0,0:0:0:0:
256,116,68734,1,8,0:0:0:0:
164,136,69393,6,0,P|192:192|260:212,1,120,0|8,0:0|0:0,0:0:0:0:
304,284,70712,2,0,L|268:336,2,60,0|0|8,0:0|0:0|0:0,0:0:0:0:
392,236,72030,2,0,P|384:180|392:100,1,120,0|8,0:0|0:0,0:0:0:0:
444,40,73349,2,0,P|356:28|324:44,1,120,0|8,0:0|0:0,0:0:0:0:
332,88,74338,2,0,L|332:164,1,60,0|4,0:0|0:0,0:0:0:0:
256,208,75327,5,8,0:0:0:0:
308,288,75986,2,0,P|371:305|405:352,2,120,0|8|0,0:0|0:0|0:0,0:0:0:0:
207,281,77964,2,0,P|144:264|110:217,1,120,8|0,0:0|0:0,0:0:0:0:
200,184,79283,6,0,B|256:164|256:164|336:192,2,120,8|0|8,0:0|0:0|0:0,0:0:0:0:
207,279,81261,1,0,0:0:0:0:
303,279,81920,1,8,0:0:0:0:
313,183,82580,2,0,P|325:107|301:63,1,120,0|8,0:0|0:0,0:0:0:0:
233,131,83898,2,0,P|221:207|245:251,2,120,0|8|4,0:0|0:0|0:0,0:0:0:0:
320,88,85876,5,8,0:0:0:0:
400,140,86536,2,0,L|460:168,2,60,0|0|8,0:0|0:0|0:0,0:0:0:0:
256,192,87854,12,4,90492,0:0:0:0:
256,84,101041,5,0,0:0:0:0:
256,180,101701,1,2,0:0:0:0:
256,276,102360,2,0,L|208:312,2,60,0|0|2,0:0|0:0|0:0,0:0:0:0:
352,256,103679,2,0,P|424:204|440:164,2,120,0|2|0,0:0|0:0|0:0,0:0:0:0:
256,276,105657,1,2,0:0:0:0:
256,180,106316,5,0,0:0:0:0:
256,276,106975,2,0,P|200:304|136:308,1,120,2|0,0:0|0:0,0:0:0:0:
100,224,108294,1,2,0:0:0:0:
192,200,108953,1,0,0:0:0:0:
256,128,109613,2,0,P|200:100|128:124,2,120,2|0|2,0:0|0:0|0:0,0:0:0:0:
340,176,111591,5,0,0:0:0:0:
396,252,112250,2,0,P|309:267|268:236,1,120,2|0,0:0|0:0,0:0:0:0:
228,176,113569,2,0,P|320:164|356:192,1,120,2|0,0:0|0:0,0:0:0:0:
376,264,114887,1,2,0:0:0:0:
284,240,115547,1,0,0:0:0:0:
188,236,116206,1,2,0:0:0:0:
168,144,116865,6,0,B|112:164|112:164|76:244,2,120,0|2|0,0:0|0:0|0:0,0:0:0:0:
256,104,118843,1,2,0:0:0:0:
344,144,119503,2,0,B|400:164|400:164|436:244,2,120,0|2|0,0:0|0:0|0:0,0:0:0:0:
248,144,121481,1,2,0:0:0:0:
256,240,122140,5,4,0:0:0:0:
164,268,122800,1,8,0:0:0:0:
84,216,123459,2,8,L|20:168,2,60,0|0|8,0:0|0:0|0:0,0:0:0:0:
164,268,124778,2,0,P|228:316|272:324,2,120,2|8|0,0:0|0:0|0:0,0:0:0:0:
236,204,126756,1,8,0:0:0:0:
312,144,127415,6,0,P|364:196|376:244,1,120,2|8,0:0|0:0,0:0:0:0:
344,328,128734,2,0,L|396:368|396:368,2,60,0|0|8,0:0|0:0|0:0,0:0:0:0:
256,288,130052,2,0,P|180:248|176:200,1,120,2|8,0:0|0:0,0:0:0:0:
264,192,131371,2,0,P|340:232|344:280,2,120,0|8|0,0:0|0:0|0:0,0:0:0:0:
168,200,133349,5,8,0:0:0:0:
208,112,134008,1,0,0:0:0:0:
304,100,134668,1,8,0:0:0:0:
304,196,135327,2,0,B|336:228|372:228|372:228|416:280,2,120,2|8|0,0:0|0:0|0:0,0:0:0:0:
208,196,137305,2,0,B|176:228|140:228|140:228|96:280,1,120,8|2,0:0|0:0,0:0:0:0:
116,356,138624,5,8,0:0:0:0:
200,312,139283,2,0,B|256:332|256:332|320:312,1,120,0|8,0:0|0:0,0:0:0:0:
369,238,140602,2,0,B|313:218|313:218|256:236,1,120,2|8,0:0|0:0,0:0:0:0:
200,312,141920,1,2,0:0:0:0:
162,223,142580,1,8,0:0:0:0:
257,230,143239,5,4,0:0:0:0:
312,312,143898,2,0,L|436:256,1,120,8|0,0:0|0:0,0:0:0:0:
488,192,145217,1,8,0:0:0:0:
456,100,145876,2,0,P|399:145|392:190,1,120,0|8,0:0|0:0,0:0:0:0:
372,284,147195,2,0,P|316:252|300:200,2,120,0|8|0,0:0|0:0|0:0,0:0:0:0:
392,188,149173,5,8,0:0:0:0:
476,144,149832,1,0,0:0:0:0:
394,92,150492,1,8,0:0:0:0:
303,120,151151,2,0,P|323:156|407:188,1,120,0|8,0:0|0:0,0:0:0:0:
400,288,152470,2,0,B|288:272|236:196|236:196|188:204,1,240,0|4,0:0|0:0,0:0:0:0:
98,227,154448,5,8,0:0:0:0:
122,320,155107,1,0,0:0:0:0:
215,297,155767,1,8,0:0:0:0:
192,204,156426,2,0,P|172:136|144:68,2,120,0|8|0,0:0|0:0|0:0,0:0:0:0:
268,264,158404,1,8,0:0:0:0:
364,248,159063,6,0,P|316:176|272:168,2,120,0|8|0,0:0|0:0|0:0,0:0:0:0:
412,332,161041,1,8,0:0:0:0:
468,252,161701,2,0,P|460:172|472:112,1,120,0|8,0:0|0:0,0:0:0:0:
404,60,163019,1,0,0:0:0:0:
307,49,163679,1,8,0:0:0:0:
299,146,164338,5,4,0:0:0:0:
395,157,164997,1,8,0:0:0:0:
299,146,165657,2,0,L|319:90,2,60,0|0|8,0:0|0:0|0:0,0:0:0:0:
224,208,166975,1,0,0:0:0:0:
140,256,167635,2,0,P|204:300|260:296,2,120,8|0|8,0:0|0:0|0:0,0:0:0:0:
120,164,169613,6,0,P|178:170|224:208,1,120,0|8,0:0|0:0,0:0:0:0:
256,300,170931,2,0,L|256:368,2,60,0|0|8,0:0|0:0|0:0,0:0:0:0:
287,208,172250,2,0,P|333:170|392:164,1,120,0|8,0:0|0:0,0:0:0:0:
372,256,173569,1,0,0:0:0:0:
292,312,174228,2,0,L|328:376,2,60,8|0|4,0:0|0:0|0:0,0:0:0:0:
216,252,175547,6,0,B|172:224|164:192|164:192|100:196,2,120,8|0|8,0:0|0:0|0:0,0:0:0:0:
312,240,177525,2,0,P|328:176|376:132,1,120,0|8,0:0|0:0,0:0:0:0:
412,224,178843,2,0,L|460:296,2,60,0|0|8,0:0|0:0|0:0,0:0:0:0:
324,184,180162,6,0,P|364:140|436:128,2,120,0|8|0,0:0|0:0|0:0,0:0:0:0:
256,252,182140,1,8,0:0:0:0:
188,184,182800,2,0,P|148:140|76:128,1,120,0|8,0:0|0:0,0:0:0:0:
100,220,184118,2,0,L|52:292,2,60,0|0|8,0:0|0:0|0:0,0:0:0:0:
256,192,185437,12,0,190712,0:0:0:0:
436,148,193349,6,0,P|352:120|304:120,1,120,0|2,0:0|0:0,0:0:0:0:
256,192,194668,2,0,L|256:256,2,60,0|0|2,0:0|0:0|0:0,0:0:0:0:
190,118,195986,2,0,P|131:125|76:148,1,120,0|2,0:0|0:0,0:0:0:0:
68,244,197305,2,0,B|92:296|92:296|168:328,2,120,0|2|0,0:0|0:0|0:0,0:0:0:0:
164,224,199283,5,2,0:0:0:0:
256,196,199942,1,0,0:0:0:0:
348,224,200602,1,2,0:0:0:0:
444,244,201261,2,0,B|420:296|420:296|344:328,2,120,0|2|0,0:0|0:0|0:0,0:0:0:0:
436,148,203239,2,0,B|378:172|378:172|354:224,1,120,2|0,0:0|0:0,0:0:0:0:
316,144,214448,6,0,B|328:120|328:120|392:128|428:80,2,120,4|8|0,0:0|0:0|0:0,0:0:0:0:
256,220,216426,1,8,0:0:0:0:
196,144,217085,2,0,B|184:120|184:120|120:128|84:80,1,120,0|8,0:0|0:0,0:0:0:0:
164,24,218404,1,0,0:0:0:0:
256,56,219063,1,8,0:0:0:0:
333,112,219723,6,8,B|281:122|255:154|255:154|229:120|170:110,2,180,0|0|8,0:0|0:0|0:0,0:0:0:0:
387,190,222360,2,0,P|313:215|279:270,2,120,0|8|0,0:0|0:0|0:0,0:0:0:0:
452,260,224338,6,8,L|480:328,2,60,8|0|4,0:0|0:0|0:0,0:0:0:0:
409,173,225657,2,0,P|368:108|321:93,1,120,8|0,0:0|0:0,0:0:0:0:
235,110,226975,2,0,P|261:162|313:189,1,120,8|0,0:0|0:0,0:0:0:0:
330,94,228294,1,8,0:0:0:0:
263,21,228953,1,0,0:0:0:0:
174,60,229613,1,8,0:0:0:0:
187,157,230272,5,0,0:0:0:0:
282,176,230931,2,0,P|261:226|198:255,2,120,8|0|8,0:0|0:0|0:0,0:0:0:0:
364,136,232909,1,0,0:0:0:0:
392,228,233569,2,0,B|358:290|397:341|397:341|327:329|284:375,1,240,8|8,0:0|0:0,0:0:0:0:
256,336,235217,2,0,L|256:268,1,60,0|4,0:0|0:0,0:0:0:0:
256,180,236206,5,8,0:0:0:0:
208,96,236865,1,0,0:0:0:0:
304,96,237525,1,8,0:0:0:0:
256,192,238184,12,4,240821,0:0:0:0:
