osu file format v14

[General]
AudioFilename: audio.mp3
AudioLeadIn: 0
PreviewTime: 0
Countdown: 1
SampleSet: None
StackLeniency: 0.7
Mode: 0
LetterboxInBreaks: 0
WidescreenStoryboard: 1

[Editor]
DistanceSpacing: 1.2
BeatDivisor: 1
GridSize: 16
TimelineZoom: 1

[Metadata]
Title:Minuta tishini
TitleUnicode:Минута Тишины
Artist:Plastika
ArtistUnicode:Plastika
Creator:Nitomash
Version:Easy
Source:
Tags:russian rock
BeatmapID:1401671
BeatmapSetID:662143

[Difficulty]
HPDrainRate:3
CircleSize:4
OverallDifficulty:3
ApproachRate:5
SliderMultiplier:0.400000005960464
SliderTickRate:1

[Events]
//Background and Video events
0,0,"koshki_noch_fonar_2560x1600.jpg",0,0
//Break Periods
2,27461,29734
2,47050,49323
2,69394,78707
2,96024,98297
2,115613,117886
//Storyboard Layer 0 (Background)
//Storyboard Layer 1 (Fail)
//Storyboard Layer 2 (Pass)
//Storyboard Layer 3 (Foreground)
//Storyboard Sound Samples

[TimingPoints]
326.230298850802,306.083158565818,4,1,0,51,1,0

[Colours]
Combo1 : 255,192,0
Combo2 : 157,221,230
Combo3 : 51,82,162
Combo4 : 122,142,143

[HitObjects]
144,128,1550,5,0,0:0:0:0:
80,224,2162,1,0,0:0:0:0:
208,288,3080,2,0,L|272:304,1,40.0000005960464
352,256,3999,2,0,L|352:192,1,40.0000005960464
336,80,5223,1,0,0:0:0:0:
224,80,5835,6,0,L|160:176,2,80.0000011920929
336,48,7978,1,0,0:0:0:0:
272,80,8284,1,0,0:0:0:0:
352,176,8896,5,0,0:0:0:0:
368,288,9508,1,0,0:0:0:0:
304,320,9814,1,0,0:0:0:0:
336,192,10733,1,0,0:0:0:0:
448,176,11345,6,0,L|480:112,1,40.0000005960464
400,64,12569,1,0,0:0:0:0:
288,80,13181,1,0,0:0:0:0:
208,176,13793,2,0,L|176:224,1,40.0000005960464
160,304,15018,1,0,0:0:0:0:
256,320,15630,1,0,0:0:0:0:
400,208,16242,6,0,B|336:112|256:144,2,160.000002384186
480,272,19303,1,0,0:0:0:0:
384,336,19915,1,0,0:0:0:0:
256,320,20527,1,0,0:0:0:0:
256,208,21139,2,0,L|192:208,1,40.0000005960464
160,288,22058,6,0,L|112:240,2,40.0000005960464
192,208,23282,2,0,L|144:160,2,40.0000005960464
272,208,24506,2,0,L|240:160|208:112,1,80.0000011920929
352,176,25731,1,0,0:0:0:0:
416,256,26343,1,0,0:0:0:0:
320,320,26955,1,0,0:0:0:0:
256,288,27261,1,0,0:0:0:0:
224,112,30934,6,0,P|320:96|416:112,1,160.000002384186
432,192,32771,1,0,0:0:0:0:
288,272,33383,2,0,P|256:304|208:288,1,80.0000011920928
112,304,34607,1,0,0:0:0:0:
48,208,35219,1,0,0:0:0:0:
192,176,35831,6,0,B|240:112|368:160,2,160.000002384186
96,240,38892,1,0,0:0:0:0:
208,192,39504,1,0,0:0:0:0:
208,288,40117,1,0,0:0:0:0:
288,352,40729,1,0,0:0:0:0:
352,336,41035,1,0,0:0:0:0:
384,272,41341,2,0,B|448:288|496:256,1,80.0000011920928
384,192,42565,2,0,L|464:128,1,80.0000011920928
320,32,43790,5,0,0:0:0:0:
224,96,44402,1,0,0:0:0:0:
176,192,45014,1,0,0:0:0:0:
256,272,45626,1,0,0:0:0:0:
368,272,46238,1,0,0:0:0:0:
432,176,46850,1,0,0:0:0:0:
192,80,50523,5,0,0:0:0:0:
96,192,51748,1,0,0:0:0:0:
192,240,52972,2,0,L|304:240,1,80.0000011920928
352,272,54196,2,0,L|400:192,1,80.0000011920928
400,96,55727,5,0,0:0:0:0:
256,96,56339,1,0,0:0:0:0:
192,64,56645,1,0,0:0:0:0:
96,96,57257,1,0,0:0:0:0:
48,192,57869,1,0,0:0:0:0:
144,240,58482,1,0,0:0:0:0:
256,208,59094,1,0,0:0:0:0:
304,304,59706,1,0,0:0:0:0:
384,272,60318,6,0,B|416:144|336:112,1,160.000002384186
272,80,62155,1,0,0:0:0:0:
160,64,62767,6,0,P|144:128|160:176,1,80.0000011920928
256,64,63991,2,0,P|240:128|256:176,1,80.0000011920928
384,80,65215,5,0,0:0:0:0:
432,176,65828,2,0,L|368:240,1,80.0000011920928
272,256,67052,1,0,0:0:0:0:
192,176,67664,2,0,L|256:96,1,80.0000011920928
352,80,68888,1,0,0:0:0:0:
400,128,69194,1,0,0:0:0:0:
112,80,79907,5,0,0:0:0:0:
224,64,80520,1,0,0:0:0:0:
320,96,81132,2,0,L|368:128|368:128,1,40.0000005960464
448,192,82356,5,0,0:0:0:0:
416,288,82968,1,0,0:0:0:0:
304,320,83580,2,0,L|240:320,1,40.0000005960464
256,224,84805,6,0,P|288:144|304:128,3,80.0000011920928
416,128,87253,1,0,0:0:0:0:
432,224,87866,1,0,0:0:0:0:
352,288,88478,1,0,0:0:0:0:
160,304,89090,6,0,B|80:304|64:240|80:224,1,120.000001788139
96,176,90314,1,0,0:0:0:0:
96,96,92151,1,0,0:0:0:0:
192,48,92763,1,0,0:0:0:0:
288,96,93375,1,0,0:0:0:0:
320,192,93987,1,0,0:0:0:0:
288,288,94599,1,0,0:0:0:0:
176,304,95518,2,0,L|144:272,1,40.0000005960464
288,96,99497,6,0,P|336:64|464:64,2,160.000002384186
352,192,102558,1,0,0:0:0:0:
336,288,103170,1,0,0:0:0:0:
224,304,103782,1,0,0:0:0:0:
96,224,104394,6,0,L|80:176,2,40.0000005960464
144,128,105618,2,0,L|160:176,2,40.0000005960464
240,112,106843,6,0,L|336:176,1,80.0000011920928
352,240,108067,1,0,0:0:0:0:
256,320,108679,5,0,0:0:0:0:
112,288,109291,2,0,L|96:240,1,40.0000005960464
256,288,111740,2,0,B|80:256|176:192,2,160.000002384186
304,304,115107,2,0,L|352:272,1,40.0000005960464
224,176,119086,6,0,B|304:192|304:144|384:144,1,160.000002384186
368,208,120616,1,0,0:0:0:0:
432,208,120922,1,0,0:0:0:0:
416,112,121535,2,0,L|336:160,3,80.0000011920928
336,80,123677,1,0,0:0:0:0:
240,144,124289,6,0,B|144:192|192:288,1,160.000002384186
240,320,125820,1,0,0:0:0:0:
320,224,126432,6,0,L|256:176,1,80.0000011920928
272,96,127656,2,0,L|160:64,1,80.0000011920928
96,112,128881,1,0,0:0:0:0:
80,208,129493,2,0,L|128:224,2,40.0000005960464
160,112,131329,6,0,L|176:48,2,40.0000005960464
272,128,132554,1,0,0:0:0:0:
368,176,133166,1,0,0:0:0:0:
368,272,133778,1,0,0:0:0:0:
272,272,134390,2,0,L|224:272,2,40.0000005960464
160,208,135614,6,0,L|128:176,2,40.0000005960464
208,96,136839,1,0,0:0:0:0:
304,64,137451,2,0,L|352:64,1,40.0000005960464
400,112,138675,6,0,L|352:144,1,40.0000005960464
400,192,139287,2,0,L|368:240,1,40.0000005960464
432,272,139900,2,0,L|416:336,1,40.0000005960464
320,336,141124,6,0,L|256:336,2,40.0000005960464
288,272,142042,2,0,L|224:272,2,40.0000005960464
144,208,143573,6,0,P|160:160|192:128,2,80.0000011920929
192,80,145409,1,0,0:0:0:0:
272,144,146021,2,0,L|336:80,1,80.0000011920928
416,112,147246,5,0,0:0:0:0:
448,192,147858,1,0,0:0:0:0:
400,272,148470,2,0,B|304:304|304:304,1,80.0000011920928
256,272,150919,5,0,0:0:0:0:
176,240,151531,1,0,0:0:0:0:
176,144,152143,1,0,0:0:0:0:
256,112,152755,1,0,0:0:0:0:
336,144,153367,2,0,L|336:240,1,80.0000011920928
272,288,154592,2,0,L|160:288,1,80.0000011920928
96,64,158265,5,0,0:0:0:0:
224,64,159183,2,0,L|272:64,1,40.0000005960464
272,80,160713,2,0,B|192:48|64:32|32:160|32:192|160:192,1,360.000005364418
224,176,164080,2,0,L|224:240,1,40.0000005960464
288,320,165611,5,0,0:0:0:0:
352,288,165917,1,0,0:0:0:0:
384,192,166835,1,0,0:0:0:0:
384,128,167141,1,0,0:0:0:0:
272,48,168059,1,0,0:0:0:0:
160,64,168671,2,0,L|128:112,2,40.0000005960464
272,80,170508,2,0,L|336:80,2,40.0000005960464
416,128,171732,1,0,0:0:0:0:
464,224,172344,1,0,0:0:0:0:
384,288,172957,1,0,0:0:0:0:
288,304,173569,2,0,L|240:304,2,40.0000005960464
144,224,174793,6,0,L|144:160,2,40.0000005960464
224,176,176017,1,0,0:0:0:0:
304,112,176630,2,0,L|336:160,1,40.0000005960464
288,288,177854,6,0,B|208:208|144:224,1,160.000002384186
80,208,179384,2,0,L|112:160,1,40.0000005960464
160,96,180303,6,0,B|192:144|192:144|224:96|224:96|256:128|256:128|304:96|304:96|336:128|336:128|368:96|368:96,1,280.000004172325
432,176,183057,6,0,P|464:240|432:304,1,120.000001788139
400,336,184282,1,0,0:0:0:0:
336,320,184588,1,0,0:0:0:0:
96,320,185200,6,0,B|32:256|32:256,1,80.0000011920929
144,224,186424,2,0,L|80:160|80:160,1,80.0000011920929
128,64,187649,2,0,L|208:144,1,80.0000011920929
256,96,188567,1,0,0:0:0:0:
320,112,188873,1,0,0:0:0:0:
432,64,189485,1,0,0:0:0:0:
448,176,190097,6,0,L|384:256,1,80.0000011920929
368,320,191322,2,0,L|272:320,1,80.0000011920928
192,272,192546,5,0,0:0:0:0:
128,208,193158,2,0,L|144:160,2,40.0000005960464
208,96,194382,2,0,L|272:96,2,40.0000005960464
368,80,195607,1,0,0:0:0:0:
400,160,196219,2,0,L|400:224,1,40.0000005960464
144,160,197443,6,0,L|224:288,1,120.000001788139
272,256,198668,1,0,0:0:0:0:
224,128,199892,1,0,0:0:0:0:
320,112,200504,1,0,0:0:0:0:
336,208,201116,1,0,0:0:0:0:
352,48,202035,6,0,L|256:64,1,80.0000011920928
208,112,203259,2,0,L|160:176,1,80.0000011920928
256,208,204483,1,0,0:0:0:0:
208,304,205095,6,0,L|160:224,2,80.0000011920928
304,304,206932,2,0,L|352:208,2,80.0000011920928
256,272,208768,1,0,0:0:0:0:
256,208,209074,1,0,0:0:0:0:
160,144,209687,6,0,P|192:112|240:128,2,80.0000011920928
224,192,211523,2,0,P|256:224|320:208,2,80.0000011920928
288,160,213360,2,0,P|304:128|352:112,2,80.0000011920928
240,240,215808,2,0,L|288:208,1,40.0000005960464
