osu file format v12

[General]
AudioFilename: preview.mp3
AudioLeadIn: 3000
PreviewTime: 48262
Countdown: 0
SampleSet: Normal
StackLeniency: 0.7
Mode: 0
LetterboxInBreaks: 0

[Editor]
DistanceSpacing: 1
BeatDivisor: 4
GridSize: 8

[Metadata]
Title:Future Colors (TV Size)
TitleUnicode:Future Colors (TV Size)
Artist:Plastic Tree
ArtistUnicode:Plastic Tree
Creator:CDFA
Version:Insane
Source:Yu-Gi-Oh! 5D's
Tags:Mirai Iro
BeatmapID:121520
BeatmapSetID:37873

[Difficulty]
HPDrainRate:7
CircleSize:4
OverallDifficulty:8
ApproachRate:8
SliderMultiplier:1.9
SliderTickRate:2

[Events]
//Background and Video events
0,0,"Another_Yusei_wallpaper_by_SakuraSadameWingz.jpg",0,0
Video,0,"TwerkingItLikeIJerkIt.avi"
//Break Periods
//Storyboard Layer 0 (Background)
//Storyboard Layer 1 (Fail)
//Storyboard Layer 2 (Pass)
//Storyboard Layer 3 (Foreground)
//Storyboard Sound Samples
//Background Colour Transformations
3,100,163,162,255

[TimingPoints]
263,333.333333333333,4,1,0,62,1,0
2846,-100,4,2,0,62,0,0
4846,-100,4,1,0,62,0,0
15679,-100,4,2,0,62,0,0
26846,-100,4,1,0,62,0,0
47929,-100,4,2,0,5,0,0
48012,-100,4,1,0,62,0,0
83262,-100,4,1,0,60,0,0
83429,-100,4,1,0,59,0,0
83596,-100,4,1,0,58,0,0
83762,-100,4,1,0,57,0,0
83929,-100,4,1,0,56,0,0
84096,-100,4,1,0,55,0,0
84262,-100,4,1,0,54,0,0
84429,-100,4,1,0,53,0,0
84596,-100,4,1,0,52,0,0
84762,-100,4,1,0,51,0,0
84929,-100,4,1,0,50,0,0
85096,-100,4,1,0,49,0,0
85262,-100,4,1,0,48,0,0
85429,-100,4,1,0,47,0,0
85596,-100,4,1,0,46,0,0
85762,-100,4,1,0,45,0,0
85929,-100,4,1,0,44,0,0
86096,-100,4,1,0,43,0,0
86262,-100,4,1,0,42,0,0
86429,-100,4,1,0,41,0,0
86596,-100,4,1,0,40,0,0
86762,-100,4,1,0,38,0,0
86929,-100,4,1,0,36,0,0
87096,-100,4,1,0,34,0,0
87262,-100,4,1,0,32,0,0
87429,-100,4,1,0,30,0,0
87596,-100,4,1,0,28,0,0
87762,-100,4,1,0,26,0,0
87929,-100,4,1,0,24,0,0
88096,-100,4,1,0,22,0,0
88262,-100,4,1,0,20,0,0
88429,-100,4,1,0,18,0,0
88596,-100,4,1,0,16,0,0
88762,-100,4,1,0,14,0,0
88929,-100,4,1,0,13,0,0
89096,-100,4,1,0,12,0,0
89262,-100,4,1,0,11,0,0
89429,-100,4,1,0,10,0,0
89596,-100,4,1,0,9,0,0
89762,-100,4,1,0,8,0,0

[Colours]
Combo1 : 210,210,0
Combo2 : 170,85,85
Combo3 : 5,5,240

[HitObjects]
48,72,263,1,0,0:0:0:0:
133,31,429,1,0,0:0:0:0:
144,128,596,2,8,B|250:284,1,190
464,72,1262,5,0,0:0:0:0:
379,31,1428,1,0,0:0:0:0:
368,128,1595,2,8,B|262:284,1,190
188,108,2262,6,0,P|204:53|237:35,1,95,8|0,0:0|0:0,0:0:0:0:
282,35,2512,2,0,P|312:52|328:107,1,95,8|0,0:0|0:0,0:0:0:0:
260,108,2762,1,8,0:0:0:0:
220,192,2929,6,0,B|164:272,1,95,2|0,0:0|0:0,0:0:0:0:
260,272,3262,2,0,B|318:195,1,95,8|0,0:0|0:0,0:0:0:0:
412,176,3596,2,0,P|388:128|336:112,1,95,2|0,0:0|0:0,0:0:0:0:
260,108,3929,2,0,B|214:123|167:110,1,95,8|0,0:0|0:0,0:0:0:0:
84,64,4262,1,2,0:0:0:0:
12,124,4429,1,0,0:0:0:0:
80,184,4596,1,8,0:0:0:0:
48,272,4762,1,0,0:0:0:0:
104,352,4929,5,8,0:0:0:0:
263,269,5179,1,8,0:0:0:0:
98,192,5429,1,8,0:0:0:0:
48,272,5596,5,6,0:0:0:0:
130,318,5762,1,2,0:0:0:0:
208,256,5929,1,8,0:0:0:0:
280,200,6096,2,2,B|328:176|400:264|472:240,1,190
504,160,6596,1,8,0:0:0:0:
410,172,6762,1,0,0:0:0:0:
448,88,6929,6,2,B|424:48|371:29|371:29|328:48|304:88,1,190,2|8,0:0|0:0,0:0:0:0:
250,167,7429,2,2,B|234:215|186:235|186:235|138:215|122:167,1,190
115,71,7929,1,8,0:0:0:0:
186,135,8096,1,0,0:0:0:0:
258,71,8262,6,2,B|306:55|354:71,1,95
424,128,8596,1,8,0:0:0:0:
480,208,8762,2,2,B|480:256|464:304|424:336|360:336,1,190,2|2,0:0|0:0,0:0:0:0:
296,280,9262,1,8,0:0:0:0:
208,320,9429,1,0,0:0:0:0:
152,240,9596,6,2,B|72:192,1,95
0,128,9929,1,8,0:0:0:0:
72,64,10096,2,2,B|120:48|152:96|152:96|184:48|237:63,1,190
320,104,10596,1,8,0:0:0:0:
362,83,10679,1,0,0:0:0:0:
387,122,10762,1,0,0:0:0:0:
429,99,10846,1,0,0:0:0:0:
448,142,10929,6,2,B|488:150|512:174|512:206,1,95
470,288,11262,1,8,0:0:0:0:
376,304,11429,2,2,B|336:328|256:240|176:280,1,190
104,304,11929,1,8,0:0:0:0:
16,272,12096,1,0,0:0:0:0:
88,216,12262,6,2,B|144:128,1,95
208,72,12596,1,8,0:0:0:0:
288,16,12762,2,2,B|384:0|480:24,1,190
400,80,13262,1,8,0:0:0:0:
480,128,13429,1,0,0:0:0:0:
392,160,13596,6,2,B|336:240,1,95
256,288,13929,1,8,0:0:0:0:
184,352,14096,2,4,B|152:384|101:411|48:384|16:352,1,190
120,192,14762,2,4,B|216:168|310:192,1,190
256,376,15429,1,4,0:0:0:0:
200,296,15596,1,4,0:0:0:0:
256,216,15762,5,2,0:0:0:0:
320,144,15929,1,2,0:0:0:0:
256,72,16096,1,2,0:0:0:0:
168,32,16262,6,0,B|72:16|32:56|32:128,1,190,0|8,0:0|0:0,0:0:0:0:
344,352,16929,2,0,B|440:368|480:328|480:256,1,190,0|8,0:0|0:0,0:0:0:0:
328,152,17596,6,0,B|304:112|256:92|256:92|208:112|184:152,1,190,0|8,0:0|0:0,0:0:0:0:
184,232,18096,2,0,B|208:272|256:292|256:292|304:272|328:232,1,190,0|0,0:0|0:0,0:0:0:0:
256,192,18596,1,8,0:0:0:0:
256,96,18762,1,0,0:0:0:0:
328,32,18929,6,0,B|373:18|420:40|420:40|445:85|435:132,1,190,0|8,0:0|0:0,0:0:0:0:
184,352,19596,2,0,B|138:365|91:343|91:343|66:298|76:251,1,190,0|8,0:0|0:0,0:0:0:0:
256,192,20262,6,0,B|304:176|360:288|448:248,1,190,0|8,0:0|0:0,0:0:0:0:
376,176,20762,2,0,B|280:344,1,190
192,368,21262,1,8,0:0:0:0:
152,280,21429,1,0,0:0:0:0:
80,344,21596,6,0,B|40:336|8:312|-8:272|-16:240|0:184,1,190,0|8,0:0|0:0,0:0:0:0:
432,40,22262,2,0,B|472:48|504:72|520:112|528:144|512:200,1,190,0|8,0:0|0:0,0:0:0:0:
328,192,22929,6,0,B|256:16,1,190,0|8,0:0|0:0,0:0:0:0:
208,96,23429,2,0,B|288:288,1,190
354,332,23929,1,8,0:0:0:0:
448,320,24096,6,0,B|480:280|480:224|440:176|384:176,1,190
392,256,24596,2,0,B|440:256|480:216|504:168|488:120,1,190,8|0,0:0|0:0,0:0:0:0:
328,16,25262,2,0,B|312:64|256:72|256:72|200:64|184:16,1,190,8|0,0:0|0:0,0:0:0:0:
112,192,25929,2,0,B|224:192,1,95,0|4,0:0|0:0,0:0:0:0:
256,376,26429,5,0,0:0:0:0:
152,384,26596,1,2,0:0:0:0:
56,368,26762,1,0,0:0:0:0:
8,280,26929,6,0,B|-8:232|10:178|72:168|120:200,1,190,0|8,0:0|0:0,0:0:0:0:
504,104,27596,2,0,B|520:152|502:206|440:216|392:184,1,190,0|8,0:0|0:0,0:0:0:0:
200,192,28262,6,0,B|200:240|216:288|264:312|320:304,1,190,0|8,0:0|0:0,0:0:0:0:
319,208,28762,2,0,B|319:160|303:112|255:88|199:96,1,190,0|0,0:0|0:0,0:0:0:0:
120,144,29262,1,8,0:0:0:0:
152,232,29429,1,0,0:0:0:0:
232,176,29596,6,0,B|280:160|320:187|320:187|360:160|416:176,1,190,0|8,0:0|0:0,0:0:0:0:
256,280,30262,2,0,B|232:320|177:333|177:333|120:320|104:280,1,190,0|8,0:0|0:0,0:0:0:0:
0,128,30929,6,0,B|176:48,1,190,0|8,0:0|0:0,0:0:0:0:
80,24,31429,2,0,B|176:216,1,190
232,256,31929,1,8,0:0:0:0:
320,216,32096,1,0,0:0:0:0:
368,296,32262,6,0,B|392:336|432:368|488:376|536:352,2,190,0|8|0,0:0|0:0|0:0,0:0:0:0:
256,144,33262,5,8,0:0:0:0:
160,120,33429,1,0,0:0:0:0:
136,208,33596,2,0,B|112:256|72:288|16:280,2,142.5
256,352,34429,5,0,0:0:0:0:
352,328,34596,1,8,0:0:0:0:
432,272,34762,1,0,0:0:0:0:
480,192,34929,6,0,B|488:144|464:96|408:64|344:80,1,190,4|8,0:0|0:0,0:0:0:0:
384,168,35429,1,0,0:0:0:0:
336,248,35596,2,0,B|256:304|256:304|184:248,1,190,0|8,0:0|0:0,0:0:0:0:
256,192,36096,2,0,B|256:0,1,190
344,32,36596,2,0,B|432:80,1,95,8|0,0:0|0:0,0:0:0:0:
336,108,36929,2,0,B|452:172,1,95
332,188,37262,2,0,B|424:236,1,95,8|0,0:0|0:0,0:0:0:0:
504,256,37596,6,0,B|496:296|464:336|416:360|360:352,1,190,4|8,0:0|0:0,0:0:0:0:
280,296,38096,1,0,0:0:0:0:
208,232,38262,2,0,B|184:184|200:136|240:104|296:104,1,190,0|8,0:0|0:0,0:0:0:0:
272,184,38762,2,0,B|112:80,1,190
98,166,39262,2,0,B|150:178|193:152|215:106|202:51,2,190,8|0|8,0:0|0:0|0:0,0:0:0:0:
0,344,40262,6,0,B|48:360|90:323|90:323|128:360|176:344,1,190,0|8,0:0|0:0,0:0:0:0:
256,288,40762,1,0,0:0:0:0:
336,344,40929,2,0,B|384:360|422:323|422:323|464:360|512:344,1,190,0|8,0:0|0:0,0:0:0:0:
512,248,41429,2,0,B|512:200|480:160|424:136|368:152,1,190
312,216,41929,2,0,B|304:264|256:288|256:288|208:264|200:216,2,190,8|0|8,0:0|0:0|0:0,0:0:0:0:
161,99,42929,6,0,B|353:99,1,190,0|8,0:0|0:0,0:0:0:0:
184,192,43596,2,0,B|208:232|255:253|255:253|304:232|328:192,1,190,0|8,0:0|0:0,0:0:0:0:
257,4,44262,2,4,B|257:388,1,380
256,192,45096,12,2,47929,0:0:0:0:
256,48,48262,5,4,0:0:0:0:
208,184,48429,1,0,0:0:0:0:
328,104,48596,1,8,0:0:0:0:
184,104,48762,1,0,0:0:0:0:
304,184,48929,2,0,B|328:224|368:264|448:248|496:224,1,190,0|8,0:0|0:0,0:0:0:0:
400,168,49429,2,0,B|338:349,2,190,4|8|0,0:0|0:0|0:0,0:0:0:0:
336,96,50262,2,0,P|416:72|496:160,1,190,0|8,0:0|0:0,0:0:0:0:
256,48,50929,5,4,0:0:0:0:
304,184,51096,1,0,0:0:0:0:
184,104,51263,1,8,0:0:0:0:
328,104,51429,1,0,0:0:0:0:
208,184,51596,2,0,B|184:224|144:264|64:248|16:224,1,190,0|8,0:0|0:0,0:0:0:0:
112,168,52096,2,0,B|174:349,2,190,4|8|0,0:0|0:0|0:0,0:0:0:0:
72,80,52929,1,0,0:0:0:0:
488,32,53262,5,8,0:0:0:0:
420,99,53429,1,0,0:0:0:0:
352,166,53596,1,4,0:0:0:0:
24,32,53929,5,8,0:0:0:0:
92,99,54096,1,0,0:0:0:0:
159,166,54263,1,4,0:0:0:0:
24,352,54596,5,8,0:0:0:0:
92,285,54763,1,0,0:0:0:0:
176,336,54929,2,0,B|208:376|256:400|304:376|336:336,2,190,4|8|0,0:0|0:0|0:0,0:0:0:0:
200,248,55762,1,0,0:0:0:0:
256,168,55929,1,8,0:0:0:0:
312,248,56096,1,0,0:0:0:0:
336,336,56262,6,0,B|304:377|256:401|208:377|176:337,1,190,0|8,0:0|0:0,0:0:0:0:
176,64,56929,2,0,B|209:24|257:0|305:24|337:64,1,190,0|8,0:0|0:0,0:0:0:0:
256,224,57596,5,0,0:0:0:0:
216,88,57762,1,0,0:0:0:0:
328,176,57929,1,8,0:0:0:0:
184,176,58096,1,0,0:0:0:0:
296,88,58262,1,0,0:0:0:0:
256,224,58429,5,0,0:0:0:0:
272,272,58512,1,0,0:0:0:0:
304,304,58596,1,0,0:0:0:0:
352,320,58679,1,0,0:0:0:0:
400,320,58762,1,0,0:0:0:0:
448,304,58846,1,0,0:0:0:0:
472,264,58929,6,0,B|512:176,1,95,4|0,0:0|0:0,0:0:0:0:
472,88,59262,1,8,0:0:0:0:
384,120,59429,1,0,0:0:0:0:
312,56,59596,2,0,B|216:32|119:54,1,190,0|8,0:0|0:0,0:0:0:0:
56,120,60096,2,0,B|32:160|24:224|72:288|152:256,2,190,4|8|0,0:0|0:0|0:0,0:0:0:0:
120,48,60929,1,0,0:0:0:0:
256,184,61262,1,8,0:0:0:0:
256,376,61596,5,4,0:0:0:0:
352,360,61762,1,0,0:0:0:0:
432,312,61929,1,8,0:0:0:0:
488,232,62096,1,0,0:0:0:0:
504,136,62262,2,0,B|410:93|320:128,1,190,0|8,0:0|0:0,0:0:0:0:
240,184,62762,2,0,B|150:247|64:184,2,190,4|0|0,0:0|0:0|0:0,0:0:0:0:
344,24,63762,5,0,0:0:0:0:
440,8,63929,1,8,0:0:0:0:
496,80,64096,1,0,0:0:0:0:
397,94,64262,1,4,0:0:0:0:
168,24,64596,5,8,0:0:0:0:
72,8,64763,1,0,0:0:0:0:
16,80,64930,1,4,0:0:0:0:
336,272,65262,5,8,0:0:0:0:
256,328,65429,1,0,0:0:0:0:
176,272,65596,2,4,B|180:225|219:179|280:176|319:201,2,190,4|8|4,0:0|0:0|0:0,0:0:0:0:
120,344,66429,1,0,0:0:0:0:
40,296,66596,1,8,0:0:0:0:
16,208,66762,1,0,0:0:0:0:
32,112,66929,6,0,B|216:48,1,190,4|8,0:0|0:0,0:0:0:0:
480,112,67596,2,0,B|296:48,1,190,0|8,0:0|0:0,0:0:0:0:
183,192,68262,2,0,B|198:235|227:242|256:228|256:228|284:242|313:235|328:192,1,190,4|8,0:0|0:0,0:0:0:0:
256,128,68762,1,0,0:0:0:0:
133,109,68929,5,0,0:0:0:0:
142,62,69012,1,0,0:0:0:0:
161,18,69096,1,0,0:0:0:0:
205,2,69179,1,0,0:0:0:0:
257,2,69262,1,0,0:0:0:0:
309,2,69346,1,0,0:0:0:0:
353,18,69429,1,0,0:0:0:0:
372,62,69513,1,0,0:0:0:0:
381,109,69596,6,0,B|376:160|408:208|464:216|520:200,1,190,4|8,0:0|0:0,0:0:0:0:
131,275,70262,2,0,B|136:224|104:176|48:168|-8:184,1,190,0|8,0:0|0:0,0:0:0:0:
32,272,70762,1,0,0:0:0:0:
88,348,70929,2,0,P|168:360|200:244,1,190,0|8,0:0|0:0,0:0:0:0:
44,188,71596,2,0,B|36:140|52:92|100:68|164:68,2,190,0|8|0,0:0|0:0|0:0,0:0:0:0:
256,144,72596,1,8,0:0:0:0:
381,275,72929,6,0,B|376:224|408:176|464:168|520:184,1,190,0|8,0:0|0:0,0:0:0:0:
480,272,73429,1,0,0:0:0:0:
424,348,73596,2,0,P|344:360|312:244,1,190,0|8,0:0|0:0,0:0:0:0:
468,188,74263,2,0,B|476:140|460:92|412:68|348:68,2,190,0|8|4,0:0|0:0|0:0,0:0:0:0:
256,304,75263,1,8,0:0:0:0:
124,168,75596,6,0,B|324:168,1,190,4|8,0:0|0:0,0:0:0:0:
445,304,76262,2,0,B|253:304,1,190,4|8,0:0|0:0,0:0:0:0:
79,41,76929,5,4,0:0:0:0:
84,87,77012,1,0,0:0:0:0:
108,127,77096,1,0,0:0:0:0:
143,158,77179,1,0,0:0:0:0:
187,175,77262,1,0,0:0:0:0:
234,183,77346,1,0,0:0:0:0:
281,180,77429,1,0,0:0:0:0:
325,165,77512,1,0,0:0:0:0:
363,136,77596,6,2,B|399:99|396:42,1,95,6|2,0:0|0:0,0:0:0:0:
304,25,77929,1,8,0:0:0:0:
256,104,78096,2,2,B|256:328,1,190
328,360,78596,1,8,0:0:0:0:
416,328,78762,1,0,0:0:0:0:
472,248,78929,6,2,B|480:192|488:144,1,95
448,72,79262,1,8,0:0:0:0:
360,32,79429,2,2,B|267:4|169:30,1,190
112,104,79929,1,8,0:0:0:0:
128,152,80012,1,0,0:0:0:0:
160,184,80096,1,0,0:0:0:0:
192,152,80179,1,0,0:0:0:0:
208,104,80262,6,2,B|256:96|304:104,1,95
384,152,80596,1,8,0:0:0:0:
424,240,80762,2,2,B|424:288|400:336|344:360|288:352,1,190
216,304,81262,1,8,0:0:0:0:
128,344,81429,1,0,0:0:0:0:
64,272,81596,6,2,B|8:192,1,95
0,96,81929,1,8,0:0:0:0:
56,16,82096,2,2,B|104:8|152:16|200:56|208:112,1,190
190,195,82596,1,8,0:0:0:0:
223,228,82679,1,0,0:0:0:0:
256,261,82762,1,0,0:0:0:0:
289,294,82846,1,0,0:0:0:0:
322,327,82929,1,4,0:0:0:0:
256,192,83096,12,0,89929,2:0:0:0:
