osu file format v14

[General]
AudioFilename: Seishun wa Nonstop!.mp3
AudioLeadIn: 0
PreviewTime: 60781
Countdown: 0
SampleSet: Soft
StackLeniency: 0.7
Mode: 0
LetterboxInBreaks: 0
WidescreenStoryboard: 0

[Editor]
Bookmarks: 30649
DistanceSpacing: 1.1
BeatDivisor: 4
GridSize: 4
TimelineZoom: 2.899999

[Metadata]
Title:Seishun wa Non-Stop!
TitleUnicode:青春はNon-Stop!
Artist:Plasmagica
ArtistUnicode:プラズマジカ
Creator:[Sc4v4ng3r]
Version:Insane
Source:ショウ・バイ・ロック!!
Tags:レガートミュージック RegaSound シアン チュチュ レトリー モアSHOW BY ROCK!! OP opening video game AsakuraNe walaowey Kagari Cyan ChuChu Retoree Moa Eri Inagawa Sumire Uesaka Manami Numakura Ayane Sakura
BeatmapID:718911
BeatmapSetID:323449

[Difficulty]
HPDrainRate:7
CircleSize:4
OverallDifficulty:7
ApproachRate:9
SliderMultiplier:1.6
SliderTickRate:1

[Events]
//Background and Video events
0,0,"BG.jpg",0,0
Video,0,"ns.flv"
//Break Periods
//Storyboard Layer 0 (Background)
//Storyboard Layer 1 (Fail)
//Storyboard Layer 2 (Pass)
//Storyboard Layer 3 (Foreground)
//Storyboard Sound Samples

[TimingPoints]
694,348.837209302326,4,2,1,60,1,0
3484,-166.666666666667,4,2,1,55,0,0
5054,-100,4,2,1,60,0,0
9066,-166.666666666667,4,2,1,55,0,0
9850,-111.111111111111,4,2,1,45,0,0
10461,-90.9090909090909,4,2,1,70,0,0
11856,-100,4,2,1,65,0,0
61391,-111.111111111111,4,2,1,45,0,0
61914,-100,4,2,1,75,0,1
83717,-111.111111111111,4,2,1,75,0,1
84414,-100,4,2,1,65,0,0

[Colours]
Combo1 : 168,120,177
Combo2 : 0,0,128
Combo3 : 248,193,5
Combo4 : 255,40,255

[HitObjects]
104,112,694,5,0,0:0:0:0:
104,112,868,2,0,P|152:76|192:76,1,80,8|8,0:0|0:0,0:0:0:0:
260,72,1217,2,0,P|298:82|326:110,1,80,8|8,0:0|0:0,0:0:0:0:
256,164,1566,1,2,0:0:0:0:
256,164,1740,1,2,0:0:0:0:
64,348,2264,6,8,P|105:360|156:344,1,80
112,272,2612,2,8,P|156:264|204:280,1,80
252,340,2961,1,2,0:0:0:0:
252,340,3136,1,2,0:0:0:0:
344,284,3485,6,0,P|352:148|184:80,1,335.999989746094,8|0,0:0|0:0,0:0:0:0:
98,230,5054,6,8,P|70:178|74:141,1,80
160,164,5403,2,8,P|148:104|120:84,1,80
56,60,5752,1,2,0:0:0:0:
56,60,5926,1,6,0:0:0:0:
232,36,6275,5,0,0:0:0:0:
316,64,6450,2,8,P|360:76|388:104,1,80
316,152,6798,2,8,P|346:177|384:186,1,80
464,144,7147,1,2,0:0:0:0:
464,144,7322,1,2,0:0:0:0:
320,364,7845,6,8,P|272:376|240:364,1,80
281,286,8194,2,8,P|229:278|189:294,1,80
156,356,8543,1,2,0:0:0:0:
156,356,8717,1,6,0:0:0:0:
72,292,9066,6,0,P|20:236|44:120,1,191.999994140625,8|0,0:0|0:0,0:0:0:0:
64,104,9851,5,0,0:0:0:0:
100,88,9938,1,2,0:0:0:0:
140,84,10025,1,2,0:0:0:0:
180,92,10112,1,6,0:0:0:0:
216,108,10200,1,2,0:0:0:0:
256,104,10287,1,2,0:0:0:0:
292,88,10374,1,2,0:0:0:0:
340,80,10461,6,2,P|388:88|424:133,1,88.000002685547
339,175,10810,2,2,P|372:204|415:210,1,88.000002685547
492,272,11159,2,2,P|459:300|416:306,1,88.000002685547
320,300,11507,1,0,0:0:0:0:
144,276,11856,6,8,P|100:260|68:208,1,80,0|0,0:0|0:0,0:0:0:0:
152,188,12205,2,0,P|120:156|108:120,1,80,8|0,0:0|0:0,0:0:0:0:
184,76,12554,2,0,P|212:100|228:144,1,80
240,228,12903,2,0,P|288:224|320:200,1,80,8|0,0:0|0:0,0:0:0:0:
316,120,13252,2,0,P|356:108|412:132,2,80,0|0|8,0:0|0:0|0:0,0:0:0:0:
356,200,13775,2,0,P|372:240|412:268,1,80
316,120,14124,5,10,0:0:0:0:
224,264,14298,1,10,0:0:0:0:
84,160,14647,6,0,L|52:84,1,80
160,144,14996,2,0,L|192:224,1,80,8|0,0:0|0:0,0:0:0:0:
232,116,15345,2,0,L|196:32,2,80,0|0|8,0:0|0:0|0:0,0:0:0:0:
276,192,15868,1,0,0:0:0:0:
364,192,16042,2,0,P|358:231|333:261,1,80
252,288,16391,2,0,P|277:330|319:346,1,80,8|0,0:0|0:0,0:0:0:0:
392,344,16740,1,0,0:0:0:0:
296,208,16915,5,10,0:0:0:0:
176,316,17089,1,10,0:0:0:0:
56,188,17438,6,0,P|88:152|124:144,1,80,4|0,0:0|0:0,0:0:0:0:
132,232,17787,2,0,B|164:260|164:260|224:272,1,80,8|0,0:0|0:0,0:0:0:0:
204,180,18135,2,0,L|288:180,1,80
312,264,18485,2,0,P|352:236|368:200,1,80,8|0,0:0|0:0,0:0:0:0:
368,120,18833,2,0,B|340:96|340:96|296:96,1,80
208,96,19182,2,0,B|164:84|164:84|136:52,1,80,8|0,0:0|0:0,0:0:0:0:
212,8,19531,1,0,0:0:0:0:
368,120,19705,5,10,0:0:0:0:
224,220,19880,1,10,0:0:0:0:
60,280,20229,6,8,P|32:236|40:196,1,80,0|0,0:0|0:0,0:0:0:0:
124,212,20577,2,0,P|108:160|76:136,1,80,8|0,0:0|0:0,0:0:0:0:
12,108,20926,2,0,B|40:76|40:76|88:60,1,80
164,64,21275,2,0,B|204:76|204:76|232:108,1,80,8|0,0:0|0:0,0:0:0:0:
220,192,21624,2,0,P|260:192|296:164,1,80
340,96,21973,2,0,P|372:128|380:180,1,80,8|0,0:0|0:0,0:0:0:0:
340,240,22322,1,0,0:0:0:0:
176,176,22496,5,10,0:0:0:0:
296,56,22671,1,10,0:0:0:0:
120,52,23019,6,0,P|88:88|76:128,1,80,4|8,0:0|0:0,0:0:0:0:
164,132,23368,2,0,P|144:176|104:204,1,80,0|8,0:0|0:0,0:0:0:0:
32,192,23717,2,0,L|16:296,1,80,0|8,0:0|0:0,0:0:0:0:
19,271,23978,1,0,0:0:0:0:
19,271,24066,1,0,0:0:0:0:
104,296,24240,1,8,0:0:0:0:
104,296,24414,6,0,P|143:297|178:279,2,80,0|8|0,0:0|0:0|0:0,0:0:0:0:
124,212,24938,2,0,P|176:190|208:196,1,80,8|0,0:0|0:0,0:0:0:0:
288,188,25287,1,8,0:0:0:0:
332,112,25461,1,2,0:0:0:0:
332,112,25548,1,2,0:0:0:0:
332,112,25635,1,10,0:0:0:0:
420,104,25810,6,0,P|405:167|389:181,1,80,0|8,0:0|0:0,0:0:0:0:
348,252,26159,2,0,P|384:292|416:304,1,80,0|8,0:0|0:0,0:0:0:0:
496,300,26508,2,0,P|476:364|460:376,2,80,0|8|0,0:0|0:0|0:0,0:0:0:0:
500,212,27031,2,0,P|488:148|456:116,2,80,8|0|8,0:0|0:0|0:0,0:0:0:0:
416,192,27554,2,0,P|352:176|312:196,1,80,0|8,0:0|0:0,0:0:0:0:
340,179,27816,1,0,0:0:0:0:
340,179,27903,1,0,0:0:0:0:
368,264,28078,2,0,P|324:272|276:232,2,80,8|0|8,0:0|0:0|0:0,0:0:0:0:
416,192,28601,6,0,P|420:132|400:108,1,80,0|8,0:0|0:0,0:0:0:0:
348,56,28950,2,0,P|308:36|260:40,1,80,0|8,0:0|0:0,0:0:0:0:
292,120,29298,2,0,B|288:164|288:164|268:204,1,80,0|8,0:0|0:0,0:0:0:0:
200,144,29647,1,0,0:0:0:0:
120,108,29822,2,0,P|120:180|188:232,1,160,8|8,0:0|0:0,0:0:0:0:
200,144,30345,1,0,0:0:0:0:
271,196,30519,1,8,0:0:0:0:
271,196,30694,2,0,B|310:186|310:186|338:158,1,80,0|8,0:0|0:0,0:0:0:0:
388,84,31043,2,0,B|422:109|422:109|440:152,1,80,0|8,0:0|0:0,0:0:0:0:
448,232,31391,6,0,P|432:316|352:336,1,160
316,268,31915,1,8,0:0:0:0:
260,336,32089,2,0,P|190:304|180:228,1,160
244,168,32612,1,8,0:0:0:0:
304,104,32787,2,0,P|260:80|225:82,2,80,0|8|0,0:0|0:0|0:0,0:0:0:0:
376,156,33310,2,0,P|416:204|384:308,1,160,8|8,0:0|0:0,0:0:0:0:
312,312,33833,1,10,0:0:0:0:
276,312,33921,1,2,0:0:0:0:
240,308,34008,1,10,0:0:0:0:
204,296,34095,1,2,0:0:0:0:
172,276,34182,6,0,P|140:248|124:196,1,80,4|8,0:0|0:0,0:0:0:0:
212,196,34531,2,0,P|180:140|148:124,1,80,0|8,0:0|0:0,0:0:0:0:
96,80,34880,2,0,B|129:57|129:57|197:53,1,80,0|8,0:0|0:0,0:0:0:0:
248,88,35228,1,0,0:0:0:0:
248,88,35316,1,0,0:0:0:0:
248,88,35403,1,8,0:0:0:0:
296,160,35578,6,0,P|325:129|333:84,1,80,0|8,0:0|0:0,0:0:0:0:
360,12,35926,2,0,P|404:40|420:84,1,80,0|8,0:0|0:0,0:0:0:0:
488,116,36275,2,0,P|440:156|412:164,1,80,0|8,0:0|0:0,0:0:0:0:
344,196,36624,1,0,0:0:0:0:
344,196,36711,1,0,0:0:0:0:
344,196,36798,1,8,0:0:0:0:
284,260,36973,6,0,P|240:280|184:260,1,80,0|8,0:0|0:0,0:0:0:0:
228,192,37322,2,0,P|184:188|136:216,1,80,0|8,0:0|0:0,0:0:0:0:
120,284,37671,2,0,P|132:324|180:352,2,80,0|8|0,0:0|0:0|0:0,0:0:0:0:
92,200,38194,2,0,P|98:115|174:75,1,160,8|8,0:0|0:0,0:0:0:0:
172,164,38717,1,0,0:0:0:0:
244,116,38891,2,0,B|324:96|324:96|420:124,1,160,8|8,0:0|0:0,0:0:0:0:
412,204,39415,2,0,P|368:248|332:260,1,80,0|8,0:0|0:0,0:0:0:0:
276,300,39764,6,0,L|324:368,1,80,0|8,0:0|0:0,0:0:0:0:
184,316,40112,2,0,L|101:323,1,80,0|8,0:0|0:0,0:0:0:0:
220,232,40461,2,0,L|253:159,1,80,0|8,0:0|0:0,0:0:0:0:
200,88,40810,1,0,0:0:0:0:
200,88,40897,1,0,0:0:0:0:
200,88,40985,2,0,P|272:68|335:126,1,160,8|8,0:0|0:0,0:0:0:0:
360,204,41507,2,0,L|322:274,1,80,0|8,0:0|0:0,0:0:0:0:
256,332,41857,1,0,0:0:0:0:
256,332,42031,2,0,P|323:361|399:318,1,160,8|8,0:0|0:0,0:0:0:0:
448,252,42554,6,0,P|432:196|404:168,1,80,0|8,0:0|0:0,0:0:0:0:
336,152,42903,2,0,P|296:156|236:144,1,80,0|8,0:0|0:0,0:0:0:0:
168,144,43252,2,0,P|124:160|80:192,1,80,0|8,0:0|0:0,0:0:0:0:
52,252,43601,1,0,0:0:0:0:
52,252,43775,1,8,0:0:0:0:
104,324,43949,2,0,P|137:346|174:358,1,80,0|8,0:0|0:0,0:0:0:0:
264,372,44298,2,0,P|332:356|360:324,1,80,0|8,0:0|0:0,0:0:0:0:
280,284,44647,1,8,0:0:0:0:
232,124,44822,1,8,0:0:0:0:
388,88,44996,1,8,0:0:0:0:
432,244,45171,1,0,0:0:0:0:
280,284,45345,6,0,P|240:282|202:269,1,80,0|8,0:0|0:0,0:0:0:0:
168,96,45868,1,8,0:0:0:0:
256,108,46043,2,0,P|296:116|332:148,1,80,0|8,0:0|0:0,0:0:0:0:
260,196,46391,1,2,0:0:0:0:
84,192,46740,2,0,P|68:236|84:280,1,80,0|8,0:0|0:0,0:0:0:0:
160,240,47089,2,0,P|200:256|224:288,1,80,0|8,0:0|0:0,0:0:0:0:
288,344,47438,2,0,P|353:331|383:303,1,80,0|8,0:0|0:0,0:0:0:0:
307,252,47787,2,0,P|337:226|350:189,1,80,4|8,0:0|0:0,0:0:0:0:
264,176,48136,6,2,P|323:104|396:112,1,160
350,189,48659,2,0,P|390:205|418:249,1,80,8|0,0:0|0:0,0:0:0:0:
446,314,49008,1,10,0:0:0:0:
364,340,49182,1,2,0:0:0:0:
364,340,49356,2,2,P|264:336|232:268,1,160,2|14,0:0|0:0,0:0:0:0:
316,268,49880,2,0,P|348:232|344:192,1,80,0|8,0:0|0:0,0:0:0:0:
260,196,50229,1,0,0:0:0:0:
72,176,50403,1,2,0:0:0:0:
188,40,50578,1,2,0:0:0:0:
260,196,50752,1,2,0:0:0:0:
239,277,50926,6,0,P|204:259|180:228,1,80,0|8,0:0|0:0,0:0:0:0:
112,284,51275,2,0,P|77:312|36:316,2,80,0|8|0,0:0|0:0|0:0,0:0:0:0:
44,228,51798,1,2,0:0:0:0:
52,140,51973,2,2,P|84:68|184:64,1,160,2|0,0:0|0:0,0:0:0:0:
140,140,52496,1,8,0:0:0:0:
136,228,52671,2,0,P|176:240|232:236,1,80,0|8,0:0|0:0,0:0:0:0:
300,256,53019,2,0,L|296:176,1,80,0|8,0:0|0:0,0:0:0:0:
280,88,53368,1,4,0:0:0:0:
368,64,53543,1,8,0:0:0:0:
368,64,53630,1,0,0:0:0:0:
368,64,53717,6,0,P|392:104|396:152,1,80,0|8,0:0|0:0,0:0:0:0:
308,128,54066,2,0,P|300:184|260:220,1,80,0|8,0:0|0:0,0:0:0:0:
200,212,54415,2,0,P|168:184|148:144,2,80,0|8|0,0:0|0:0|0:0,0:0:0:0:
224,128,54938,2,8,P|152:68|88:100,1,160
150,151,55461,2,0,P|130:191|90:223,1,80,0|8,0:0|0:0,0:0:0:0:
20,236,55810,2,0,P|48:280|104:300,1,80,0|8,0:0|0:0,0:0:0:0:
160,288,56159,1,0,0:0:0:0:
232,240,56333,1,8,0:0:0:0:
268,320,56508,6,0,P|312:280|316:248,1,80,0|8,0:0|0:0,0:0:0:0:
404,244,56857,2,0,P|372:176|340:168,1,80,0|8,0:0|0:0,0:0:0:0:
296,128,57205,1,0,0:0:0:0:
376,88,57380,2,0,P|408:56|424:20,2,80,8|0|8,0:0|0:0|0:0,0:0:0:0:
296,48,57903,2,0,P|256:32|204:32,1,80,0|8,0:0|0:0,0:0:0:0:
136,56,58252,1,0,0:0:0:0:
72,116,58426,5,10,0:0:0:0:
80,296,58600,1,2,0:0:0:0:
176,144,58775,1,10,0:0:0:0:
16,208,58949,1,2,0:0:0:0:
180,252,59124,1,14,0:0:0:0:
256,192,59211,12,12,60461,0:0:0:0:
380,92,60868,6,0,P|426:112|454:154,2,80,8|0|8,0:0|0:0|0:0,0:0:0:0:
300,80,61391,1,2,0:0:0:0:
260,76,61479,1,2,0:0:0:0:
224,92,61566,2,2,L|169:118,1,35.9999989013672
264,164,61740,2,2,L|288:200,1,35.9999989013672
208,228,61914,6,8,P|184:280|72:280,1,160,6|8,0:0|0:0,0:0:0:0:
216,352,62438,2,0,P|272:352|300:340,1,80,0|8,0:0|0:0,0:0:0:0:
288,256,62787,2,0,P|344:240|376:244,2,80,0|10|2,0:0|0:0|0:0,0:0:0:0:
444,244,63310,2,8,P|480:172|416:104,1,160
312,184,63833,2,0,P|288:152|288:108,1,80,0|8,0:0|0:0,0:0:0:0:
328,36,64182,2,0,B|285:25|285:25|229:44,2,80,0|10|2,0:0|0:0|0:0,0:0:0:0:
292,116,64705,6,8,P|277:192|209:229,1,160
328,256,65229,2,0,P|368:296|412:308,2,80,0|8|0,0:0|0:0|0:0,0:0:0:0:
408,220,65752,2,0,P|372:176|336:168,1,80,8|0,0:0|0:0,0:0:0:0:
216,120,66100,2,8,P|152:96|104:12,1,160
88,144,66624,2,2,P|64:196|72:232,1,80,2|10,0:0|0:0,0:0:0:0:
96,300,66973,2,2,L|204:280,1,80,2|10,0:0|0:0,0:0:0:0:
368,256,67321,1,2,0:0:0:0:
368,256,67496,6,8,P|336:172|400:100,1,160,12|8,0:0|0:0,0:0:0:0:
248,204,68019,2,0,P|208:172|152:156,1,80,0|8,0:0|0:0,0:0:0:0:
148,244,68368,2,0,P|96:216|76:180,2,80,0|10|2,0:0|0:0|0:0,0:0:0:0:
192,100,68891,2,8,P|264:120|320:60,1,160
312,212,69415,2,0,P|304:256|280:288,1,80,0|8,0:0|0:0,0:0:0:0:
220,220,69764,2,0,P|192:260|192:304,2,80,0|10|2,0:0|0:0|0:0,0:0:0:0:
356,296,70287,1,8,0:0:0:0:
404,224,70461,6,0,L|428:144,1,80,0|8,0:0|0:0,0:0:0:0:
436,308,70810,2,0,L|493:368,1,80,0|8,0:0|0:0,0:0:0:0:
356,296,71159,2,0,L|274:315,2,80,0|8|0,0:0|0:0|0:0,0:0:0:0:
232,208,71682,2,8,P|276:140|232:64,1,160,12|10,0:0|0:0,0:0:0:0:
360,176,72205,5,12,0:0:0:0:
140,264,72380,1,10,0:0:0:0:
140,264,72467,1,10,0:0:0:0:
140,264,72554,1,10,0:0:0:0:
208,36,72728,2,2,L|256:44,1,40,10|2,0:0|0:0,0:0:0:0:
212,92,72903,2,2,L|251:98,1,40
216,144,73078,6,8,P|144:176|52:132,1,160,12|8,0:0|0:0,0:0:0:0:
180,264,73601,2,0,P|212:280|256:284,1,80,0|8,0:0|0:0,0:0:0:0:
292,204,73950,2,0,L|392:204,2,80,0|10|2,0:0|0:0|0:0,0:0:0:0:
416,100,74473,2,8,P|412:188|484:256,1,160
336,160,74996,2,0,P|305:115|279:102,1,80,0|8,0:0|0:0,0:0:0:0:
252,184,75345,2,0,P|204:220|152:224,2,80,0|10|2,0:0|0:0|0:0,0:0:0:0:
184,332,75868,6,8,P|260:296|336:360,1,160
216,224,76391,2,0,P|192:172|144:144,1,80,0|8,0:0|0:0,0:0:0:0:
252,112,76740,2,0,P|272:68|304:40,2,80,0|8|0,0:0|0:0|0:0,0:0:0:0:
124,216,77264,2,8,P|148:144|100:72,1,160
224,184,77787,2,2,P|244:228|276:256,1,80,2|10,0:0|0:0,0:0:0:0:
340,300,78136,1,2,0:0:0:0:
252,112,78310,1,10,0:0:0:0:
120,268,78485,1,2,0:0:0:0:
340,300,78659,6,8,P|320:208|372:144,1,160,12|8,0:0|0:0,0:0:0:0:
248,264,79182,2,0,P|212:308|176:320,1,80,0|8,0:0|0:0,0:0:0:0:
164,232,79531,2,0,P|148:172|168:136,2,80,0|8|0,0:0|0:0|0:0,0:0:0:0:
188,80,80054,2,8,P|268:112|336:64,1,160
248,184,80578,2,0,P|272:220|312:248,1,80,0|8,0:0|0:0,0:0:0:0:
352,172,80926,1,0,0:0:0:0:
258,37,81101,1,8,0:0:0:0:
160,168,81275,1,0,0:0:0:0:
352,172,81450,6,8,P|368:248|464:296,1,160
288,240,81973,2,0,P|256:200|216:184,1,80,0|8,0:0|0:0,0:0:0:0:
208,272,82322,2,0,P|184:316|184:352,2,80,0|8|0,0:0|0:0|0:0,0:0:0:0:
272,332,82845,2,0,P|312:328|352:308,1,80,12|0,0:0|0:0,0:0:0:0:
412,248,83194,2,0,P|380:200|376:164,1,80,12|0,0:0|0:0,0:0:0:0:
376,92,83542,1,12,0:0:0:0:
376,92,83630,1,0,0:0:0:0:
376,92,83717,5,0,0:0:0:0:
272,32,83891,1,12,0:0:0:0:
160,76,84066,1,0,0:0:0:0:
168,92,84153,1,0,0:0:0:0:
176,112,84240,1,12,0:0:0:0:
184,128,84327,1,0,0:0:0:0:
192,144,84414,6,0,L|276:288,1,160,4|8,0:0|0:0,0:0:0:0:
436,220,85112,2,0,L|355:81,1,160,4|8,0:0|0:0,0:0:0:0:
336,44,85548,1,2,0:0:0:0:
292,44,85635,1,2,0:0:0:0:
248,44,85723,1,2,0:0:0:0:
204,44,85810,6,0,B|140:100|140:100|140:192,1,160,4|8,0:0|0:0,0:0:0:0:
140,264,86333,2,0,L|300:264,1,160,12|8,0:0|0:0,0:0:0:0:
380,304,86856,2,0,P|385:239|315:175,1,160,4|6,0:0|0:0,0:0:0:0:
256,192,87293,12,8,88252,0:0:0:0:
256,192,88426,21,12,0:0:0:0:
