osu file format v14

[General]
AudioFilename: Have a Nice Audio o3o.mp3
AudioLeadIn: 0
PreviewTime: 60958
Countdown: 0
SampleSet: Normal
StackLeniency: 1
Mode: 1
LetterboxInBreaks: 0
WidescreenStoryboard: 0

[Editor]
DistanceSpacing: 1
BeatDivisor: 4
GridSize: 32
TimelineZoom: 1

[Metadata]
Title:Have a nice MUSIC!!(TVedit)
TitleUnicode:Have a nice MUSIC!!(TVedit)
Artist:Plasmagica
ArtistUnicode:プラズマジカ
Creator:snowball112
Version:Collab Oni
Source:SHOW BY ROCK!!
Tags:ショウ・バイ・ロック!! Okorin ending シアン Cyan 稲川英里 ChuChu チュチュ 上坂すみれ Retoree レトリー 沼倉愛美 Moa モア 佐倉綾音 ghm12
BeatmapID:989199
BeatmapSetID:461929

[Difficulty]
HPDrainRate:6
CircleSize:2
OverallDifficulty:6
ApproachRate:0
SliderMultiplier:1.4
SliderTickRate:1

[Events]
//Background and Video events
0,0,"showbyrock.jpg",0,100
//Break Periods
//Storyboard Layer 0 (Background)
//Storyboard Layer 1 (Fail)
//Storyboard Layer 2 (Pass)
//Storyboard Layer 3 (Foreground)
//Storyboard Sound Samples

[TimingPoints]
610,348.837209302326,4,1,0,80,1,0
6191,-100,4,1,0,80,0,1
17354,-100,4,1,0,80,0,0
62005,-100,4,1,0,80,0,1
84330,-100,4,1,0,80,0,0

[HitObjects]
256,192,610,5,4,0:0:0:0:
256,192,958,1,8,0:0:0:0:
256,192,1133,1,8,0:0:0:0:
256,192,1307,1,0,0:0:0:0:
256,192,1482,1,0,0:0:0:0:
256,192,1656,1,8,0:0:0:0:
256,192,2005,1,4,0:0:0:0:
256,192,2179,1,0,0:0:0:0:
256,192,2354,1,8,0:0:0:0:
256,192,2528,1,0,0:0:0:0:
256,192,2877,1,0,0:0:0:0:
256,192,3051,1,8,0:0:0:0:
256,192,3226,1,0,0:0:0:0:
256,192,3400,1,12,0:0:0:0:
256,192,3749,1,8,0:0:0:0:
256,192,3923,1,8,0:0:0:0:
256,192,4098,1,0,0:0:0:0:
256,192,4185,1,0,0:0:0:0:
256,192,4272,1,0,0:0:0:0:
256,192,4360,1,0,0:0:0:0:
256,192,4447,1,8,0:0:0:0:
256,192,4621,1,8,0:0:0:0:
256,192,4796,1,4,0:0:0:0:
256,192,5493,1,8,0:0:0:0:
256,192,5580,1,8,0:0:0:0:
256,192,5668,1,8,0:0:0:0:
256,192,5754,1,8,0:0:0:0:
256,192,5842,1,0,0:0:0:0:
256,192,6017,1,0,0:0:0:0:
256,192,6191,1,12,0:0:0:0:
256,192,6540,1,8,0:0:0:0:
256,192,6714,1,0,0:0:0:0:
256,192,6801,1,8,0:0:0:0:
256,192,6889,1,0,0:0:0:0:
256,192,7063,1,0,0:0:0:0:
256,192,7237,1,8,0:0:0:0:
256,192,7412,1,0,0:0:0:0:
256,192,7586,1,8,0:0:0:0:
256,192,7673,1,8,0:0:0:0:
256,192,7761,1,0,0:0:0:0:
256,192,7848,1,0,0:0:0:0:
256,192,7935,1,8,0:0:0:0:
256,192,8110,1,0,0:0:0:0:
256,192,8458,1,0,0:0:0:0:
256,192,8632,1,8,0:0:0:0:
256,192,8807,1,0,0:0:0:0:
256,192,8982,1,12,0:0:0:0:
256,192,9330,1,8,0:0:0:0:
256,192,9505,1,8,0:0:0:0:
256,192,9679,1,0,0:0:0:0:
256,192,9854,1,0,0:0:0:0:
256,192,9941,1,0,0:0:0:0:
256,192,10028,1,8,0:0:0:0:
256,192,10203,1,8,0:0:0:0:
256,192,10377,1,0,0:0:0:0:
256,192,10726,1,8,0:0:0:0:
256,192,10900,1,8,0:0:0:0:
256,192,10988,1,8,0:0:0:0:
256,192,11075,1,0,0:0:0:0:
256,192,11249,1,0,0:0:0:0:
256,192,11423,1,8,0:0:0:0:
256,192,11598,1,8,0:0:0:0:
256,192,11772,1,4,0:0:0:0:
256,192,12121,1,8,0:0:0:0:
256,192,12470,1,0,0:0:0:0:
256,192,12819,1,8,0:0:0:0:
256,192,13168,1,0,0:0:0:0:
256,192,13342,1,8,0:0:0:0:
256,192,13516,1,0,0:0:0:0:
256,192,13604,1,0,0:0:0:0:
256,192,13691,1,8,0:0:0:0:
256,192,13778,1,8,0:0:0:0:
256,192,13865,1,0,0:0:0:0:
256,192,14040,1,0,0:0:0:0:
256,192,14214,1,8,0:0:0:0:
256,192,14389,1,0,0:0:0:0:
256,192,14563,1,12,0:0:0:0:
256,192,14912,1,8,0:0:0:0:
256,192,15086,1,0,0:0:0:0:
256,192,15261,1,8,0:0:0:0:
256,192,15348,1,8,0:0:0:0:
256,192,15435,1,0,0:0:0:0:
256,192,15522,1,0,0:0:0:0:
256,192,15610,1,8,0:0:0:0:
256,192,15784,1,8,0:0:0:0:
256,192,15958,1,4,0:0:0:0:
256,192,16307,1,8,0:0:0:0:
256,192,16482,1,0,0:0:0:0:
256,192,16569,1,0,0:0:0:0:
256,192,16656,1,8,0:0:0:0:
256,192,16830,1,8,0:0:0:0:
256,192,16918,1,8,0:0:0:0:
256,192,17005,1,8,0:0:0:0:
256,192,17179,1,0,0:0:0:0:
256,192,17354,1,12,0:0:0:0:
256,192,17703,1,8,0:0:0:0:
256,192,18051,1,0,0:0:0:0:
256,192,18226,1,0,0:0:0:0:
256,192,18400,1,8,0:0:0:0:
256,192,18575,1,0,0:0:0:0:
256,192,18923,1,0,0:0:0:0:
256,192,19098,1,8,0:0:0:0:
256,192,19272,1,8,0:0:0:0:
256,192,19447,1,0,0:0:0:0:
256,192,19621,1,0,0:0:0:0:
256,192,19796,1,8,0:0:0:0:
256,192,19970,1,0,0:0:0:0:
256,192,20144,1,12,0:0:0:0:
256,192,20493,1,8,0:0:0:0:
256,192,20842,1,0,0:0:0:0:
256,192,21016,1,0,0:0:0:0:
256,192,21191,1,8,0:0:0:0:
256,192,21365,1,0,0:0:0:0:
256,192,21714,1,0,0:0:0:0:
256,192,21889,1,8,0:0:0:0:
256,192,22063,1,8,0:0:0:0:
256,192,22237,1,0,0:0:0:0:
256,192,22412,1,0,0:0:0:0:
256,192,22586,1,8,0:0:0:0:
256,192,22673,1,8,0:0:0:0:
192,224,22761,1,0,0:0:0:0:
256,192,22935,1,12,0:0:0:0:
256,192,23284,1,8,0:0:0:0:
256,192,23633,1,0,0:0:0:0:
256,192,23807,1,0,0:0:0:0:
256,192,23982,1,8,0:0:0:0:
256,192,24156,1,0,0:0:0:0:
256,192,24330,1,12,0:0:0:0:
256,192,24679,1,8,0:0:0:0:
256,192,24854,1,8,0:0:0:0:
256,192,25028,1,0,0:0:0:0:
256,192,25203,1,0,0:0:0:0:
256,192,25377,1,8,0:0:0:0:
256,192,25551,1,0,0:0:0:0:
256,192,25726,1,12,0:0:0:0:
256,192,26075,1,8,0:0:0:0:
256,192,26423,1,0,0:0:0:0:
256,192,26598,1,0,0:0:0:0:
256,192,26772,1,8,0:0:0:0:
256,192,26947,1,4,0:0:0:0:
256,192,27296,1,0,0:0:0:0:
256,192,27470,1,0,0:0:0:0:
256,192,27644,1,8,0:0:0:0:
256,192,27819,1,8,0:0:0:0:
256,192,27906,1,8,0:0:0:0:
256,192,27993,1,8,0:0:0:0:
256,192,28080,1,8,0:0:0:0:
256,192,28168,1,0,0:0:0:0:
256,192,28342,1,0,0:0:0:0:
256,192,28516,1,12,0:0:0:0:
256,192,28865,1,8,0:0:0:0:
256,192,29214,1,0,0:0:0:0:
256,192,29389,1,0,0:0:0:0:
256,192,29563,1,8,0:0:0:0:
256,192,29737,1,0,0:0:0:0:
256,192,29912,1,0,0:0:0:0:
256,192,30261,1,8,0:0:0:0:
256,192,30610,1,0,0:0:0:0:
256,192,30784,1,0,0:0:0:0:
256,192,30958,1,8,0:0:0:0:
256,192,31307,1,0,0:0:0:0:
256,192,31656,1,8,0:0:0:0:
256,192,31830,1,0,0:0:0:0:
256,192,32005,1,0,0:0:0:0:
256,192,32179,1,0,0:0:0:0:
256,192,32354,1,8,0:0:0:0:
256,192,32703,1,0,0:0:0:0:
256,192,33051,1,8,0:0:0:0:
256,192,33400,1,0,0:0:0:0:
256,192,33575,1,0,0:0:0:0:
256,192,33662,1,0,0:0:0:0:
256,192,33749,1,8,0:0:0:0:
256,192,33923,1,8,0:0:0:0:
256,192,34098,1,4,0:0:0:0:
256,192,34447,1,8,0:0:0:0:
256,192,34621,1,0,0:0:0:0:
256,192,34796,1,8,0:0:0:0:
256,192,35144,1,0,0:0:0:0:
256,192,35319,1,8,0:0:0:0:
256,192,35493,1,8,0:0:0:0:
256,192,35842,1,8,0:0:0:0:
256,192,36016,1,0,0:0:0:0:
256,192,36365,1,0,0:0:0:0:
256,192,36540,1,8,0:0:0:0:
256,192,36714,1,8,0:0:0:0:
256,192,36889,1,4,0:0:0:0:
256,192,37237,1,8,0:0:0:0:
256,192,37412,1,0,0:0:0:0:
256,192,37586,1,0,0:0:0:0:
256,192,37935,1,8,0:0:0:0:
256,192,38110,1,0,0:0:0:0:
256,192,38284,1,0,0:0:0:0:
256,192,38458,1,0,0:0:0:0:
256,192,38546,1,0,0:0:0:0:
256,192,38633,1,8,0:0:0:0:
256,192,38807,1,0,0:0:0:0:
256,192,38982,1,8,0:0:0:0:
256,192,39156,1,8,0:0:0:0:
256,192,39243,1,8,0:0:0:0:
256,192,39330,1,0,0:0:0:0:
256,192,39505,1,8,0:0:0:0:
256,192,39679,1,4,0:0:0:0:
256,192,40028,1,8,0:0:0:0:
256,192,40203,1,0,0:0:0:0:
256,192,40377,1,0,0:0:0:0:
256,192,40551,1,0,0:0:0:0:
256,192,40726,1,8,0:0:0:0:
256,192,40900,1,0,0:0:0:0:
256,192,41075,1,0,0:0:0:0:
256,192,41423,1,8,0:0:0:0:
256,192,41772,1,0,0:0:0:0:
256,192,41947,1,0,0:0:0:0:
256,192,42121,1,8,0:0:0:0:
256,192,42296,1,0,0:0:0:0:
256,192,42470,1,0,0:0:0:0:
256,192,42819,1,8,0:0:0:0:
256,192,42993,1,0,0:0:0:0:
256,192,43168,1,0,0:0:0:0:
256,192,43342,1,0,0:0:0:0:
256,192,43516,1,8,0:0:0:0:
256,192,43691,1,0,0:0:0:0:
256,192,43865,1,0,0:0:0:0:
256,192,44214,1,8,0:0:0:0:
256,192,44563,1,0,0:0:0:0:
256,192,44737,1,0,0:0:0:0:
256,192,44825,1,0,0:0:0:0:
256,192,44912,1,8,0:0:0:0:
256,192,45086,1,8,0:0:0:0:
256,192,45261,1,4,0:0:0:0:
256,192,45610,5,0,0:0:0:0:
256,192,45784,1,0,0:0:0:0:
256,192,45958,5,8,0:0:0:0:
256,192,46307,1,8,0:0:0:0:
256,192,46482,1,8,0:0:0:0:
256,192,46656,5,0,0:0:0:0:
256,192,47005,1,0,0:0:0:0:
256,192,47179,5,8,0:0:0:0:
256,192,47528,5,0,0:0:0:0:
256,192,47703,5,8,0:0:0:0:
256,192,47877,5,0,0:0:0:0:
256,192,48051,5,12,0:0:0:0:
256,192,48226,1,8,0:0:0:0:
256,192,48400,1,8,0:0:0:0:
256,192,48749,5,0,0:0:0:0:
256,192,48923,1,0,0:0:0:0:
256,192,49098,5,8,0:0:0:0:
256,192,49447,1,8,0:0:0:0:
256,192,49621,5,0,0:0:0:0:
256,192,49708,5,8,0:0:0:0:
256,192,49796,5,0,0:0:0:0:
256,192,49970,5,8,0:0:0:0:
256,192,50144,1,8,0:0:0:0:
256,192,50319,5,0,0:0:0:0:
256,192,50406,1,0,0:0:0:0:
256,192,50493,1,8,0:0:0:0:
256,192,50842,5,12,0:0:0:0:
256,192,51191,5,0,0:0:0:0:
256,192,51365,5,8,0:0:0:0:
256,192,51540,5,0,0:0:0:0:
256,192,51714,1,0,0:0:0:0:
256,192,51889,5,8,0:0:0:0:
256,192,52237,1,8,0:0:0:0:
256,192,52586,5,0,0:0:0:0:
256,192,52761,1,0,0:0:0:0:
256,192,52935,5,8,0:0:0:0:
256,192,53110,5,0,0:0:0:0:
256,192,53284,5,8,0:0:0:0:
256,192,53633,1,8,0:0:0:0:
256,192,53982,1,8,0:0:0:0:
256,192,54156,5,0,0:0:0:0:
256,192,54330,1,0,0:0:0:0:
256,192,54505,1,0,0:0:0:0:
256,192,54679,5,8,0:0:0:0:
256,192,55028,1,8,0:0:0:0:
256,192,55377,5,0,0:0:0:0:
256,192,55551,5,8,0:0:0:0:
256,192,55726,1,8,0:0:0:0:
256,192,55900,5,0,0:0:0:0:
256,192,56075,5,8,0:0:0:0:
256,192,56423,1,12,0:0:0:0:
256,192,56772,5,0,0:0:0:0:
256,192,56947,5,12,0:0:0:0:
256,192,57296,5,0,0:0:0:0:
256,192,57471,5,12,0:0:0:0:
256,192,57819,5,0,0:0:0:0:
256,192,57994,5,12,0:0:0:0:
256,192,58342,5,0,0:0:0:0:
256,192,58517,5,8,0:0:0:0:
256,192,58691,5,0,0:0:0:0:
256,192,58865,1,0,0:0:0:0:
256,192,59040,5,8,0:0:0:0:
256,192,59214,1,12,0:0:0:0:
256,192,59563,5,8,0:0:0:0:
256,192,59737,1,8,0:0:0:0:
256,192,59912,5,0,0:0:0:0:
256,192,60086,5,8,0:0:0:0:
256,192,60260,1,8,0:0:0:0:
256,192,60435,5,0,0:0:0:0:
256,192,60610,5,4,0:0:0:0:
256,192,60958,1,8,0:0:0:0:
256,192,61307,5,8,0:0:0:0:
256,192,61394,1,8,0:0:0:0:
256,192,61482,5,0,0:0:0:0:
256,192,61569,1,0,0:0:0:0:
256,192,61656,5,8,0:0:0:0:
256,192,61831,5,0,0:0:0:0:
256,192,62005,5,12,0:0:0:0:
256,192,62179,5,0,0:0:0:0:
256,192,62354,5,8,0:0:0:0:
256,192,62528,5,0,0:0:0:0:
256,192,62615,5,8,0:0:0:0:
256,192,62703,5,0,0:0:0:0:
256,192,62877,1,0,0:0:0:0:
256,192,63051,5,8,0:0:0:0:
256,192,63226,5,0,0:0:0:0:
256,192,63400,1,8,0:0:0:0:
256,192,63487,5,8,0:0:0:0:
256,192,63575,5,0,0:0:0:0:
256,192,63662,1,0,0:0:0:0:
256,192,63749,5,8,0:0:0:0:
256,192,63923,1,8,0:0:0:0:
256,192,64272,5,8,0:0:0:0:
256,192,64360,1,8,0:0:0:0:
256,192,64447,5,0,0:0:0:0:
256,192,64621,5,0,0:0:0:0:
256,192,64796,5,12,0:0:0:0:
256,192,64970,5,0,0:0:0:0:
256,192,65144,5,8,0:0:0:0:
256,192,65319,1,8,0:0:0:0:
256,192,65406,1,8,0:0:0:0:
256,192,65493,5,0,0:0:0:0:
256,192,65668,1,0,0:0:0:0:
256,192,65842,5,8,0:0:0:0:
256,192,66016,5,0,0:0:0:0:
256,192,66104,1,0,0:0:0:0:
256,192,66191,5,8,0:0:0:0:
256,192,66365,5,0,0:0:0:0:
256,192,66540,5,8,0:0:0:0:
256,192,66627,5,8,0:0:0:0:
256,192,66714,1,0,0:0:0:0:
256,192,67063,5,8,0:0:0:0:
256,192,67238,1,8,0:0:0:0:
256,192,67412,5,0,0:0:0:0:
256,192,67586,5,12,0:0:0:0:
256,192,67935,1,8,0:0:0:0:
256,192,68110,5,0,0:0:0:0:
256,192,68284,5,8,0:0:0:0:
256,192,68633,1,8,0:0:0:0:
256,192,68807,5,0,0:0:0:0:
256,192,68982,5,8,0:0:0:0:
256,192,69156,5,0,0:0:0:0:
256,192,69330,5,8,0:0:0:0:
256,192,69505,1,8,0:0:0:0:
256,192,69854,1,8,0:0:0:0:
256,192,70029,1,8,0:0:0:0:
256,192,70203,5,0,0:0:0:0:
256,192,70377,5,8,0:0:0:0:
256,192,70551,5,0,0:0:0:0:
256,192,70726,5,12,0:0:0:0:
256,192,71075,5,8,0:0:0:0:
256,192,71249,1,0,0:0:0:0:
256,192,71423,5,12,0:0:0:0:
256,192,71772,5,0,0:0:0:0:
256,192,71946,1,0,0:0:0:0:
256,192,72120,5,12,0:0:0:0:
256,192,72470,5,0,0:0:0:0:
256,192,72644,5,8,0:0:0:0:
256,192,72732,5,0,0:0:0:0:
256,192,72819,5,8,0:0:0:0:
256,192,72993,5,0,0:0:0:0:
256,192,73168,5,12,0:0:0:0:
256,192,73342,5,0,0:0:0:0:
256,192,73516,5,8,0:0:0:0:
256,192,73691,5,0,0:0:0:0:
256,192,73778,1,8,0:0:0:0:
256,192,73865,5,0,0:0:0:0:
256,192,74040,5,0,0:0:0:0:
256,192,74127,1,0,0:0:0:0:
256,192,74214,5,8,0:0:0:0:
256,192,74389,5,0,0:0:0:0:
256,192,74563,5,8,0:0:0:0:
256,192,74650,1,8,0:0:0:0:
256,192,74737,5,0,0:0:0:0:
256,192,74825,1,0,0:0:0:0:
256,192,74912,5,8,0:0:0:0:
256,192,75086,1,8,0:0:0:0:
256,192,75435,1,8,0:0:0:0:
256,192,75522,1,0,0:0:0:0:
256,192,75610,1,8,0:0:0:0:
256,192,75784,1,0,0:0:0:0:
256,192,75958,5,12,0:0:0:0:
256,192,76133,5,0,0:0:0:0:
256,192,76307,5,8,0:0:0:0:
256,192,76482,5,0,0:0:0:0:
256,192,76569,5,8,0:0:0:0:
256,192,76656,5,0,0:0:0:0:
256,192,76830,1,0,0:0:0:0:
256,192,77005,5,8,0:0:0:0:
256,192,77179,5,0,0:0:0:0:
256,192,77266,1,0,0:0:0:0:
256,192,77354,5,8,0:0:0:0:
256,192,77528,5,0,0:0:0:0:
256,192,77703,5,8,0:0:0:0:
256,192,77877,5,0,0:0:0:0:
256,192,78226,1,0,0:0:0:0:
256,192,78313,1,0,0:0:0:0:
256,192,78400,5,8,0:0:0:0:
256,192,78575,1,8,0:0:0:0:
256,192,78749,5,4,0:0:0:0:
256,192,79098,5,8,0:0:0:0:
256,192,79447,5,0,0:0:0:0:
256,192,79796,5,8,0:0:0:0:
256,192,80144,5,0,0:0:0:0:
256,192,80319,5,8,0:0:0:0:
256,192,80493,5,0,0:0:0:0:
256,192,80668,5,8,0:0:0:0:
256,192,80755,1,8,0:0:0:0:
256,192,80842,1,8,0:0:0:0:
256,192,81016,5,0,0:0:0:0:
256,192,81191,5,8,0:0:0:0:
256,192,81365,5,0,0:0:0:0:
256,192,81540,5,12,0:0:0:0:
256,192,81714,5,0,0:0:0:0:
256,192,81889,5,8,0:0:0:0:
256,192,82063,5,0,0:0:0:0:
256,192,82237,5,8,0:0:0:0:
256,192,82325,1,8,0:0:0:0:
256,192,82412,5,0,0:0:0:0:
256,192,82499,1,0,0:0:0:0:
256,192,82586,5,8,0:0:0:0:
256,192,82761,5,0,0:0:0:0:
256,192,82935,5,12,0:0:0:0:
256,192,83110,5,0,0:0:0:0:
256,192,83284,5,8,0:0:0:0:
256,192,83458,5,0,0:0:0:0:
256,192,83546,1,0,0:0:0:0:
256,192,83633,5,8,0:0:0:0:
256,192,83807,5,8,0:0:0:0:
256,192,83894,1,8,0:0:0:0:
256,192,83982,1,8,0:0:0:0:
256,192,84156,1,0,0:0:0:0:
256,192,84330,1,12,0:0:0:0:
256,192,84679,1,8,0:0:0:0:
256,192,85028,5,0,0:0:0:0:
256,192,85203,1,8,0:0:0:0:
256,192,85551,5,8,0:0:0:0:
256,192,85726,1,4,0:0:0:0:
256,192,85900,1,0,0:0:0:0:
256,192,86075,1,8,0:0:0:0:
256,192,86249,1,0,0:0:0:0:
256,192,86423,5,8,0:0:0:0:
256,192,86598,1,8,0:0:0:0:
256,192,86772,5,0,0:0:0:0:
256,192,86947,1,0,0:0:0:0:
256,192,87121,5,12,0:0:0:0:
256,192,87470,1,8,0:0:0:0:
256,192,87819,5,8,0:0:0:0:
256,192,87993,1,0,0:0:0:0:
256,192,88168,5,8,0:0:0:0:
256,192,88342,1,4,0:0:0:0:
