osu file format v9

[General]
AudioFilename: 02. SuperSonic - Planetboom.mp3
AudioLeadIn: 0
PreviewTime: 54885
Countdown: 0
SampleSet: Normal
StackLeniency: 0.7
Mode: 0
LetterboxInBreaks: 0

[Editor]
Bookmarks: 79501,97962,146231
DistanceSpacing: 0.8
BeatDivisor: 4
GridSize: 8

[Metadata]
Title:SuperSonic (Full Ver.)
Artist:Planetboom
Creator:Arusha Shuna
Version:NM
Source:S4 League
Tags:dj max

[Difficulty]
HPDrainRate:2
CircleSize:3
OverallDifficulty:2
ApproachRate:3
SliderMultiplier:1.4
SliderTickRate:1

[Events]
//Background and Video events
0,0,"NM.jpg"
//Break Periods
2,79703,96524
2,141241,145755
//Storyboard Layer 0 (Background)
//Storyboard Layer 1 (Fail)
//Storyboard Layer 2 (Pass)
//Storyboard Layer 3 (Foreground)
//Storyboard Sound Samples
//Background Colour Transformations
3,100,163,162,255

[TimingPoints]
5657,384.615384615385,4,1,1,70,1,0
54885,-100,4,1,1,70,0,1
79501,-100,4,1,1,70,0,0
122665,-100,4,2,0,100,0,0
123635,-100,4,1,1,70,0,0
125751,-100,4,2,0,100,0,0
126712,-100,4,1,1,70,0,0
147193,-100,4,1,1,70,0,1
184116,-100,4,1,1,70,0,0
192385,-100,4,1,1,0,0,0

[Colours]
Combo1 : 74,67,163
Combo2 : 242,230,140
Combo3 : 254,173,101
Combo4 : 141,159,245

[HitObjects]
177,191,5657,6,0,B|140:260,1,70,4|0
256,270,6233,2,0,B|256:348,1,70
335,191,6810,2,0,B|376:256,1,70
256,110,7387,5,0
186,265,7964,2,0,B|338:265,1,140
392,168,8733,5,0
312,88,9118,1,0
199,88,9503,1,0
119,167,9887,1,0
198,246,10272,1,0
310,246,10657,1,0
389,325,11041,2,0,B|464:328,1,70
424,160,11810,6,0,B|472:128|456:48|392:56,1,140,0|8
312,128,12580,1,0
240,216,12964,1,8
144,272,13349,6,0,B|96:240|96:184|144:152,2,140,0|8|0
240,328,14503,1,8
352,328,14887,6,0,B|432:192,1,140,0|8
424,96,15657,1,0
424,96,16041,1,8
312,96,16426,6,0,B|232:232,1,140,0|8
240,328,17195,1,0
240,328,17580,1,8
144,272,17964,6,0,B|96:272|72:256|67:190|96:168|136:168|136:168|176:168|208:136|200:88,1,280
201,100,19118,1,8
310,101,19503,6,0,B|304:136|336:168|376:168|376:168|416:168|445:190|440:256|416:272|368:272,1,280
371,272,20657,1,8
256,272,21041,6,0,B|288:352|368:360,2,140,0|8|0
176,192,22195,1,8
256,112,22580,6,0,B|224:32|144:24,2,140,0|8|0
256,112,23734,1,8
346,48,24118,6,0,B|392:48|456:80|448:128|456:176|400:216|343:215,1,280
272,128,25272,1,8
169,174,25657,2,0,B|123:173|59:205|67:253|59:301|115:341|173:341,1,280
240,256,26810,1,8
296,160,27195,6,0,B|320:32|464:40,2,210,0|0|8
216,224,28733,2,0,B|192:352|48:344,2,210,0|0|8
184,120,30272,5,0
184,120,30657,1,8
272,48,31041,2,0,B|320:120|272:184,1,140,0|8
296,288,31810,5,0
296,288,32195,1,8
208,360,32580,2,0,B|152:288|216:208,2,140,0|8|0
296,288,33733,6,0,B|352:160,1,140,8|0
296,64,34503,2,0,B|240:192,1,140,8|0
128,192,35272,1,8
40,128,35657,2,0,B|88:56|192:64|240:120|240:200,1,280,8|4
272,304,36810,6,0,B|320:336|384:328|408:272,2,140,8|0|8
328,208,37964,2,0,B|296:88|168:80,2,210,0|0|8
216,184,39503,6,0,B|176:320,1,140,0|8
104,232,40272,1,0
120,120,40657,1,8
216,184,41041,2,0,B|424:184,2,210,0|0|8
272,280,42580,6,0,B|408:352,2,140,4|8|0
216,184,43733,1,8
272,88,44118,2,0,B|408:16,2,140,0|8|0
216,184,45271,1,8
144,104,45657,6,0,B|64:136|64:248|176:280,2,210,0|0|8
208,192,47195,2,0,B|280:208|280:328|208:355,2,210,0|0|8
256,88,48733,5,0
368,88,49118,1,8
447,167,49503,1,0
447,278,49887,1,8
344,224,50272,6,0,B|200:224,1,140,0|8
64,224,51041,2,0,B|208:224,1,140,0|8
124,144,51810,5,0
204,64,52195,1,8
284,144,52580,1,0
204,224,52964,1,8
280,304,53349,6,0,B|432:304,2,140,0|8|0
152,128,54887,6,0,B|160:48|256:32|352:40|362:153,1,280,4|0
336,232,56041,1,8
256,312,56426,1,0
176,232,56811,1,8
256,152,57195,1,0
256,40,57580,1,8
160,96,57964,6,0,B|72:184|72:184|72:352,1,280
176,288,59118,1,8
256,208,59503,1,0
336,288,59887,1,8
440,339,60272,2,0,B|440:184|440:184|352:96,1,280,8|4
256,128,61426,6,0,B|200:72|200:72|128:72,2,140,8|0|8
256,256,62580,2,0,B|312:312|312:312|384:312,2,140,0|8|0
360,192,63733,1,8
336,80,64118,6,0,B|416:80|480:128|480:224|424:288,2,280
256,160,66041,1,8
256,272,66426,1,0
160,216,66810,1,8
160,104,67195,6,0,B|64:112|16:200|48:288|128:320,2,280,4|0|0
160,216,69118,2,0,B|224:208|248:184|272:112,2,140,8|0|8
264,280,70272,6,0,B|368:320|456:192|384:112,1,280
304,32,71426,1,8
232,120,71810,1,0
232,232,72195,1,8
160,320,72580,1,0
88,232,72964,1,8
160,136,73349,6,0,B|96:128|72:72|112:8,2,140,4|8|0
256,192,74503,1,8
352,248,74887,2,0,B|416:256|440:312|400:376,2,140,0|8|0
256,192,76041,1,8
144,184,76426,6,0,B|136:280|208:320|304:320|336:264,2,280
56,120,78349,1,8
160,72,78733,1,8
256,128,79118,1,0
256,240,79503,1,4
88,144,97964,5,0
168,64,98349,1,8
248,144,98733,2,0,B|248:232|160:264,1,140,0|8
264,328,99503,5,0
352,256,99887,1,8
368,144,100272,2,0,B|368:64|288:40,1,140,0|8
272,155,101041,6,0,B|272:235|192:264,2,140,0|8|0
184,88,102195,1,8
80,48,102580,6,0,B|48:112|96:176|136:184,1,140,0|8
224,200,103349,2,0,B|224:256|256:296|320:304,1,140,0|8
416,320,104118,5,0
416,208,104503,1,8
304,224,104887,2,0,B|256:72,1,140,0|8
152,56,105657,5,0
72,128,106041,1,8
152,208,106426,1,0
72,288,106810,1,8
152,360,107195,5,0
232,288,107580,1,8
312,208,107964,2,0,B|312:56,1,140,0|8
400,136,108733,6,0,B|456:136|488:168|488:224,1,140,0|8
487,334,109503,2,8,B|431:334|399:294|399:230,1,140,0|8
312,320,110272,5,4
200,320,110657,1,8
256,224,111041,1,0
192,136,111426,2,0,B|232:96|288:96|336:152,2,140
256,224,112580,1,0
256,224,112964,1,0
160,176,113349,6,0,B|96:144|136:80|80:64,2,140,0|8|0
256,120,114503,1,8
352,176,114887,2,0,B|416:144|376:80|432:64,2,140,0|8|0
256,240,116041,1,8
216,136,116426,6,0,B|176:48|96:176|32:48,2,210,0|0|8
296,248,117964,2,0,B|336:336|416:208|480:336,2,210,0|0|8
280,136,119503,5,0
384,88,119887,1,8
472,160,120272,1,0
448,272,120657,1,8
365,197,121041,6,0,B|245:293,1,140,0|8
140,205,121810,2,0,B|268:293,1,140,0|8
256,64,122964,5,0
256,64,123349,1,0
256,64,123733,2,0,B|256:160,1,70,8|0
152,264,124503,5,8
256,296,124887,1,0
360,256,125272,2,0,B|432:256,1,70,8|0
408,88,126041,5,0
408,88,126426,1,0
408,88,126810,2,0,B|312:88,1,70,8|0
216,200,127580,5,0
192,88,127964,2,0,B|92:130|80:204|112:277|178:306,1,280,8|4
216,200,129118,6,8,B|496:256,1,280
432,160,130272,2,0,B|336:104|408:0|488:40,2,210,0|0|8
320,168,131810,6,0,B|384:216|344:328|232:304,2,210,0|0|8
224,80,133349,2,0,B|64:80,1,140,0|8
84,192,134118,2,0,B|236:192,1,140,0|8
320,128,134887,6,0,B|416:136|448:224|384:304,2,210,4|0|8
296,240,136426,1,0
296,240,136810,1,8
264,344,137195,2,0,B|160:328|120:184|256:136,1,280
304,48,138349,6,0,B|216:8|152:80,2,140,8|0|8
240,144,139503,2,0,B|200:208|88:216|40:152,2,210,0|0|8
240,144,141041,1,4
368,80,147195,6,0,B|464:144|400:296|272:272,2,280,4|0|0
296,160,149118,2,0,B|208:152|192:232,2,140,8|0|8
360,256,150272,6,0,B|357:338|256:352|157:346|150:231,1,280
176,152,151426,1,8
256,72,151811,1,0
336,152,152196,1,8
256,232,152580,1,0
256,344,152965,1,8
352,288,153349,6,0,B|440:200|440:200|440:32,1,280,4|0
336,96,154503,1,8
256,176,154888,1,0
176,96,155272,1,8
72,45,155657,2,0,B|72:200|72:200|160:288,1,280
256,256,156811,6,0,B|312:312|312:312|384:312,2,140,8|0|8
256,128,157965,2,0,B|200:72|200:72|128:72,2,140,0|8|8
152,192,159118,1,0
176,304,159503,6,0,B|96:304|32:256|32:160|88:96,2,280,4|0|0
256,224,161426,1,8
256,112,161811,1,0
352,168,162195,1,8
352,280,162580,6,0,B|448:272|496:184|464:96|384:64,2,280
352,168,164503,2,0,B|288:168|248:208|240:272,2,140,8|0|8
248,104,165657,6,0,B|144:64|56:192|128:272,1,280,4|0
208,352,166811,1,8
280,264,167195,1,0
280,152,167580,1,8
352,64,167965,1,0
424,152,168349,1,8
352,248,168734,6,0,B|416:256|440:312|400:376,2,140,0|8|0
256,192,169888,1,8
160,136,170272,2,0,B|96:128|72:72|112:8,2,140,0|8|8
256,192,171426,1,0
368,176,171810,6,0,B|344:80|256:64|192:104,2,210,4|0|8
472,136,173349,1,0
456,248,173733,1,8
352,280,174118,1,0
264,216,174503,1,8
152,232,174887,6,0,B|176:328|264:344|328:304,2,210,4|0|8
48,272,176426,1,0
64,160,176810,1,8
168,120,177195,1,0
256,192,177580,1,8
344,120,177964,6,0,B|384:80|440:80|480:136,3,140,4|8|0|8
408,216,179503,2,0,B|408:360,2,140,0|8|0
320,280,180657,1,8
232,216,181041,6,0,B|280:120|208:56|112:80,2,210,4|0|8
120,192,182580,2,0,B|80:280|160:360|240:336,2,210,0|0|8
256,192,184118,12,4,185657
184,208,186233,6,0,B|144:136,1,70
328,208,186810,6,0,B|368:144,1,70
256,280,187387,5,0
256,112,187964,1,0
256,112,188348,1,0
192,200,188733,6,0,B|232:240|280:240|324:191,3,140
368,304,190272,1,0
256,336,190657,1,0
144,304,191041,1,0
256,192,191233,12,0,192387
