osu file format v9

[General]
AudioFilename: 02. SuperSonic - Planetboom.mp3
AudioLeadIn: 0
PreviewTime: 54885
Countdown: 0
SampleSet: Normal
StackLeniency: 0.9
Mode: 0
LetterboxInBreaks: 0

[Editor]
Bookmarks: 79501,97962,146231,57351
DistanceSpacing: 1
BeatDivisor: 4
GridSize: 8

[Metadata]
Title:SuperSonic (Full Ver.)
Artist:Planetboom
Creator:Arusha Shuna
Version:MX
Source:S4 League
Tags:dj max

[Difficulty]
HPDrainRate:7
CircleSize:4
OverallDifficulty:7
ApproachRate:8
SliderMultiplier:2.4
SliderTickRate:0.5

[Events]
//Background and Video events
0,0,"MX.jpg"
//Break Periods
2,79703,97214
2,141241,145676
//Storyboard Layer 0 (Background)
//Storyboard Layer 1 (Fail)
//Storyboard Layer 2 (Pass)
//Storyboard Layer 3 (Foreground)
//Storyboard Sound Samples
//Background Colour Transformations
3,100,163,162,255

[TimingPoints]
5657,384.615384615385,4,1,1,70,1,0
54308,-200,4,1,1,70,0,0
54885,-100,4,1,1,70,0,1
79501,-100,4,1,1,70,0,0
122665,-100,4,2,0,100,0,0
123635,-100,4,1,1,70,0,0
125751,-100,4,2,0,100,0,0
126712,-100,4,1,1,70,0,0
127962,-200,4,1,1,70,0,0
128731,-100,4,1,1,70,0,0
147193,-100,4,1,1,70,0,1
184116,-100,4,1,1,70,0,0
192385,-100,4,1,1,0,0,0

[Colours]
Combo1 : 217,74,38
Combo2 : 255,240,51
Combo3 : 244,0,0
Combo4 : 236,118,47

[HitObjects]
248,88,5657,5,4
65,88,5849,1,0
257,200,6233,5,0
121,320,6426,1,0
384,184,6810,5,0
384,352,7003,1,0
384,64,7387,5,0
144,184,7964,6,0,B|104:48,1,120
368,200,8349,2,0,B|408:336,1,120
302,263,8733,5,0
183,246,8926,1,0
85,313,9118,1,0
183,246,9310,5,0
200,127,9503,1,0
133,29,9695,1,0
200,127,9887,5,0
319,144,10080,1,0
417,77,10272,1,0
319,144,10464,5,0
302,263,10657,1,0
369,361,10849,1,0
302,263,11041,1,0
409,198,11233,6,0,B|336:112|192:120|136:240|211:361,1,360,4|4
72,104,12195,6,0,B|152:56|208:136,1,120,8|0
216,224,12580,1,0
304,304,12772,1,0
416,256,12964,2,0,B|480:216|440:144,1,120,8|0
352,80,13349,6,0,B|224:40,1,120
160,304,13733,2,0,B|288:344,1,120,8|0
360,272,14118,5,0
320,160,14310,1,0
216,224,14503,1,8
168,112,14695,1,0
80,192,14887,5,0
80,192,15080,1,0
88,312,15272,2,0,B|171:314|200:216,1,120,8|0
200,136,15656,2,0,B|256:96|328:144,1,120
327,253,16041,2,0,B|344:312|424:312,1,120,8|0
424,192,16426,1,0
424,192,16618,1,0
360,88,16810,5,8
256,32,17003,1,0
152,88,17195,1,0
208,192,17387,2,0,B|200:264|144:288,1,120,0|8
304,192,17772,2,0,B|312:264|368:288,1,120
416,192,18157,5,0
96,192,18349,1,8
112,336,18541,5,0
200,256,18733,1,0
256,152,18926,1,0
312,256,19118,1,8
400,336,19310,1,0
400,216,19503,6,0,B|344:176|368:96,1,120
147,109,19887,2,0,B|168:176|112:216,1,120,8|0
168,320,20272,5,0
256,240,20464,1,0
344,320,20657,1,8
256,240,20849,1,0
192,136,21041,6,0,B|120:128|96:48,2,120,0|0|8
320,248,21618,2,0,B|392:256|416:336,2,120
224,312,22195,1,8
288,72,22387,1,0
144,232,22580,6,0,B|392:144,1,240,0|8
288,72,23157,1,0
224,312,23349,1,0
344,280,23541,5,0
256,192,23733,1,8
176,104,23926,1,0
96,192,24118,5,0
88,248,24214,1,0
128,288,24310,1,0
246,315,24503,2,0,B|334:299|302:211,1,120,8|0
280,184,24791,2,0,B|240:104|352:48|400:96,1,180
424,120,25176,1,0
448,176,25272,2,0,B|472:256|376:296,2,120,8|0|0
328,192,25849,5,0
216,240,26041,1,8
224,120,26233,1,0
120,56,26426,1,0
80,96,26522,1,0
112,144,26618,2,0,B|136:216|96:264,2,120,0|8|0
224,104,27195,5,0
272,72,27291,1,0
328,64,27387,1,0
384,80,27483,1,0
416,128,27580,2,0,B|456:184|408:240|360:240,1,120,8|0
376,288,27868,2,0,B|392:208|328:152|232:200,1,180
216,208,28253,1,0
192,264,28349,2,0,B|216:336|152:384,2,120,8|0|0
200,112,28926,5,0
359,245,29118,1,8
160,318,29310,1,0
238,226,29503,5,0
274,184,29599,1,0
310,141,29695,2,0,B|391:43,2,120,0|8|0
238,226,30272,6,0,B|156:323,2,120,0|0|8
136,168,30849,1,0
160,112,30945,1,0
216,88,31041,1,0
272,96,31137,1,0
312,144,31233,1,0
305,198,31330,2,0,B|246:244|286:340|387:328,1,180
408,320,31714,5,0
448,272,31810,1,0
448,208,31907,1,0
407,162,32003,1,0
347,158,32099,1,0
296,184,32195,2,0,B|240:232|136:216,1,120,8|0
72,168,32580,2,0,B|48:88|144:48,1,120
144,16,32868,2,0,B|96:88|184:168|248:144,1,180
215,147,33349,1,0
320,208,33541,5,0
424,144,33733,1,8
320,88,33926,1,0
264,64,34022,1,0
216,96,34118,1,0
232,152,34214,1,0
224,208,34310,1,0
179,246,34407,2,0,B|112:304|16:224|96:136,1,180
88,56,34887,5,0
208,32,35080,1,0
264,56,35176,1,0
280,112,35272,1,8
384,176,35464,1,0
296,256,35657,2,8,B|224:304,1,60
246,289,35849,1,0
246,289,35945,1,0
246,289,36041,1,0
246,289,36137,1,0
246,289,36233,1,0
246,289,36330,1,0
246,289,36426,5,4
128,288,36618,1,0
56,192,36810,1,8
56,192,37003,1,0
256,64,37387,5,0
256,64,37580,1,8
256,64,37772,1,0
368,104,37964,6,0,B|408:168|344:224,1,120
355,213,38349,1,8
355,213,38541,1,0
256,328,38733,2,0,B|256:208,1,120
144,104,39118,2,0,B|104:168|168:224,1,120,8|0
360,328,39503,6,0,B|288:216,1,120
208,144,39887,1,8
160,32,40080,1,0
80,120,40272,2,0,B|24:192,2,60
128,232,40657,1,8
128,232,40849,1,0
152,328,41041,6,0,B|224:216,1,120
304,144,41426,1,8
352,32,41618,1,0
432,120,41810,2,0,B|488:192,2,60
384,232,42195,1,12
384,232,42387,1,0
328,336,42580,6,0,B|248:296|272:216,1,120,4|0
184,48,42964,2,0,B|264:88|240:168,1,120,8|0
160,224,43349,1,0
144,232,43445,1,0
128,240,43541,1,0
16,208,43733,1,8
128,352,43926,1,0
248,328,44118,6,0,B|328:192,1,120
264,56,44503,2,0,B|184:192,1,120,8|0
320,144,44887,1,0
360,256,45080,1,0
448,176,45272,2,0,B|448:48,1,120,8|0
336,88,45656,5,0
256,176,45849,2,0,B|112:176,1,120,0|8
200,72,46233,1,0
200,272,46426,2,0,B|200:368,2,60
200,272,46810,1,8
200,272,47003,1,0
288,312,47195,5,0
120,312,47387,1,0
312,232,47580,1,8
96,232,47772,1,0
248,168,47964,2,0,B|256:104|256:104|328:56,1,120
160,168,48349,2,0,B|152:104|152:104|80:56,1,120,8|0
202,239,48733,1,4
304,304,48926,5,0
424,288,49118,1,8
352,192,49310,1,0
472,176,49503,1,0
400,80,49695,1,0
279,97,49887,2,0,B|367:209,1,120,8|0
208,304,50464,5,0
148,297,50560,1,0
88,288,50656,1,8
160,192,50849,1,0
40,176,51041,1,0
112,80,51233,1,0
233,97,51426,2,0,B|145:209,1,120,8|0
384,104,52003,5,0
464,192,52195,1,8
384,280,52387,1,0
264,256,52580,1,0
264,136,52772,1,0
176,304,52964,1,8
176,80,53156,1,0
384,80,53541,6,0,B|456:104|464:184,2,120,0|8|0
344,192,54118,1,8
328,192,54214,1,8
312,192,54310,2,0,B|128:192,1,180,0|4
296,104,55272,6,0,B|368:112|440:48,1,120,8|0
216,104,55656,2,0,B|144:112|72:48,1,120
256,176,56041,1,8
392,216,56233,2,0,B|360:328|256:352|144:320|128:208,1,360,0|8
176,112,57003,1,0
256,24,57195,1,0
336,112,57387,1,0
256,200,57580,1,8
256,320,57772,1,0
152,256,57964,6,0,B|64:240|72:144,1,120
360,256,58349,2,0,B|448:240|440:144,1,120,8|0
336,144,58733,1,0
256,264,58926,1,0
176,144,59118,1,8
256,24,59310,2,0,B|256:272,1,240
160,192,59887,6,0,B|144:120|80:96,1,120,8|0
256,264,60272,2,0,B|256:384,1,120
352,192,60656,2,0,B|368:120|432:96,1,120,8|0
464,216,61041,5,4
48,216,61426,1,8
192,24,61810,1,0
256,128,62003,1,0
320,24,62195,1,8
360,136,62387,2,0,B|324:250|324:250|368:384,1,240
256,312,62964,1,8
150,365,63156,2,0,B|188:250|188:250|152:136,1,240
152,136,63733,1,8
360,136,63926,1,0
256,200,64118,5,0
256,200,64503,1,8
192,24,64887,1,0
312,24,65080,1,0
256,128,65272,1,8
368,168,65464,2,0,B|448:232|396:329|272:344,1,240
256,224,66041,1,8
256,224,66233,1,0
144,168,66426,2,0,B|64:232|115:329|240:344,1,240,0|8
256,224,67003,1,0
216,32,67195,6,0,B|200:160,1,120,4|0
296,352,67580,2,0,B|312:224,1,120,8|0
328,96,67964,1,0
256,192,68156,1,0
184,288,68349,1,8
128,184,68541,6,0,B|112:64|112:64|280:88,1,240
384,200,69118,2,0,B|400:320|400:320|232:296,1,240,8|0
256,192,69695,1,0
256,192,69887,1,8
256,192,70080,1,0
152,128,70272,6,0,B|88:88|120:24,1,120
152,128,70656,2,0,B|208:184|160:248,1,120,8|0
64,184,71041,1,0
152,128,71233,1,0
240,72,71426,1,8
312,168,71618,6,0,B|376:248|320:376|208:352,1,240
216,240,72195,1,8
144,144,72387,1,0
48,216,72580,2,0,B|-16:136|40:8|152:32,2,240,0|8|4
136,296,73541,5,0
256,312,73733,1,8
216,200,73926,1,0
176,88,74118,2,0,B|120:24|56:32,2,120,0|0|8
80,160,74695,2,0,B|160:264|312:232,1,240
294,235,75272,1,8
368,136,75464,5,0
296,40,75656,1,0
224,136,75849,1,0
294,235,76041,1,8
296,352,76233,1,0
192,296,76426,5,0
320,88,76810,1,8
80,88,77195,5,0
80,88,77387,2,0,B|16:168|64:280|192:264,1,240
184,152,77964,2,0,B|286:171|329:286|254:377,1,240,0|8
400,328,78541,1,0
384,208,78733,1,8
312,112,78926,1,0
200,64,79118,1,8
80,72,79310,1,0
80,72,79503,5,4
408,96,97964,5,0
432,152,98060,1,0
408,208,98156,2,0,B|456:272|392:352,2,120,0|8|0
352,192,98637,1,0
296,216,98733,1,0
208,296,98926,1,0
208,296,99022,2,0,B|120:224|192:112,1,180
280,64,99503,5,0
178,134,99695,1,0
80,64,99887,1,8
64,184,100080,1,0
72,240,100176,1,0
112,288,100272,1,0
168,304,100368,1,0
168,304,100560,2,0,B|255:330|329:233|242:163,1,180
240,96,101041,5,0
296,72,101137,1,0
344,112,101233,1,0
416,208,101426,2,0,B|448:280|368:320,1,120,8|0
328,336,101714,1,0
272,312,101810,1,0
168,256,102003,1,0
136,208,102099,2,0,B|64:80,1,120
96,48,102387,6,0,B|160:168,1,120
256,96,102772,1,0
248,216,102964,1,8
328,304,103156,1,0
384,280,103253,1,0
408,224,103349,1,0
384,168,103445,1,0
344,56,103637,2,0,B|384:160|304:216,1,180
256,256,104022,5,0
208,288,104118,1,0
96,336,104310,1,0
48,296,104406,1,0
200,208,104695,2,0,B|256:168|328:200,1,120
336,248,104983,1,0
320,304,105080,5,0
192,80,105272,1,8
432,120,105656,6,0,B|464:200|384:256,1,120
384,280,105945,2,0,B|416:208|336:144|248:184,1,180
184,240,106426,1,0
184,240,106522,1,0
184,240,106714,2,0,B|184:40,1,180
264,152,107195,6,0,B|264:248|360:248,1,120
424,304,107580,2,0,B|368:368|288:320,1,120
272,296,107868,1,0
216,296,107964,1,0
136,200,108156,5,0
376,128,108349,1,8
64,48,108733,6,0,B|104:176,1,120
120,104,109022,2,0,B|168:240,1,120
320,296,109503,1,0
320,296,109599,1,0
344,176,109791,2,8,B|360:96,3,60,0|8|8|0
216,240,110272,6,0,B|144:376,1,120
216,144,110656,2,0,B|144:8,1,120,8|0
80,128,111041,1,0
184,192,111233,1,0
80,256,111426,1,8
184,192,111618,2,0,B|448:192,1,240,0|0
424,192,112195,1,8
256,24,112580,5,0
256,80,112676,1,0
256,136,112772,1,0
195,238,112964,1,8
315,238,113156,1,0
376,136,113349,6,0,B|448:176|424:256,1,120
136,136,113733,2,0,B|64:176|88:256,1,120,8|0
195,238,114118,2,0,B|323:238,1,120
256,344,114503,1,8
256,136,114695,2,0,B|256:16,2,120
152,80,115272,1,8
256,136,115464,1,0
360,80,115656,1,0
344,200,115849,6,0,B|328:336,1,120,0|8
168,200,116233,2,0,B|184:336,1,120
72,264,116618,1,0
96,144,116810,2,0,B|48:32,1,120,8|0
160,72,117195,1,0
256,144,117387,1,0
352,72,117580,1,8
464,32,117772,2,0,B|448:192|344:272,1,240
256,288,118349,1,8
144,240,118541,1,0
208,136,118733,6,0,B|96:80,1,120
304,248,119118,2,0,B|416:304,1,120,8|0
432,184,119503,6,0,B|440:96|328:96,1,120
301,14,119887,2,0,B|293:102|405:102,1,120,8|0
272,176,120272,1,0
160,216,120464,1,0
112,104,120656,1,8
224,64,120849,2,0,B|320:296,1,240
316,285,121426,1,8
424,336,121618,5,0
472,224,121810,1,0
400,128,122003,1,0
280,128,122195,1,8
224,232,122387,1,0
72,64,122772,5,0
72,64,122964,1,0
72,64,123156,1,0
72,64,123349,1,0
72,64,123541,1,0
72,64,123733,2,0,B|192:64,1,120,8|0
416,160,124310,5,0
384,216,124406,1,0
336,256,124503,2,0,B|280:304|216:264,1,120,8|0
112,232,124887,1,0
216,168,125080,1,0
32,184,125272,1,8
192,80,125464,1,0
432,56,125849,5,0
432,56,126041,1,0
432,56,126233,1,0
432,56,126426,1,0
432,56,126618,1,0
432,56,126810,2,0,B|432:200,1,120,8|0
271,354,127387,5,0
214,363,127483,1,0
164,333,127580,1,8
117,222,127772,1,0
15,156,127964,2,0,B|40:80|120:56|192:89|214:150,1,240,8|4
320,96,128926,5,0
419,162,129118,1,8
459,275,129310,1,0
256,320,129695,5,0
256,320,129887,1,8
256,320,130080,1,0
144,280,130272,6,0,B|104:216|168:160,1,120
157,171,130656,1,8
157,171,130849,1,0
256,56,131041,2,0,B|256:176,1,120
368,280,131426,2,0,B|408:216|344:160,1,120,8|0
152,56,131810,6,0,B|224:168,1,120
304,240,132195,1,8
352,352,132387,1,0
432,264,132580,2,0,B|488:192,2,60
384,152,132964,1,8
384,152,133156,1,0
360,56,133349,6,0,B|288:168,1,120
208,240,133733,1,8
160,352,133926,1,0
80,264,134118,2,0,B|24:192,2,60
128,152,134503,1,8
128,152,134695,1,0
184,48,134887,6,0,B|264:88|240:168,1,120,4|0
328,336,135272,2,0,B|248:296|272:216,1,120,8|0
350,154,135656,2,0,B|416:115,2,60
350,154,136041,1,8
350,154,136233,1,0
264,56,136426,6,0,B|184:192,1,120
248,328,136810,2,0,B|328:192,1,120,8|0
192,240,137195,1,0
152,128,137387,1,0
64,208,137580,2,0,B|64:336,1,120,8|0
64,208,137964,5,0
152,128,138156,1,0
256,192,138349,1,8
256,312,138541,1,0
256,192,138733,2,0,B|256:112,2,60
360,128,139118,1,8
448,208,139310,1,0
360,128,139503,6,0,B|248:64,1,120
152,128,139887,2,0,B|264:64,1,120,8|0
256,192,140272,1,0
144,240,140464,2,8,B|216:288|192:352,1,120,8|0
368,240,140849,2,0,B|296:288|320:352,1,120,8|4
256,192,146426,12,4,147195
344,216,147580,6,0,B|368:296|304:360,2,120,8|0|0
352,96,148156,1,0
448,160,148349,1,8
344,216,148541,2,0,B|256:256|168:192|192:96,1,240
304,128,149118,2,0,B|264:216|160:232|88:152,2,240,8|0|8
304,128,150080,1,0
440,168,150272,5,0
208,232,150656,1,8
440,168,151041,1,0
360,256,151233,2,0,B|416:320|504:280,1,120,0|8
360,256,151618,2,0,B|104:256,1,240
209,148,152195,6,0,B|121:116|145:20,1,120,8|0
328,160,152580,6,0,B|399:99|470:168,1,120,8|0
258,256,152964,6,0,B|274:348|179:375,1,120,8|0
48,168,153349,5,4
464,168,153733,1,8
320,360,154118,1,0
256,256,154310,1,0
192,360,154503,1,8
152,248,154695,2,0,B|188:134|188:134|144:0,1,240
256,72,155272,1,8
362,19,155464,2,0,B|324:134|324:134|360:248,1,240
360,248,156041,1,8
152,248,156233,1,0
256,184,156426,5,0
256,184,156810,1,8
320,360,157195,1,0
200,360,157387,1,0
256,256,157580,1,8
144,216,157772,2,0,B|64:152|116:55|240:40,1,240
256,160,158349,1,8
256,160,158541,1,0
368,216,158733,2,0,B|448:152|397:55|272:40,1,240,8|0
256,160,159310,1,8
296,352,159503,6,0,B|312:224,1,120,4|0
216,32,159887,2,0,B|200:160,1,120,8|0
184,288,160272,1,0
256,192,160464,1,0
328,96,160656,1,8
384,200,160849,6,0,B|400:320|400:320|232:296,1,240
128,184,161426,2,0,B|112:64|112:64|280:88,1,240,8|0
256,192,162003,1,0
256,192,162195,1,8
256,192,162387,1,0
360,256,162580,6,0,B|424:296|392:360,1,120
360,256,162964,2,0,B|304:200|352:136,1,120,8|0
448,200,163349,1,0
360,256,163541,1,0
272,312,163733,1,8
200,216,163926,6,0,B|136:136|192:8|304:32,1,240
296,144,164503,1,8
368,240,164695,1,0
464,168,164887,2,0,B|528:248|472:376|360:352,2,240,8|8|4
376,88,165849,5,0
256,72,166041,1,8
296,184,166233,1,0
336,296,166426,2,0,B|392:360|456:352,2,120,0|0|8
432,224,167003,2,0,B|352:120|200:152,1,240
218,149,167580,1,8
144,248,167772,5,0
216,344,167964,1,0
288,248,168156,1,0
218,149,168349,1,8
216,32,168541,1,0
320,88,168733,5,0
192,296,169118,1,8
432,296,169503,5,0
432,296,169695,2,0,B|496:216|448:104|320:120,1,240
328,232,170272,2,0,B|226:213|183:98|258:7,1,240,0|8
112,56,170849,1,0
128,176,171041,1,8
200,272,171233,1,0
312,320,171426,1,8
432,312,171618,1,0
432,312,171810,5,4
360,216,172003,1,0
432,120,172195,1,8
360,216,172387,5,0
240,216,172580,1,0
168,120,172772,1,8
240,216,172964,5,0
160,304,173156,1,0
40,304,173349,1,8
160,304,173541,5,0
240,216,173733,1,0
168,120,173926,1,8
272,56,174118,6,0,B|328:96|328:96|328:176,1,120,8|0
240,328,174503,2,0,B|184:288|184:288|184:208,1,120,8|0
96,160,174887,6,0,B|96:40,1,120
96,160,175272,1,8
200,216,175464,6,0,B|200:352,1,120
200,216,175849,1,8
304,160,176041,6,0,B|304:24,1,120
304,160,176426,1,8
408,216,176618,6,0,B|408:352,1,120
408,216,177003,1,12
256,32,177387,5,8
160,192,177580,1,8
352,192,177772,1,0
256,352,177964,5,4
184,256,178156,2,0,B|56:312,1,120,8|0
96,192,178541,5,0
192,120,178733,2,0,B|136:-8,1,120,8|0
256,32,179118,5,0
328,128,179310,2,8,B|456:72,1,120,8|0
416,192,179695,5,0
320,264,179887,2,8,B|376:392,1,120,8|0
203,340,180272,6,0,B|203:220,1,120,8|0
307,44,180656,2,0,B|307:164,1,120,8|0
200,104,181041,6,0,B|64:56,1,120
64,184,181426,1,8
168,248,181618,6,0,B|120:384,1,120
248,336,182003,1,8
344,264,182195,6,0,B|480:312,1,120
432,184,182580,1,8
336,120,182772,6,0,B|368:-16,1,120
248,16,183156,2,0,B|192:264,1,240,12|0
256,352,183733,1,8
320,248,183926,1,0
256,192,184118,12,4,185656
256,152,185849,5,0
176,272,186233,5,0
96,112,186426,1,0
336,272,186810,5,0
416,112,187003,1,0
256,192,187387,5,0
256,192,187964,1,0
256,192,188349,1,0
120,320,188733,6,0,B|56:200,2,120,4|0|0
176,168,189310,2,0,B|152:32,2,120
336,168,189887,2,0,B|356:49,2,120
392,320,190464,2,0,B|448:214,2,120
256,312,191041,1,0
256,192,191233,12,0,192387
