osu file format v9

[General]
AudioFilename: 02. SuperSonic - Planetboom.mp3
AudioLeadIn: 0
PreviewTime: 54885
Countdown: 0
SampleSet: Normal
StackLeniency: 0.7
Mode: 0
LetterboxInBreaks: 0

[Editor]
Bookmarks: 61041,79501,97962,146231
DistanceSpacing: 0.9
BeatDivisor: 4
GridSize: 4

[Metadata]
Title:SuperSonic (Full Ver.)
Artist:Planetboom
Creator:Arusha Shuna
Version:HD
Source:S4 League
Tags:dj max

[Difficulty]
HPDrainRate:5
CircleSize:4
OverallDifficulty:5
ApproachRate:6
SliderMultiplier:1.8
SliderTickRate:2

[Events]
//Background and Video events
0,0,"HD.jpg"
//Break Periods
2,79702,96914
2,141241,145183
//Storyboard Layer 0 (Background)
//Storyboard Layer 1 (Fail)
//Storyboard Layer 2 (Pass)
//Storyboard Layer 3 (Foreground)
//Storyboard Sound Samples
//Background Colour Transformations
3,100,163,162,255

[TimingPoints]
5657,384.615384615385,4,1,1,70,1,0
54308,-200,4,1,1,70,0,0
54885,-100,4,1,1,70,0,1
79501,-100,4,1,1,70,0,0
122665,-100,4,2,0,100,0,0
123635,-100,4,1,1,70,0,0
125751,-100,4,2,0,100,0,0
126712,-100,4,1,1,70,0,0
147193,-100,4,1,1,70,0,1
184116,-100,4,1,1,70,0,0
185272,-100,4,1,1,0,0,0
185657,-100,4,1,1,70,0,0
192385,-100,4,1,1,0,0,0

[Colours]
Combo1 : 180,234,250
Combo2 : 125,122,184
Combo3 : 97,97,231
Combo4 : 61,153,222

[HitObjects]
256,232,5657,2,0,B|224:304|272:344,1,90,4|0
216,160,6233,2,0,B|169:96|111:117,1,90
296,160,6810,2,0,B|374:151|384:90,1,90
373,120,7387,1,0
256,192,7964,5,0
256,192,8348,1,0
112,112,8733,5,0
112,112,8926,1,0
112,192,9118,1,0
184,152,9310,5,0
184,152,9503,1,0
184,232,9695,1,0
256,192,9887,5,0
256,192,10080,1,0
256,272,10272,1,0
328,232,10464,6,0,B|416:232,3,90
424,320,11233,2,4,B|312:320|303:134|448:144,1,270,0|4
280,80,12195,6,0,B|272:160|184:184|128:112,1,180,8|0
72,104,12772,1,0
40,176,12964,1,8
80,248,13157,1,0
144,304,13349,6,0,B|192:336|280:312|264:208,2,180,0|8|0
184,232,14310,1,0
216,160,14503,1,8
296,152,14695,1,0
344,216,14887,6,0,B|376:312,1,90
416,144,15464,2,0,B|384:48,1,90
387,58,15849,1,0
387,58,16041,1,8
387,58,16233,1,0
312,24,16426,6,0,B|280:128|136:104,1,180,0|8
312,192,17195,2,0,B|400:192,2,90,0|0|8
170,275,17964,2,0,B|280:264|312:360,2,180,0|8|0
144,192,18926,1,0
144,192,19118,1,8
144,192,19310,1,0
208,128,19503,6,0,B|296:72|392:136,1,180,0|8
344,272,20272,1,0
304,200,20464,1,0
264,272,20657,1,8
304,344,20849,1,0
224,344,21041,6,0,B|136:344|136:344|176:248,1,180,0|8
264,128,21810,2,0,B|272:64|192:48,1,90
144,48,22195,1,8
96,112,22387,1,0
136,184,22580,6,0,B|216:248|320:200,1,180,0|8
344,136,23157,1,0
344,136,23349,2,0,B|296:200|320:272|392:288,1,180,0|8
224,144,24118,6,0,B|179:96|232:48,2,90,0|0|8
256,224,24695,1,0
240,304,24887,2,0,B|168:336|103:312|88:224,1,180,0|8
160,88,25657,5,0
232,56,25849,1,0
304,96,26041,1,8
304,176,26233,1,0
240,224,26426,2,0,B|176:272|216:368|296:352,1,180,0|8
296,280,27003,1,0
296,280,27195,6,0,B|112:328,2,180,0|8|0
360,224,28157,1,0
360,144,28349,1,8
296,96,28541,1,0
160,184,28926,5,0
160,184,29118,1,8
320,184,29503,2,0,B|416:184,2,90,0|0|8
192,88,30272,6,0,B|128:64|80:128,2,90,0|0|8
224,160,30849,1,0
256,232,31041,2,0,B|304:296|392:264|392:192,1,180,0|8
314,175,31618,5,0
314,175,31810,2,0,B|352:354,2,180,0|8|0
256,112,32772,1,0
176,128,32964,1,8
160,208,33157,1,0
256,336,33541,5,0
256,336,33733,1,8
368,224,34118,2,0,B|344:160|264:176,1,90
211,173,34503,2,0,B|160:176|144:224,1,90,8|0
256,104,35080,5,0
256,104,35272,1,8
256,264,35657,2,8,B|256:352,4,90,8|8|0|0|4
177,122,36810,5,8
177,122,37003,1,0
338,122,37387,1,0
338,122,37580,1,8
384,280,37964,6,0,B|304:296|256:232|288:168,2,180,0|8|0
360,200,38926,1,0
360,200,39118,2,0,B|336:256|248:280|208:192,1,180,8|0
88,112,39887,6,0,B|88:48|32:16,2,90,8|0|0
160,256,40657,1,8
232,296,40849,1,0
304,256,41041,2,0,B|376:200|336:120|248:104,1,180,0|8
248,40,41618,2,0,B|280:88|272:168|176:192,1,180
112,176,42195,1,8
328,176,42580,6,0,B|408:224|368:320|296:336,1,180,4|8
288,248,43157,2,0,B|208:196|248:107|320:88,2,180
328,177,44118,2,0,B|120:177,1,180,0|8
92,117,44695,1,0
147,176,44887,2,0,B|151:288|263:288,2,180,0|8|0
280,88,46041,5,8
360,104,46233,1,0
400,176,46426,2,0,B|400:232|448:256,2,90,0|8|8
336,328,47195,6,0,B|272:320|224:248|272:176,1,180,0|8
304,120,47772,2,0,B|288:184|216:208|144:160,1,180,0|8
88,128,48349,1,0
88,208,48541,1,8
136,272,48733,6,0,B|186:336|280:304|288:216,1,180,4|8
200,224,49310,2,0,B|226:162|303:141|359:212,1,180
408,256,49887,1,8
464,200,50080,1,0
352,80,50464,5,0
280,48,50657,2,0,B|208:16|144:48|128:128,2,180,8|0|8
288,128,51618,1,0
392,248,52003,5,0
360,320,52195,2,0,B|320:368|256:328,1,90,8|0
304,264,52580,2,0,B|192:224|112:304,1,180,0|8
64,240,53157,1,0
192,144,53541,5,0
264,176,53733,2,0,B|320:224|408:176|384:112,1,180,8|8
385,115,54310,1,0
216,288,54887,6,0,B|256:336|352:336|376:256,2,180,4|8|0
176,216,55849,1,0
136,288,56041,1,8
216,288,56233,2,0,B|280:248|272:144|168:128,1,180
152,80,56810,2,0,B|216:40|280:64|312:128,2,180,8|0|8
104,144,57772,1,0
152,208,57964,6,0,B|144:320|32:336,2,180,0|8|0
200,144,58926,1,0
272,112,59118,1,8
352,112,59310,2,0,B|432:112|464:184|424:256,1,180
360,192,59887,2,0,B|328:264|392:296,1,90,8|0
360,192,60272,2,0,B|184:256,1,180,0|8
112,232,60849,1,0
112,152,61041,6,0,B|144:40|264:64,2,180,0|8|0
184,192,62003,1,0
264,192,62195,1,8
344,216,62387,2,0,B|408:264|384:344|304:352,2,180
328,136,63349,2,0,B|360:48,3,90,0|0|8|0
413,111,64118,5,0
413,271,64503,1,8
272,192,64887,1,0
216,128,65080,1,0
160,192,65272,1,8
88,152,65464,6,0,B|48:208|96:288|168:272,1,180
240,304,66041,1,8
320,280,66233,1,0
400,280,66426,2,0,B|496:280,2,90,0|0|8
368,120,67195,6,0,B|328:64|264:48|200:96,2,180,4|8|0
448,96,68157,2,0,B|384:112|336:168|392:264,1,180
224,184,68926,2,0,B|256:240|216:296,1,90,0|8
168,328,69310,1,0
88,320,69503,1,0
40,256,69695,1,0
56,176,69887,1,8
128,144,70080,1,0
208,168,70272,6,0,B|276:212|364:156|342:88,2,180,0|8|0
264,104,71233,2,0,B|332:305,2,180
192,72,72195,1,8
200,152,72387,1,0
264,104,72580,2,0,B|448:104,1,180,0|8
432,184,73157,1,0
416,264,73349,6,0,B|368:320|280:304|256:232,2,180,4|8|0
344,224,74310,2,0,B|352:296|288:352|216:320,1,180
160,184,75080,2,0,B|200:128|152:80,2,90,0|8|0
112,248,75657,1,0
176,296,75849,1,0
224,232,76041,1,8
272,168,76233,1,0
320,104,76426,6,0,B|384:160|344:240|272:248,2,180,0|8|0
272,168,77387,2,0,B|200:184|181:284|264:328,1,180
80,288,78157,5,0
112,216,78349,2,0,B|144:168|104:128,1,90,8|0
40,88,78733,2,0,B|128:128|224:72,2,180,8|0|4
168,160,97964,6,0,B|200:112|152:72,2,90,0|0|8
168,240,98541,1,0
240,280,98733,1,0
320,256,98926,1,0
344,176,99118,2,0,B|344:120|400:96,1,90,8|0
320,56,99503,5,0
240,40,99695,1,0
160,48,99887,2,0,B|88:128|176:216,1,180,8|0
240,248,100464,1,0
312,208,100657,1,8
240,168,100849,5,0
240,248,101041,2,0,B|240:352,2,90,0|0|8
168,208,101618,1,0
144,128,101810,1,0
184,56,102003,1,0
264,32,102195,2,0,B|320:32|344:80,1,90,8|0
376,152,102580,6,0,B|400:208|456:208,2,90,0|0|8
296,128,103157,1,0
224,168,103349,1,0
152,208,103541,1,0
152,288,103733,1,8
80,328,103926,5,0
80,248,104118,2,0,B|80:144,1,90
136,96,104503,1,0
208,64,104695,2,0,B|256:32|304:80,1,90
344,128,105080,1,0
392,192,105272,1,8
256,272,105657,6,0,B|256:360,2,90,0|0|8
212,203,106233,1,0
212,123,106426,2,0,B|260:91|308:131,1,90
300,203,106810,1,8
184,312,107195,5,0
112,280,107387,1,0
80,208,107580,1,8
112,136,107772,2,0,B|128:80|80:48,2,90
160,200,108349,1,8
299,109,108733,6,0,B|347:77|411:125,1,90
408,184,109118,1,8
376,256,109310,1,0
296,280,109503,1,0
216,256,109695,1,0
184,184,109887,2,0,B|168:128,2,45,8|8|0
136,248,110272,6,0,B|208:296|288:216|256:160,2,180,0|8|0
184,184,111233,2,0,B|176:120|248:72|320:120,1,180
384,256,112003,6,0,B|384:312|448:328,2,90,0|8|0
400,176,112580,1,0
392,96,112772,1,0
328,48,112964,1,8
248,56,113157,1,0
192,112,113349,6,0,B|136:192|24:168,2,180,0|8|0
272,136,114310,1,0
320,200,114503,1,8
312,280,114695,2,0,B|288:344|216:368|128:336,1,180
96,296,115272,1,8
56,224,115464,6,0,B|30:169|80:136,1,90
136,96,115849,1,0
184,160,116041,1,8
232,96,116233,1,0
280,160,116426,6,0,B|344:200|338:299|240:320,2,180,4|8|0
240,232,117387,1,0
240,232,117580,1,8
240,232,117772,2,0,B|320:264|384:184|352:112,1,180
400,72,118349,1,8
320,72,118541,1,0
160,40,118926,1,0
104,96,119118,1,8
184,120,119310,1,0
120,176,119503,6,0,B|64:352,2,180,0|8|0
192,208,120464,1,0
168,288,120657,1,8
248,272,120849,2,0,B|312:96,1,180
384,64,121426,1,8
432,128,121618,2,0,B|464:176|424:224,2,90
360,168,122195,1,8
336,248,122387,1,0
256,104,122772,5,0
256,104,122964,1,0
256,104,123157,1,0
256,104,123349,1,0
256,104,123541,1,0
256,104,123733,2,0,B|256:224,1,90,8|0
184,48,124310,6,0,B|224:96|184:168,1,90,0|8
256,192,124695,2,0,B|256:304,2,90
312,132,125272,2,0,B|288:96|328:48,1,90,8|0
408,192,125849,5,0
408,192,126041,1,0
408,192,126233,1,0
408,192,126426,1,0
408,192,126618,1,0
408,192,126810,2,0,B|288:192,1,90,8|0
192,88,127387,6,0,B|160:144|104:144,1,90,0|8
56,192,127772,1,0
123,241,127964,2,0,B|168:240|200:288,1,90,8|0
248,224,128349,1,0
248,144,128541,1,0
320,112,128733,6,4,B|376:104|392:56,2,90,4|4|8
320,192,129310,1,0
400,336,129695,2,0,B|448:304|432:248,2,90,0|8|0
360,264,130272,2,0,B|344:192|440:152|488:200,2,180,0|8|0
280,280,131233,1,0
288,200,131426,1,8
336,136,131618,1,0
416,120,131810,6,0,B|400:48|312:32|256:96,1,180,0|8
200,40,132387,1,0
136,88,132580,2,0,B|80:88,2,45
200,136,132964,1,8
200,216,133157,1,0
168,288,133349,6,0,B|104:312|72:248,2,90,0|0|8
248,280,133926,2,0,B|304:240|304:160|232:128,1,180
184,72,134503,1,8
264,56,134695,1,0
240,131,134887,6,0,B|208:179|88:187|72:123,1,180,4|8
56,64,135464,1,0
64,224,135849,2,0,B|96:272|48:320,2,90,0|8|0
136,184,136426,2,0,B|192:144|272:176|272:248,1,180,0|8
192,245,137003,2,0,B|272:69,1,180
336,40,137580,1,8
408,80,137772,1,0
336,120,137964,6,0,B|336:304,1,180,0|8
406,260,138541,2,0,B|382:196|278:196|262:276,1,180
200,312,139118,1,8
192,232,139310,1,0
176,152,139503,6,0,B|168:88|104:88,2,90,0|0|8
96,168,140080,2,0,B|104:248|208:264|248:192,1,180,0|8
280,144,140657,2,0,B|328:40,2,90,8|0|4
256,192,146233,12,4,147195
296,96,147580,6,0,B|256:48|160:48|136:128,2,180,8|0|8
336,168,148541,1,0
376,96,148734,1,0
296,96,148926,2,0,B|232:136|241:242|344:256,1,180
338,316,149503,2,0,B|265:340|200:285|193:232,2,180,0|8|0
394,257,150465,5,0
363,182,150657,2,0,B|371:70|483:54,2,180,8|0|8
320,251,151619,1,0
242,272,151811,1,0
160,272,152003,2,0,B|80:272|48:200|88:128,1,180
152,192,152580,2,0,B|184:120|120:88,1,90,8|0
152,192,152965,2,0,B|328:128,1,180,8|4
400,152,153542,5,0
400,232,153734,2,0,B|368:344|248:320,2,180,8|0|8
328,192,154696,1,0
248,192,154888,1,0
168,168,155080,2,0,B|104:120|128:40|208:32,2,180
184,248,156042,2,0,B|152:336,3,90,8|0|0|0
99,273,156811,5,8
72,192,157003,1,0
120,120,157195,2,0,B|168:96|199:141,1,90
256,200,157580,1,8
312,264,157773,1,0
352,192,157965,1,0
424,232,158157,6,0,B|464:176|416:96|344:112,1,180
272,80,158734,1,8
192,104,158926,1,8
112,104,159119,2,0,B|16:104,2,90,0|8|4
144,264,159888,6,0,B|184:320|248:336|312:288,2,180,8|0|8
64,288,160850,2,0,B|128:272|176:216|120:120,1,180
208,176,161426,1,8
288,200,161619,2,0,B|256:144|296:88,1,90,0|0
344,56,162003,1,0
424,64,162196,1,8
472,128,162388,1,0
456,208,162580,5,0
384,240,162773,1,0
304,216,162965,2,0,B|231:172|148:228|172:296,2,180,8|0|8
248,280,163926,2,0,B|180:79,2,180
320,312,164888,1,0
312,232,165080,1,0
248,280,165273,2,0,B|64:280,1,180,8|4
80,200,165850,5,0
96,120,166042,2,0,B|144:64|232:80|256:152,2,180,8|0|8
168,160,167003,2,0,B|160:88|224:32|296:64,1,180
296,136,167580,1,8
352,192,167773,2,0,B|312:248|360:296,2,90
408,136,168350,1,8
352,80,168542,1,0
296,136,168734,5,0
248,200,168926,1,0
200,264,169119,2,0,B|136:208|176:128|248:120,2,180,8|0|8
248,200,170080,2,0,B|320:184|336:88|256:40,1,180
432,96,170850,5,0
400,168,171042,2,0,B|368:216|408:256,1,90,8|0
472,296,171426,2,0,B|384:256|288:312,1,180,8|4
232,352,172003,5,0
174,294,172195,1,8
174,213,172387,1,0
173,294,172580,5,0
112,352,172772,1,8
32,352,172964,1,0
72,280,173157,5,0
72,200,173349,1,8
128,136,173541,1,0
208,136,173733,2,0,B|304:136,1,90
376,136,174118,5,8
456,136,174310,1,0
416,208,174503,1,8
416,288,174695,1,8
344,248,174887,6,0,B|256:248,1,90
164,248,175272,2,0,B|268:248,1,90,8|0
256,168,175657,1,0
208,104,175849,1,8
256,40,176041,1,0
304,104,176233,1,0
256,168,176426,2,0,B|256:368,1,180,8|0
176,312,177003,6,4,B|206:259|312:258|344:328,1,180,12|0
412,307,177580,1,8
440,232,177772,1,0
416,152,177964,6,0,B|464:104|432:56,2,90,8|0|8
336,136,178541,1,0
256,112,178733,1,8
176,136,178926,1,0
96,152,179118,6,0,B|48:104|80:56,2,90,12|0|8
152,208,179695,1,0
208,272,179887,1,8
256,344,180080,1,0
256,344,180272,5,8
304,272,180464,1,0
360,208,180657,1,8
296,152,180849,2,0,B|256:112|200:160,1,90,0|8
176,216,181233,5,0
120,152,181426,1,8
184,96,181618,1,0
256,144,181810,2,0,B|256:48,2,90,8|0|8
328,96,182387,5,0
392,152,182579,1,8
336,216,182772,1,0
256,240,182964,1,0
184,272,183157,6,8,B|216:336|312:328|328:264,1,180
256,240,183733,2,8,B|256:144,1,90,8|0
256,192,184118,12,0,185272
200,144,185657,6,0,B|136:56,1,90
256,264,186233,2,0,B|256:368,1,90
312,144,186810,2,0,B|376:56,1,90
256,192,187387,5,0
256,192,187964,1,0
256,192,188349,1,0
120,104,188733,6,0,B|192:40,2,90
200,152,189310,2,0,B|296:120,2,90
200,232,189887,2,0,B|285:260,2,90
119,280,190464,2,0,B|186:339,2,90
104,192,191041,1,0
256,192,191233,12,4,192387
