osu file format v5

[General]
AudioFilename: SuperSonic.mp3
AudioLeadIn: 0
PreviewTime: 24086
Countdown: 0
SampleSet: Normal
StackLeniency: 0.2
Mode: 0
LetterboxInBreaks: 1

[Metadata]
Title:SuperSonic
Artist:Planetboom
Creator:DJPop
Version:Normal
Source:S4 League
Tags:supersonic planetboom djmax s4 league pentavision

[Difficulty]
HPDrainRate:4
CircleSize:5
OverallDifficulty:4
SliderMultiplier:1.28
SliderTickRate:2

[Events]
//Background and Video events
0,0,"SuperSonic 2.png"
1,-800,"SuperSonic.avi"
//Break Periods
//Storyboard Layer 0 (Background)
//Storyboard Layer 1 (Failing)
//Storyboard Layer 2 (Passing)
//Storyboard Layer 3 (Foreground)
//Storyboard Sound Samples
5,12163,0,"normal-hitclap.wav"
5,13702,0,"normal-hitclap.wav"
5,15240,0,"normal-hitclap.wav"
5,16779,0,"normal-hitclap.wav"
5,18317,0,"normal-hitclap.wav"
5,19856,0,"normal-hitclap.wav"
5,21394,0,"normal-hitclap.wav"
5,24471,0,"normal-hitclap.wav"
5,26010,0,"normal-hitclap.wav"
5,27548,0,"normal-hitclap.wav"
5,29086,0,"normal-hitclap.wav"
5,30625,0,"normal-hitclap.wav"
5,32163,0,"normal-hitclap.wav"
5,33702,0,"normal-hitclap.wav"
5,35240,0,"normal-hitclap.wav"
5,35721,0,"normal-hitclap.wav"
5,35817,0,"normal-hitclap.wav"
5,35913,0,"normal-hitclap.wav"
5,47933,0,"normal-hitclap.wav"
5,48029,0,"normal-hitclap.wav"
5,48221,0,"normal-hitclap.wav"
5,49086,0,"normal-hitclap.wav"
5,50625,0,"normal-hitclap.wav"
5,52163,0,"normal-hitclap.wav"
5,53702,0,"normal-hitclap.wav"
5,57548,0,"normal-hitclap.wav"
5,58317,0,"normal-hitclap.wav"
5,61394,0,"normal-hitclap.wav"
5,64471,0,"normal-hitclap.wav"
5,67548,0,"normal-hitclap.wav"
5,70625,0,"normal-hitclap.wav"
5,73702,0,"normal-hitclap.wav"
5,76779,0,"normal-hitclap.wav"
5,79856,0,"normal-hitclap.wav"
5,60625,0,"normal-hitclap.wav"
5,61779,0,"normal-hitclap.wav"
5,61875,0,"normal-hitclap.wav"
5,62067,0,"normal-hitclap.wav"
5,63702,0,"normal-hitclap.wav"
5,66779,0,"normal-hitclap.wav"
5,69856,0,"normal-hitclap.wav"
5,72933,0,"normal-hitclap.wav"
5,74086,0,"normal-hitclap.wav"
5,74183,0,"normal-hitclap.wav"
5,74375,0,"normal-hitclap.wav"
5,76010,0,"normal-hitclap.wav"
5,79086,0,"normal-hitclap.wav"
5,81394,0,"normal-hitclap.wav"
5,82548,0,"normal-hitclap.wav"
5,84471,0,"normal-hitclap.wav"
5,85625,0,"normal-hitclap.wav"
5,87548,0,"normal-hitclap.wav"
5,88702,0,"normal-hitclap.wav"
5,90625,0,"normal-hitclap.wav"
5,91779,0,"normal-hitclap.wav"
//Background Colour Transformations
3,100,0,0,0

[TimingPoints]
1010,384.615384615385,4,1,0,80,1,0
101779,-100,4,1,0,0,0,0

[Colours]
Combo1 : 110,100,110
Combo2 : 255,215,0
Combo3 : 255,255,255
Combo4 : 210,0,20

[HitObjects]
480,352,5625,2,0,C|416:352,1,64,12|0
416,256,6202,2,0,C|352:256,1,64,8|0
352,160,6779,2,0,C|288:160,1,64,8|0
288,64,7356,5,8
192,64,7740,2,0,C|128:64,1,64,0|10
32,64,8317,1,10
32,160,8702,6,0,C|32:224,1,64,8|0
128,224,9279,2,0,C|128:288,1,64,8|0
224,288,9856,2,0,C|224:352,1,64,8|0
320,352,10433,6,0,C|384:352,4,64,8|0|0|10|14
480,352,11779,5,4
480,352,11971,1,0
480,256,12356,1,0
480,256,12548,1,0
480,160,12933,2,0,C|480:96,1,64,8|0
480,64,13317,5,0
480,64,13510,1,0
384,64,13894,1,0
384,64,14086,1,0
384,160,14471,2,0,C|320:160,1,64,8|0
288,160,14856,5,0
288,160,15048,1,0
288,256,15433,1,0
288,256,15625,1,0
288,352,16010,2,0,C|224:352,1,64,8|0
192,352,16394,5,0
192,352,16586,1,0
96,352,16971,1,0
96,352,17163,1,0
96,256,17548,2,0,C|96:192,1,64,8|0
96,160,17933,5,0
96,160,18125,1,0
192,160,18510,1,0
192,160,18702,1,0
288,160,19086,2,0,C|352:160,1,64,8|0
384,160,19471,5,0
384,160,19663,1,0
480,160,20048,1,0
480,160,20240,1,0
480,64,20625,2,0,C|416:64,1,64,8|0
384,64,21010,5,0
384,64,21202,1,0
288,64,21586,1,0
288,64,21779,1,0
192,64,22163,6,0,C|128:64,1,64,8|0
256,192,22548,12,0,23702
320,320,24086,5,4
320,320,24279,1,0
416,320,24663,1,0
416,320,24856,1,0
416,224,25240,2,0,C|416:160,1,64,8|0
416,128,25625,5,0
416,128,25817,1,0
320,128,26202,1,0
320,128,26394,1,0
320,224,26779,2,0,C|256:224,1,64,8|0
224,224,27163,5,0
224,224,27356,1,0
224,320,27740,1,0
224,320,27933,1,0
128,320,28317,2,0,C|64:320,1,64,8|0
32,320,28702,5,0
32,320,28894,1,0
32,224,29279,1,0
32,224,29471,1,0
128,224,29856,2,0,C|128:160,1,64,8|0
128,128,30240,5,0
128,128,30433,1,0
32,128,30817,1,0
32,128,31010,1,0
32,32,31394,2,0,C|96:32,1,64,8|0
128,32,31779,5,0
128,32,31971,1,0
224,32,32356,1,0
224,32,32548,1,0
224,128,32933,2,0,C|288:128,1,64,8|0
320,128,33317,5,0
320,128,33510,1,0
320,224,33894,1,0
320,224,34086,1,0
320,320,34471,2,0,C|384:320,1,64,8|0
416,320,34856,5,0
416,320,35048,1,0
416,224,35433,1,0
416,224,35625,1,8
416,128,36010,2,0,C|416:64,1,64,0|8
416,32,36394,6,0,C|352:32,3,64,4|0|8|0
256,32,37356,1,0
256,32,37548,1,8
256,32,37740,1,0
256,64,37933,6,0,C|256:128,3,64,0|0|8|0
256,224,38894,1,0
256,224,39086,1,8
256,224,39279,1,0
288,224,39471,6,0,C|352:224,3,64,0|0|8|0
448,224,40433,1,0
448,224,40625,1,8
448,224,40817,1,0
448,192,41010,6,0,C|448:128,3,64,0|0|8|0
352,128,41971,1,0
352,128,42163,1,12
352,128,42356,1,0
320,128,42548,5,4
288,128,42740,1,0
256,128,42933,1,8
224,128,43125,1,0
128,128,43510,2,0,C|128:64,2,64,0|8|0
128,160,44086,5,0
128,192,44279,1,0
128,224,44471,1,8
128,256,44663,1,0
128,352,45048,2,0,C|64:352,2,64,0|8|0
160,352,45625,5,0
192,352,45817,1,0
224,352,46010,1,8
256,352,46202,1,0
352,352,46586,2,0,C|416:352,2,64,0|8|0
352,320,47163,5,0
352,288,47356,1,0
352,256,47548,1,8
352,224,47740,1,0
256,224,48125,2,0,C|256:288,2,64,8|0|8
256,192,48702,5,4
256,192,48894,1,0
256,96,49279,1,0
256,96,49471,1,0
352,96,49856,1,8
352,96,50048,1,0
384,96,50240,5,0
384,96,50433,1,0
480,96,50817,1,0
480,96,51010,1,0
480,192,51394,1,8
480,192,51586,1,0
448,192,51779,5,0
448,192,51971,1,0
352,192,52356,1,0
352,192,52548,1,0
352,288,52933,1,8
352,288,53125,1,0
384,288,53317,5,0
384,288,53510,1,0
480,288,53894,1,0
480,288,54086,1,6
256,192,54279,12,0,56010
32,96,56394,5,4
32,96,56779,1,8
128,96,57163,1,0
128,96,57356,1,0
128,192,57740,6,0,C|384:192,1,256
480,192,58894,1,0
480,192,59086,1,8
480,192,59279,1,0
480,224,59471,5,0
480,224,59856,1,8
480,320,60240,1,0
480,320,60433,1,0
384,320,60817,6,0,C|128:320,1,256
32,320,61971,1,8
32,320,62163,1,0
32,320,62356,1,8
32,288,62548,5,4
32,288,62933,1,8
32,192,63317,1,0
32,192,63510,1,0
32,96,63894,6,0,C|288:96,1,256
384,96,65048,1,0
384,96,65240,1,8
384,96,65433,1,0
384,64,65625,5,0
384,64,66010,1,8
480,64,66394,1,0
480,64,66586,1,0
480,160,66971,6,0,C|224:160,1,256
224,256,68125,1,8
224,256,68317,1,0
224,256,68510,1,8
224,288,68702,5,4
320,288,69086,1,8
416,288,69471,1,0
448,288,69663,1,0
448,192,70048,6,0,B|446:34|288:32,1,256
192,32,71202,1,0
192,64,71394,1,8
192,96,71586,1,0
192,128,71779,5,0
96,128,72163,1,8
96,224,72548,1,0
64,224,72740,1,0
64,320,73125,6,0,B|244:320|256:192,1,256
352,192,74279,1,8
352,160,74471,1,0
352,128,74663,1,8
352,96,74856,5,4
448,96,75240,1,8
448,192,75625,1,0
480,192,75817,1,0
480,288,76202,6,0,B|448:396|256:352,1,256
256,256,77356,1,0
224,256,77548,1,8
192,256,77740,1,0
160,256,77933,5,0
160,352,78317,1,8
64,352,78702,1,0
32,352,78894,1,0
32,256,79279,6,0,B|36:96|192:96,1,256
288,96,80433,1,8
320,96,80625,1,0
352,96,80817,1,8
384,96,81010,5,4
384,96,81202,1,0
384,192,81586,1,0
384,192,81779,1,8
288,192,82163,1,8
288,192,82356,1,0
288,288,82740,5,0
288,288,82933,1,8
192,288,83317,1,8
192,256,83510,1,0
192,224,83702,1,8
192,192,83894,1,0
192,160,84086,5,4
192,160,84279,1,0
96,160,84663,1,0
96,160,84856,1,8
96,256,85240,1,8
96,256,85433,1,0
96,352,85817,5,0
128,352,86010,1,8
160,352,86202,2,0,C|288:352,1,128,4|8
320,352,86779,1,0
352,352,86971,1,8
384,352,87163,5,4
384,352,87356,1,0
384,256,87740,1,0
384,256,87933,1,8
480,256,88317,1,8
480,256,88510,1,0
480,160,88894,5,0
480,160,89086,1,8
480,64,89471,1,8
448,64,89663,1,0
416,64,89856,1,8
384,64,90048,1,0
352,64,90240,5,4
352,64,90433,1,0
256,64,90817,1,0
256,64,91010,1,8
160,64,91394,1,8
160,64,91586,1,0
64,64,91971,5,0
64,96,92163,1,8
64,128,92356,2,0,C|64:256,1,128,4|8
64,288,92933,1,0
64,320,93125,1,8
64,352,93317,1,4
256,192,93413,12,0,94471
480,32,94856,5,12
480,64,95048,1,0
384,64,95433,1,8
384,96,95625,1,0
288,96,96010,1,8
288,128,96202,1,0
192,128,96586,5,8
192,32,96971,1,0
160,32,97163,1,10
64,32,97548,1,10
64,128,97933,5,12
96,128,98125,1,0
96,224,98510,1,8
128,224,98702,1,0
128,320,99086,1,8
160,320,99279,1,0
256,320,99663,5,8
256,288,99856,1,0
256,256,100048,1,0
256,224,100240,1,10
256,192,100433,1,14
256,192,100625,12,0,101779
