osu file format v5

[General]
AudioFilename: SuperSonic.mp3
AudioLeadIn: 0
PreviewTime: 24086
Countdown: 0
SampleSet: Normal
StackLeniency: 0.2
Mode: 0
LetterboxInBreaks: 1

[Metadata]
Title:SuperSonic
Artist:Planetboom
Creator:DJPop
Version:Insane
Source:S4 League
Tags:supersonic planetboom djmax s4 league pentavision

[Difficulty]
HPDrainRate:5
CircleSize:5
OverallDifficulty:8
SliderMultiplier:1.9
SliderTickRate:1

[Events]
//Background and Video events
0,0,"SuperSonic 2.png"
1,-800,"SuperSonic.avi"
//Break Periods
//Storyboard Layer 0 (Background)
//Storyboard Layer 1 (Failing)
//Storyboard Layer 2 (Passing)
//Storyboard Layer 3 (Foreground)
//Storyboard Sound Samples
5,31394,0,"normal-hitclap.wav"
5,32933,0,"normal-hitclap.wav"
5,34471,0,"normal-hitclap.wav"
5,69856,0,"normal-hitclap.wav"
5,72933,0,"normal-hitclap.wav"
5,76010,0,"normal-hitclap.wav"
5,79086,0,"normal-hitclap.wav"
5,82933,0,"normal-hitclap.wav"
5,83702,0,"normal-hitclap.wav"
5,86010,0,"normal-hitclap.wav"
5,89086,0,"normal-hitclap.wav"
5,89856,0,"normal-hitclap.wav"
5,92163,0,"normal-hitclap.wav"
//Background Colour Transformations
3,100,0,0,0

[TimingPoints]
1010,384.615384615385,4,1,0,80,1,0
101779,-100,4,1,0,0,0,0

[Colours]
Combo1 : 110,100,110
Combo2 : 255,215,0
Combo3 : 255,255,255
Combo4 : 210,0,20

[HitObjects]
480,32,5625,5,12
416,64,5817,2,0,B|416:160,1,95
352,128,6202,1,8
288,160,6394,2,0,B|288:256,1,95
224,224,6779,1,8
160,256,6971,6,0,B|160:352,1,95
96,320,7356,2,0,B|96:224,1,95,8|0
32,192,7740,1,0
96,160,7933,1,10
224,288,8317,1,10
352,160,8702,5,8
416,128,8894,2,0,B|416:224,1,95
480,256,9279,1,8
416,288,9471,2,0,B|320:288,1,95
288,352,9856,1,8
256,288,10048,6,0,B|256:192,1,95
320,160,10433,1,8
352,96,10625,1,0
320,32,10817,1,0
256,64,11010,1,10
192,32,11202,2,0,B|64:9|64:128,1,190,6|0
96,192,11779,5,4
32,224,11971,2,0,B|32:320,1,95,0|8
96,288,12356,1,0
128,352,12548,2,0,B|224:352,1,95
192,288,12933,1,8
224,224,13125,1,0
192,160,13317,5,0
224,96,13510,2,0,B|320:96,1,95,0|8
288,160,13894,1,0
352,192,14086,2,0,B|352:288,1,95
288,320,14471,1,8
352,352,14663,1,0
416,320,14856,5,0
480,352,15048,2,0,B|480:256,1,95,0|8
416,224,15433,1,0
448,160,15625,2,0,B|448:64,1,95
384,32,16010,1,8
352,96,16202,1,0
288,128,16394,5,0
256,64,16586,2,0,B|160:64,1,95,0|8
96,96,16971,1,0
160,128,17163,2,0,B|160:224,1,95
224,192,17548,1,8
288,224,17740,1,0
352,256,17933,5,0
384,320,18125,2,0,B|288:320,1,95,0|8
224,352,18510,1,0
160,320,18702,2,0,B|160:224,1,95
96,256,19086,1,8
64,192,19279,1,0
32,128,19471,5,0
64,64,19663,2,0,B|160:64,1,95,0|8
224,96,20048,1,0
256,32,20240,2,0,B|352:32,1,95
416,64,20625,1,8
352,96,20817,1,0
320,160,21010,5,0
384,192,21202,2,0,B|384:288,1,95,0|8
320,256,21586,1,0
256,224,21779,2,0,B|256:320,1,95
320,352,22163,1,8
384,320,22356,1,0
448,352,22548,5,4
480,288,22740,2,0,B|480:192,1,95,0|2
448,128,23125,1,0
384,160,23317,2,0,B|384:64,1,95
352,48,23606,1,0
320,32,23702,1,2
256,64,23894,1,0
192,32,24086,5,4
176,64,24183,1,0
160,96,24279,1,0
224,128,24471,1,8
160,160,24663,1,0
176,192,24760,1,0
96,128,25048,1,0
64,144,25144,1,0
32,160,25240,1,8
64,224,25433,6,0,B|64:320,1,95
128,352,25817,1,0
160,288,26010,1,8
224,256,26202,1,0
256,320,26394,1,0
288,336,26490,1,0
320,352,26586,1,0
352,288,26779,1,8
288,256,26971,1,0
256,192,27163,5,0
240,160,27260,1,0
224,128,27356,1,0
256,64,27548,1,8
320,96,27740,1,0
304,128,27836,1,0
352,32,28125,1,0
384,48,28221,1,0
416,64,28317,1,8
480,32,28510,6,0,B|480:128,1,95
416,160,28894,1,0
352,192,29086,1,8
416,224,29279,1,0
480,256,29471,1,0
464,288,29567,1,0
448,320,29663,1,0
384,352,29856,1,8
352,288,30048,2,0,B|256:288,1,95
192,256,30433,5,0
160,320,30625,1,8
96,352,30817,1,0
64,336,30913,1,0
32,320,31010,1,0
64,256,31202,1,0
96,272,31298,1,0
96,192,31586,1,0
80,160,31683,1,0
64,128,31779,5,0
32,64,31971,1,0
64,48,32067,1,0
96,32,32163,1,8
128,96,32356,1,0
192,128,32548,1,0
224,64,32740,1,0
240,32,32836,2,0,B|384:32,1,142.5
448,64,33317,5,0
480,128,33510,1,0
416,160,33702,1,8
448,224,33894,1,0
416,240,33990,1,0
384,256,34086,1,0
416,320,34279,1,0
448,304,34375,1,0
352,352,34663,1,0
336,320,34760,1,0
320,288,34856,5,0
256,320,35048,1,0
224,336,35144,1,0
192,352,35240,1,8
160,288,35433,1,0
224,256,35625,1,8
256,240,35721,1,8
288,224,35817,1,8
320,208,35913,2,0,B|320:64,1,142.5,4|8
256,32,36394,5,4
192,64,36586,1,0
128,96,36779,1,8
64,128,36971,1,0
32,192,37163,2,0,B|80:192,2,47.5
64,256,37548,1,8
128,288,37740,1,0
192,320,37933,5,0
256,352,38125,1,0
320,320,38317,1,8
352,256,38510,1,0
384,192,38702,2,0,B|432:192,2,47.5
352,128,39086,1,8
320,64,39279,1,0
256,32,39471,5,0
192,64,39663,1,0
160,128,39856,1,8
96,160,40048,1,0
160,192,40240,2,0,B|208:192,2,47.5
96,224,40625,1,8
160,256,40817,1,0
192,320,41010,5,0
256,352,41202,1,0
320,320,41394,1,8
384,288,41586,1,0
448,256,41778,2,0,B|496:256,2,47.5
384,224,42163,1,12
352,160,42356,1,0
384,96,42548,5,4
352,32,42740,2,0,B|448:32,2,95,0|8|0
288,64,43317,1,0
256,48,43413,1,0
224,32,43510,1,0
192,96,43702,1,8
224,160,43894,1,0
288,192,44086,5,0
256,256,44279,2,0,B|256:352,2,95,0|8|0
192,224,44855,1,0
160,240,44951,1,0
128,256,45048,1,0
96,320,45240,1,8
64,256,45432,1,0
32,192,45625,5,0
64,128,45817,2,0,B|64:32,2,95,0|8|0
96,192,46394,1,0
128,176,46490,1,0
160,160,46587,1,0
192,96,46779,1,8
256,128,46971,1,0
320,160,47163,5,0
288,224,47356,2,0,B|192:224,2,95,0|8|0
320,288,47932,1,8
352,304,48029,1,8
384,320,48125,1,8
416,336,48221,1,8
448,352,48317,1,0
480,288,48510,2,0,B|480:192,1,95,8|4
448,128,48894,5,0
384,96,49086,1,8
352,160,49279,1,0
288,128,49471,1,0
256,192,49663,1,0
192,160,49856,1,8
160,224,50048,2,0,B|160:320,1,95
96,352,50433,5,0
80,320,50529,1,0
64,288,50625,1,8
96,224,50817,1,0
32,192,51010,1,0
64,128,51202,1,0
32,64,51394,1,8
96,32,51586,2,0,B|192:32,1,95
256,64,51971,5,0
224,128,52163,1,8
288,160,52356,1,0
256,224,52548,1,0
320,256,52740,1,0
288,320,52933,1,8
352,352,53125,2,0,B|448:352,1,95
480,288,53510,5,0
448,224,53702,1,8
480,160,53894,1,0
448,96,54086,1,6
416,80,54183,1,0
384,64,54279,1,0
352,48,54375,1,0
320,32,54471,1,0
288,96,54663,5,0
320,112,54760,1,2
288,176,54952,5,0
256,160,55048,1,0
224,144,55144,1,0
192,128,55240,1,0
160,192,55433,5,0
192,208,55529,1,2
160,272,55721,5,0
128,256,55817,1,0
96,240,55913,1,0
64,224,56010,1,0
32,288,56202,1,0
64,304,56298,1,2
96,320,56394,6,0,B|96:357|176:352,1,95,4|0
240,320,56779,2,0,B|320:316|320:352,1,95,8|0
384,320,57163,1,0
448,352,57356,2,0,B|496:312|448:272,1,95,0|8
480,208,57740,6,0,B|520:96|448:32,1,190
384,64,58317,1,8
320,32,58510,2,0,B|190:5|160:96,1,190
128,160,59086,1,8
96,96,59279,1,0
64,32,59471,6,0,B|27:32|32:112,1,95
64,176,59856,2,0,B|68:256|32:256,1,95,8|0
64,320,60240,1,0
128,288,60433,2,0,B|168:336|208:288,1,95,0|8
240,352,60817,6,0,B|353:392|416:320,1,190
448,256,61394,1,8
480,192,61587,2,0,B|480:96,1,95,0|8
448,80,61875,1,8
416,64,61971,1,8
384,48,62067,1,8
352,32,62163,1,0
320,96,62356,1,8
256,64,62548,6,0,B|176:68|176:32,1,95,4|0
112,64,62933,2,0,B|32:60|32:96,1,95,8|0
64,160,63317,1,0
96,224,63510,2,0,B|48:264|96:304,1,95,0|8
160,336,63894,6,0,B|230:289|192:160,1,190
256,128,64471,1,8
320,160,64664,2,0,B|277:256|384:320,1,190
448,352,65240,1,8
480,288,65433,1,0
416,256,65625,6,0,B|412:176|448:176,1,95
480,112,66010,2,0,B|484:32|448:32,1,95,8|0
384,64,66394,1,0
320,32,66587,2,0,B|272:71|320:112,1,95,0|8
288,176,66971,6,0,B|330:286|256:352,1,190
192,320,67548,1,8
128,352,67740,2,0,B|32:273|128:192,1,190,0|8
160,128,68317,1,0
96,96,68510,1,8
32,64,68702,5,4
96,32,68894,1,0
160,64,69086,1,8
224,32,69279,1,0
288,64,69471,1,0
352,32,69663,1,0
352,32,69760,1,0
480,96,70048,1,0
416,128,70240,5,0
352,160,70433,1,0
416,192,70625,1,8
480,224,70817,1,0
416,256,71010,1,0
352,288,71202,1,0
416,320,71394,1,8
352,352,71586,1,0
288,320,71779,5,0
224,352,71971,1,0
160,320,72163,1,8
96,352,72356,1,0
64,288,72548,1,0
32,224,72740,1,0
32,224,72836,1,0
160,160,73125,1,0
192,224,73317,5,0
256,256,73510,1,0
320,224,73702,1,8
352,160,73894,1,0
288,128,74086,1,8
256,112,74183,1,8
224,96,74279,1,8
192,80,74375,2,0,B|192:32|240:12|288:32|288:64,1,142.5,8|8
352,32,74856,5,4
416,64,75048,1,0
448,128,75240,1,8
480,192,75433,1,0
448,256,75625,1,0
416,320,75817,1,0
416,320,75914,1,0
288,256,76202,1,0
224,288,76394,5,0
288,320,76587,1,0
224,352,76779,1,8
160,320,76971,1,0
96,352,77164,1,0
32,320,77356,1,0
96,288,77548,1,8
32,256,77740,1,0
96,224,77933,5,0
160,256,78125,1,0
224,224,78317,1,8
160,192,78510,1,0
96,160,78702,1,0
32,192,78894,1,0
32,192,78990,1,0
96,64,79279,1,0
160,32,79471,5,0
224,64,79664,1,0
288,32,79856,1,8
352,64,80048,1,0
416,32,80240,1,0
480,64,80433,1,8
464,96,80529,2,0,B|417:176|480:224,1,142.5,0|8
448,288,81010,5,4
416,352,81202,1,0
352,320,81394,1,8
368,288,81490,1,0
304,256,81683,1,0
288,288,81779,1,8
272,320,81875,1,0
256,352,81971,1,0
192,320,82163,1,8
208,288,82260,1,0
144,256,82452,1,0
128,288,82548,5,8
64,256,82740,1,0
80,224,82836,1,0
16,192,83029,1,0
32,160,83125,1,0
48,128,83221,1,0
64,96,83317,1,8
128,128,83510,1,0
112,160,83606,1,0
160,64,83894,1,0
224,32,84086,5,4
288,64,84279,1,0
256,128,84471,1,8
240,160,84567,1,0
304,192,84760,1,0
320,160,84856,1,8
336,128,84952,1,0
352,96,85048,1,0
416,128,85240,1,8
400,160,85337,1,0
464,192,85529,1,0
448,224,85625,5,8
384,256,85817,1,0
368,288,85913,1,0
432,320,86106,1,0
400,336,86202,1,4
368,352,86298,1,0
336,368,86394,1,0
304,304,86587,1,8
288,272,86683,1,0
240,336,86971,1,8
176,304,87163,5,4
144,368,87356,1,0
80,336,87548,1,8
96,304,87644,1,0
32,272,87837,1,0
48,240,87933,1,8
64,208,88029,1,0
80,176,88125,1,0
16,144,88317,1,8
32,112,88414,1,0
96,80,88606,1,0
80,48,88702,5,8
144,16,88894,1,0
160,48,88990,1,0
224,16,89183,1,0
240,48,89279,1,0
256,80,89375,1,0
272,112,89471,1,8
208,144,89664,1,0
176,128,89760,1,0
240,208,90048,1,0
272,272,90240,5,4
304,336,90433,1,0
368,304,90625,1,8
400,288,90721,1,0
368,224,90914,1,0
352,192,91010,1,8
336,160,91106,1,0
320,128,91202,1,0
384,96,91394,1,8
416,80,91491,1,0
480,112,91683,1,0
464,144,91779,5,8
432,208,91971,1,0
464,224,92067,1,0
496,288,92260,1,0
464,304,92356,1,4
432,320,92452,1,0
400,336,92548,1,0
336,304,92740,1,8
320,336,92837,1,0
296,248,93125,1,8
256,192,93317,1,4
256,192,93413,12,0,94471
32,32,94856,5,12
64,96,95048,1,0
96,160,95240,1,0
128,96,95433,1,8
160,160,95625,1,0
192,224,95817,1,0
224,160,96010,1,8
256,224,96202,1,0
288,288,96394,5,0
320,224,96586,1,8
352,288,96779,1,0
384,352,96971,1,0
448,320,97163,1,10
464,176,97548,1,10
480,32,97933,5,12
416,64,98125,1,0
352,96,98317,1,0
416,128,98510,1,8
352,160,98702,1,0
288,192,98894,1,0
352,224,99086,1,8
288,256,99279,1,0
224,288,99471,5,0
288,320,99663,1,8
224,352,99856,1,0
160,320,100048,1,0
96,288,100240,1,10
64,352,100433,1,14
256,192,100529,12,0,101779
