osu file format v5

[General]
AudioFilename: Keys to the world.mp3
AudioLeadIn: 0
PreviewTime: 29153
Countdown: 1
SampleSet: Normal
StackLeniency: 0.7
Mode: 0
LetterboxInBreaks: 1

[Editor]
DistanceSpacing: 0.800000011920929
BeatDivisor: 4
GridSize: 8

[Metadata]
Title:Keys to the World
Artist:Planetboom
Creator:MoonFragrance
Version:MX
Source:DJMAX
Tags:DJMAX

[Difficulty]
HPDrainRate:6
CircleSize:5
OverallDifficulty:7
SliderMultiplier:2.6
SliderTickRate:2

[Events]
//Background and Video events
0,0,"keys_to_the_world.jpg"
Video,-1200,"Umile_key.avi"
//Break Periods
2,15294,16332
2,42669,47007
//Storyboard Layer 0 (Background)
//Storyboard Layer 1 (Fail)
//Storyboard Layer 2 (Pass)
//Storyboard Layer 3 (Foreground)
//Storyboard Sound Samples
//Background Colour Transformations
3,100,163,162,255

[TimingPoints]
5153,375,4,2,0,45,1,0
14153,-100,4,1,0,90,0,0
82215,-100,4,1,0,0,0,0

[Colours]
Combo1 : 120,52,1
Combo2 : 255,255,0
Combo3 : 0,128,0
Combo4 : 232,94,2

[HitObjects]
24,200,9653,2,2,B|24:344,1,130
96,248,10032,2,2,B|208:344,1,130
296,328,10407,2,2,B|400:224,1,130
384,128,10782,2,2,B|272:24,1,130
184,48,11157,2,2,B|72:160,2,130
288,56,11719,6,2,B|392:152,1,130
384,248,12094,2,2,B|280:344,1,130
184,328,12469,2,2,B|88:232,1,130
88,128,12844,2,2,B|216:8,1,130
288,40,13219,2,2,B|416:144,2,130
184,40,13782,2,2,B|80:136,1,130
88,336,14344,6,0,B|224:336,1,130
320,336,14719,2,0,B|320:160|319:175,1,130
320,104,15094,1,8
64,64,17157,5,8
136,136,17344,1,0
208,64,17532,2,4,B|480:64,1,260,4|0
472,168,18094,2,0,B|472:304,1,130,0|8
368,304,18469,2,0,B|224:304,1,130
136,304,18845,1,0
136,200,19032,2,8,B|336:200,1,195,8|0
336,248,19407,2,0,B|480:248,1,130,0|0
392,176,19782,2,0,B|288:280|152:160,1,260,8|0
56,176,20344,6,0,B|152:288,1,130,0|8
208,200,20719,2,0,B|312:312,1,130,0|0
344,200,21095,1,0
424,272,21283,1,8
424,168,21469,2,0,B|144:168,1,260
56,168,22032,2,0,B|56:368,2,195
160,168,22783,1,0
264,168,22969,1,8
312,144,23063,1,8
352,104,23158,5,4
264,56,23344,1,0
192,128,23532,2,0,B|8:128|8:336,1,260,12|0
88,344,24094,1,0
160,272,24282,2,0,B|264:280|264:152,1,130,8|0
272,112,24657,2,0,B|328:40|392:128,1,130
384,216,25032,2,8,B|376:288|496:288,1,130,8|0
472,184,25407,1,0
472,80,25594,2,0,B|376:80|376:200,1,130,0|8
384,256,25969,1,8
280,256,26157,6,0,B|280:120,1,130
176,128,26532,1,8
176,232,26719,2,0,B|24:232|24:32,1,260
128,56,27283,1,8
232,56,27469,2,0,B|232:200,2,130
336,56,28033,1,8
336,160,28219,2,0,B|336:296,2,130
264,80,28783,1,8
232,176,28969,1,8
184,160,29063,1,8
192,208,29158,5,4
264,280,29344,1,0
336,208,29532,2,0,B|408:208|408:112,1,130,8|0
416,16,29907,2,0,B|320:16|320:128,1,130,0|0
240,160,30283,1,8
144,128,30469,1,0
48,168,30658,1,0
144,200,30844,1,0
240,160,31032,2,8,B|352:160|352:280,1,130,8|0
344,328,31407,2,8,B|216:328|216:216,1,130,0|0
128,280,31782,1,8
128,176,31969,1,8
256,192,32157,12,8,33282
160,192,33657,5,0
248,136,33844,1,0
336,192,34032,1,0
368,288,34219,1,0
280,344,34407,1,0
248,304,34500,1,0
208,336,34594,1,0
120,280,34782,1,0
32,336,34969,1,0
32,232,35157,6,0,B|32:152,1,130,8|0
112,48,35532,2,0,B|208:48|208:160,1,130,8|0
272,192,35907,1,8
360,136,36094,1,0
448,192,36282,1,8
360,248,36469,1,0
272,192,36657,6,0,B|208:216|208:296,1,130,8|0
104,296,37032,2,8,B|104:192|176:192,1,130,8|0
168,88,37407,1,8
256,136,37594,1,0
344,88,37782,1,8
440,128,37969,1,0
200,104,38157,5,4
408,112,38532,1,0
464,200,38719,1,8
408,288,38907,1,0
312,336,39094,1,0
208,336,39281,1,8
136,272,39469,1,0
160,224,39563,1,0
208,200,39657,5,0
288,264,39844,1,0
376,200,40032,1,0
288,144,40219,1,8
200,88,40407,1,0
288,32,40594,1,12
432,312,41157,5,0
344,256,41344,1,0
256,320,41532,1,8
160,288,41719,1,8
112,304,41813,1,0
56,296,41907,1,0
88,256,42000,1,0
136,240,42094,1,0
232,200,42282,1,8
328,232,42465,1,4
72,56,47907,5,0
160,112,48094,1,8
64,152,48282,1,8
112,168,48375,1,8
152,200,48469,1,8
160,248,48563,1,8
120,288,48657,6,0,B|256:288,1,130
328,352,49032,1,8
408,280,49219,1,0
408,176,49407,2,0,B|408:48|200:48,1,260,0|8
112,48,49969,2,0,B|24:48|24:176,1,130
32,232,50344,2,0,B|32:328|128:328,1,130,0|8
208,328,50719,1,0
312,328,50907,1,0
312,120,51282,1,8
208,120,51469,1,0
104,120,51657,5,4
24,192,51844,1,0
104,256,52032,2,0,B|208:256|208:160,1,130,8|0
208,88,52407,2,0,B|296:88|304:184,1,130,8|0
304,264,52782,1,8
216,304,52969,1,0
120,272,53157,2,0,B|120:184|224:184,1,130
240,216,53438,1,0
288,192,53532,1,8
352,112,53719,1,0
312,80,53813,1,0
256,72,53907,1,0
152,88,54094,1,0
112,120,54188,1,0
96,168,54282,1,8
264,288,54657,5,4
368,288,54845,1,0
368,80,55219,1,4
264,80,55407,1,0
176,136,55594,1,0
144,176,55688,1,0
128,224,55783,1,4
200,296,55969,5,0
272,224,56157,1,0
352,160,56345,1,4
272,96,56532,1,0
168,80,56719,1,0
120,96,56813,1,0
88,136,56908,1,4
88,240,57094,1,0
120,280,57188,1,0
168,304,57283,1,4
376,296,57658,5,4
440,216,57845,1,0
376,128,58032,1,0
304,56,58220,1,4
208,96,58407,1,0
136,168,58594,1,0
192,256,58782,1,4
272,320,58970,1,0
360,264,59157,1,0
424,184,59345,1,4
360,96,59533,1,4
264,56,59719,1,0
216,80,59813,1,0
176,112,59908,1,4
72,296,60282,1,4
280,296,60657,6,0,B|280:160,1,130
184,208,61032,1,0
88,160,61219,2,0,B|88:304,1,130
184,264,61594,1,0
280,296,61782,2,0,B|360:296|360:200,1,130
328,168,62063,1,0
280,144,62157,2,0,B|184:144|184:248,1,130,0|0
184,320,62532,1,0
96,264,62719,1,0
56,232,62813,1,0
40,184,62907,2,0,B|40:104|128:112,1,130
168,136,63188,1,0
216,112,63282,5,0
312,152,63469,2,0,L|456:152,3,130,0|0|0|8
440,256,64219,1,0
232,256,64594,1,0
288,168,64782,1,8
376,120,64969,1,0
328,320,65344,1,0
424,288,65532,1,8
464,192,65719,1,0
176,312,66282,5,12
344,192,66657,5,0
240,192,66844,1,0
240,88,67032,2,0,C|128:24|16:104,1,260,8|0
32,200,67594,2,0,C|32:336,1,130,0|8
128,296,67969,1,0
224,328,68157,2,0,C|224:176,1,130
328,184,68532,2,0,B|472:184|472:56|272:56,1,260,8|0
224,56,69094,2,0,C|80:56,1,130,0|8
96,160,69469,2,0,C|232:160,1,130
328,160,69844,6,0,L|432:160|432:240,1,130,0|8
424,288,70219,2,0,C|272:288,1,130
192,288,70594,2,0,L|112:288|112:232,1,130,0|8
112,136,70969,2,0,L|112:72|208:72,1,130,0|0
280,72,71344,2,0,L|352:72|352:176,1,130,0|8
352,232,71719,2,0,L|352:304|280:304,1,130
192,304,72094,2,8,L|48:304,1,130,0|8
24,208,72469,1,8
0,160,72563,1,8
24,112,72657,5,0
112,168,72844,1,0
200,112,73032,2,4,L|480:112,1,260,12|0
464,216,73594,1,0
360,216,73782,2,8,L|176:216|176:96,1,260,8|0
72,136,74344,1,0
72,240,74528,2,0,L|72:320|264:320,1,260,8|0
360,320,75094,2,0,L|360:48,1,260,8|0
256,192,75657,12,8,78282
32,208,78657,5,0
104,128,78844,1,0
176,208,79032,1,0
240,288,79219,1,0
304,200,79407,1,0
344,168,79500,1,0
384,200,79594,1,0
464,264,79782,1,0
376,320,79969,1,0
168,320,80345,1,12
104,240,80532,1,8
112,32,80907,1,12
176,112,81094,1,8
256,192,81465,12,0,82215
