osu file format v5

[General]
AudioFilename: Keys to the world.mp3
AudioLeadIn: 0
PreviewTime: 29153
Countdown: 1
SampleSet: Normal
StackLeniency: 0.7
Mode: 0
LetterboxInBreaks: 1

[Editor]
DistanceSpacing: 0.800000011920929
BeatDivisor: 4
GridSize: 8

[Metadata]
Title:Keys to the World
Artist:Planetboom
Creator:MoonFragrance
Version:Hard
Source:DJMAX
Tags:DJMAX

[Difficulty]
HPDrainRate:6
CircleSize:5
OverallDifficulty:7
SliderMultiplier:2.2
SliderTickRate:2

[Events]
//Background and Video events
0,0,"keys_to_the_world.jpg"
Video,-1200,"Umile_key.avi"
//Break Periods
2,15294,16332
2,42853,47007
//Storyboard Layer 0 (Background)
//Storyboard Layer 1 (Fail)
//Storyboard Layer 2 (Pass)
//Storyboard Layer 3 (Foreground)
//Storyboard Sound Samples
//Background Colour Transformations
3,100,163,162,255

[TimingPoints]
5153,375,4,2,0,90,1,0
14153,-100,4,1,0,90,0,0
82215,-100,4,1,0,0,0,0

[Colours]
Combo1 : 120,52,1
Combo2 : 255,255,0
Combo3 : 0,128,0
Combo4 : 232,94,2

[HitObjects]
448,96,9653,1,0
448,184,9841,2,0,B|320:184,5,110
336,272,10966,1,0
248,272,11154,1,0
160,272,11341,2,0,B|160:160,4,110
72,272,12279,1,0
72,96,12654,2,0,B|184:96,4,110
72,184,13590,1,0
160,184,13778,2,0,B|160:320,1,110
336,280,14341,6,0,B|336:168,3,110
336,80,15091,1,8
64,64,17530,5,12
224,128,17905,1,0
224,40,18092,1,0
312,40,18279,2,8,B|312:264,1,220,8|0
224,264,18842,1,0
224,176,19029,2,8,B|456:176,1,220,8|0
440,264,19592,1,0
352,264,19780,1,8
352,88,20154,6,8,B|120:88,1,220,0|8
128,176,20716,1,0
216,176,20905,1,0
304,176,21092,1,0
304,264,21280,1,8
216,264,21466,2,8,B|216:376,2,110,0|0|0
128,264,22030,1,8
128,176,22216,2,0,B|240:176,1,110
328,176,22592,1,0
416,176,22780,1,8
336,16,23155,5,4
280,80,23341,1,0
216,128,23529,2,0,B|104:128|40:272,1,220,12|0
48,336,24091,1,0
136,336,24279,2,0,B|272:336|272:184,1,220,8|0
272,112,24842,1,0
360,112,25029,2,8,B|480:112|472:272,1,220,8|0
472,352,25592,1,0
472,264,25779,2,8,B|312:264|312:136,1,220,8|0
320,328,26529,6,8,B|208:328,1,110,8|0
208,240,26905,1,0
208,152,27092,1,0
120,152,27280,1,8
32,152,27466,2,0,B|32:280,2,110
32,64,28030,1,8
120,64,28216,2,0,B|120:184,2,110
208,64,28780,1,8
208,240,29155,5,0
272,304,29341,1,0
328,240,29529,2,12,B|472:240|472:88,1,220,12|0
384,120,30091,1,0
296,96,30280,1,8
216,128,30466,1,0
136,88,30655,1,0
56,120,30841,1,0
56,32,31029,2,8,B|216:32|216:208,1,220,8|0
264,224,31591,1,0
328,168,31779,2,8,B|440:168|448:8,1,220,8|0
368,48,32341,5,0
288,80,32529,1,8
112,80,32905,1,0
112,256,33280,1,8
288,224,33654,5,0
352,168,33841,1,0
416,224,34029,1,0
352,280,34216,1,0
288,336,34404,2,0,B|240:288,2,55
208,296,34779,1,0
128,336,34966,1,0
64,272,35155,5,8
64,184,35341,1,0
64,96,35529,2,8,L|120:136|168:40|232:88,1,220
264,128,36091,1,0
344,88,36280,1,8
424,128,36466,1,0
344,176,36655,1,8
264,128,36841,1,0
176,120,37029,2,8,L|120:88|184:56|104:8,1,220
24,16,37591,1,0
24,104,37779,1,8
200,104,38154,5,12
376,96,38529,1,0
376,184,38716,1,8
288,192,38904,2,0,L|224:192|224:264,1,110
224,328,39278,1,8
136,328,39466,2,0,L|136:256|216:256,1,110
264,256,39841,1,0
352,256,40029,1,0
352,168,40216,1,8
264,168,40404,1,0
264,80,40591,1,12
392,312,41154,5,4
320,256,41341,1,0
248,304,41529,1,0
160,328,41716,1,12
80,288,41904,2,0,L|32:240,2,55
128,216,42279,1,0
208,248,42466,1,0
272,184,42650,5,4
64,152,47904,5,0
128,216,48091,1,0
64,280,48279,1,0
64,280,48372,1,0
64,280,48466,1,0
64,280,48560,1,0
64,280,48655,5,0
64,280,48841,2,0,B|288:280,1,220
360,280,49405,1,0
360,104,49779,1,0
360,104,49966,2,0,L|120:104,1,220
48,104,50529,1,0
48,280,50904,1,0
224,280,51279,1,0
312,280,51466,1,0
360,208,51654,5,0
320,128,51841,1,0
240,160,52029,1,0
168,208,52216,2,0,B|72:208|64:384,1,220
152,368,52779,1,0
216,304,52966,1,0
336,176,53341,1,0
272,112,53529,1,0
200,176,53717,1,0
128,224,53904,1,0
224,224,54092,1,0
312,224,54279,1,0
144,288,54654,5,4
232,288,54842,1,0
408,288,55216,1,4
408,200,55404,1,0
408,24,55780,1,4
320,24,55967,1,0
144,24,56342,1,4
56,24,56529,1,0
56,200,56905,1,4
232,200,57280,1,4
408,200,57655,5,4
360,128,57842,1,0
184,128,58217,1,4
128,200,58404,1,0
248,320,58780,1,4
312,264,58967,1,0
312,88,59342,1,4
248,24,59530,1,4
88,88,59905,1,4
88,264,60279,1,4
264,272,60655,5,4
264,184,60841,2,0,L|232:144|192:240|160:160,1,220
80,184,61404,1,0
80,360,61779,1,0
168,360,61966,2,0,L|128:320|208:288|144:240,1,220
144,152,62529,1,0
320,144,62904,1,0
320,320,63279,1,0
408,320,63462,6,0,L|408:208,3,110,0|0|0|8
320,208,64216,1,0
160,280,64591,1,0
192,200,64779,1,8
264,144,64966,1,0
440,152,65341,1,0
368,200,65525,1,8
328,280,65716,1,0
80,192,66279,5,12
256,192,66654,5,0
344,192,66841,1,0
344,104,67029,2,0,C|248:40|144:128,1,220,8|0
120,176,67591,2,0,C|120:296,1,110,0|8
256,176,68154,6,0,C|256:304,1,110
344,288,68529,2,0,C|344:64,1,220,8|0
256,64,69091,2,0,C|128:64,1,110,0|8
144,152,69466,2,0,C|272:152,1,110
336,152,69837,6,0,L|416:152|416:152|432:224,1,110,0|8
424,272,70216,2,0,C|312:272,1,110
224,272,70591,2,0,L|160:272|160:216,1,110,0|8
160,136,70966,2,0,L|160:72|248:72,1,110
296,72,71341,2,0,L|368:72|368:240,1,220
192,224,72091,2,8,L|72:224,1,110,0|8
32,152,72462,1,0
32,152,72556,1,8
32,152,72650,1,8
200,88,73029,6,4,L|424:88,1,220,4|12
456,184,73591,1,0
368,184,73779,2,8,L|120:184,1,220,0|8
56,184,74341,1,0
56,272,74529,2,8,L|296:272,1,220,0|8
360,272,75091,2,0,L|360:32,1,220
256,192,75654,12,8,78279
32,192,78654,5,0
96,136,78841,1,0
160,192,79029,1,0
224,248,79216,1,0
288,192,79404,1,0
288,192,79497,1,0
288,192,79591,1,0
360,248,79779,1,0
424,304,79966,1,0
248,312,80342,5,12
184,256,80529,1,8
184,80,80904,5,12
248,24,81091,1,8
256,192,81462,12,0,82212
