osu file format v9

[General]
AudioFilename: 04. Fuzzy Control - Planetboom.mp3
AudioLeadIn: 0
PreviewTime: 44361
Countdown: 1
SampleSet: Soft
StackLeniency: 0.7
Mode: 0
LetterboxInBreaks: 1

[Editor]
Bookmarks: 45570
DistanceSpacing: 0.8
BeatDivisor: 6
GridSize: 16

[Metadata]
Title:Fuzzy Control
Artist:Planetboom
Creator:Sy[K]es
Version:Normal
Source:
Tags:

[Difficulty]
HPDrainRate:2
CircleSize:3
OverallDifficulty:3
ApproachRate:2
SliderMultiplier:1.1
SliderTickRate:3

[Events]
//Background and Video events
0,0,"Space.jpg"
//Break Periods
2,21340,31191
2,90517,106656
//Storyboard Layer 0 (Background)
//Storyboard Layer 1 (Fail)
//Storyboard Layer 2 (Pass)
//Storyboard Layer 3 (Foreground)
//Storyboard Sound Samples
//Background Colour Transformations
3,100,163,162,255

[TimingPoints]
3726,483.753930500685,4,2,1,50,1,0
35170,-100,4,1,1,50,0,0
35653,-100,4,2,1,50,0,0
45570,-100,4,2,1,50,0,1
53068,-100,4,2,2,50,0,0

[Colours]
Combo1 : 134,183,193
Combo2 : 248,193,120
Combo3 : 120,120,252
Combo4 : 142,242,140

[HitObjects]
256,192,9531,1,4
256,96,10014,2,0,B|352:32,1,110
384,80,10740,1,0
400,124,10982,6,0,B|368:188,2,55
256,208,11949,1,8
256,208,12433,2,0,B|304:208|304:208|384:176,1,110
272,128,13401,5,4
272,128,13884,2,2,B|320:96|320:96|320:96|384:96,1,110
176,192,14852,6,2,B|128:224|128:224|112:288,1,110
160,320,15577,1,4
224,320,15819,2,2,B|272:304|272:304|320:256,2,110,0|8|4
256,192,17271,12,4,19206
256,192,19931,6,0,B|288:128,2,55,0|0|8
208,240,20657,6,0,B|144:272,2,55,0|0|4
256,192,32751,5,4
160,128,33234,1,0
64,192,33718,1,0
160,256,34202,6,0,B|256:320,1,110
352,320,35170,2,0,B|368:288|352:256,2,55
288,224,36137,5,0
256,128,36621,2,0,B|368:64,1,110,0|8
256,128,37588,2,0,B|176:208,1,110,8|0
96,240,38556,5,4
254,216,39040,1,0
128,128,39524,2,8,B|78:152,2,55,8|0|8
256,224,40491,6,0,B|256:96,1,110,4|4
352,160,41458,1,0
256,208,41942,1,8
256,112,42426,5,4
176,144,42910,2,0,B|128:112|64:128,1,110
112,224,43877,2,0,B|160:256|224:240,1,110,0|4
256,224,44603,5,8
304,240,44845,2,0,B|416:256,1,110,8|10
464,176,45812,5,4
416,96,46296,2,0,B|320:160,1,110,8|0
288,128,47021,1,0
256,80,47263,6,0,B|208:192,1,110,8|4
176,208,47989,1,8
192,256,48231,6,0,B|288:320,1,110,8|2
352,256,49198,5,2
432,192,49682,2,2,B|416:80,1,110,0|2
320,144,50650,1,0
208,96,51133,6,0,B|240:208,1,110,4|2
208,240,51859,1,2
256,272,52101,6,4,B|368:272,1,110,8|0
416,192,53068,1,0
352,128,53552,5,0
352,128,54036,6,0,B|304:96|240:112,2,110,2|8|0
336,208,55487,6,0,B|304:256|224:272,1,110
192,224,56455,1,8
112,240,56938,2,0,B|96:208|96:208|112:128,1,110,4|4
272,144,57906,6,0,B|288:176|288:176|272:256,1,110,8|0
352,112,58873,1,0
368,208,59357,6,0,B|368:320,1,110
288,160,60325,6,0,B|208:240,1,110,0|4
160,240,61050,5,8
112,208,61292,2,0,B|80:96,1,110,4|0
176,128,62260,1,0
144,224,62743,6,0,B|208:224|240:160,1,110,8|8
240,272,63711,2,0,B|293:245|288:176,1,110,4|0
336,160,64437,5,8
384,128,64678,5,0
432,160,64920,1,8
384,208,65162,2,0,B|384:320,1,110,2|4
336,336,65888,5,4
288,320,66130,2,4,B|288:192,1,110,8|4
240,176,66855,5,2
192,96,67339,1,2
128,96,67581,6,2,B|64:192,1,110
160,256,68549,2,2,B|160:304|144:336|192:352|160:352,2,82.5
160,256,69516,1,4
256,208,70000,6,0,B|256:80,1,110,2|0
336,256,70967,2,0,B|416:336,1,110,4|0
224,288,71935,2,0,B|112:336,1,110,0|4
80,288,72660,5,8
128,192,73144,5,8
80,160,73386,6,0,B|32:48,1,110,4|0
192,48,74112,5,8
224,64,74354,2,8,B|320:128,1,110,8|2
112,272,75321,1,0
160,256,75563,1,2
208,272,75805,2,0,B|304:208,1,110,8|4
240,112,76772,5,8
240,112,77256,1,8
304,160,77740,6,8,B|336:208,1,55,0|8
288,240,78224,2,8,B|240:176,3,55,8|8|0|8
128,288,79433,1,8
80,256,79675,6,8,B|64:192,2,55,8|8|8
128,224,80400,1,4
176,192,80642,1,4
256,176,81126,6,0,B|304:96|416:128,2,165,4|0|4
352,224,83061,1,0
256,224,83545,2,0,B|256:144,2,55,0|8|0
208,160,84271,5,8
112,96,84754,1,8
96,144,84996,6,0,B|96:224,1,55,4|0
144,224,85480,6,0,B|144:336,1,110,0|8
224,336,86447,2,8,B|224:226,1,110
272,224,87173,2,4,B|272:114,1,110,0|4
272,114,87899,5,8
272,114,88141,1,8
208,112,88382,6,0,B|96:144,1,110,0|8
96,224,89350,1,4
144,288,89834,6,0,B|208:288,2,55
256,192,108216,6,2,B|256:128|320:96,1,110,4|2
240,96,108942,1,8
192,64,109184,6,2,B|128:64|96:0,1,110,8|2
64,48,109909,1,0
32,96,110151,1,8
64,144,110393,5,0
128,160,110635,2,0,B|144:192,4,27.5,0|0|8|0|8
112,224,111361,1,8
160,272,111603,5,0
208,224,111845,1,0
256,272,112086,2,0,B|368:320,1,110,4|8
336,240,113054,6,0,B|448:224,1,110,0|8
384,176,114021,6,0,B|272:128,1,110,8|0
320,96,114747,5,8
384,112,114989,2,0,B|464:32,1,110,4|0
256,192,115956,12,4,117891
