osu file format v9

[General]
AudioFilename: Fuzzy Control.mp3
AudioLeadIn: 1000
PreviewTime: -1
Countdown: 1
SampleSet: Normal
StackLeniency: 1
Mode: 0
LetterboxInBreaks: 1

[Editor]
Bookmarks: 36311
DistanceSpacing: 0.8
BeatDivisor: 2
GridSize: 4

[Metadata]
Title:Fuzzy Control
Artist:Planetboom
Creator:[D]avideTheBest[ITA]
Version:Ver-ginner
Source:S4 League
Tags:[D]avideTheBest[ITA]

[Difficulty]
HPDrainRate:2
CircleSize:4
OverallDifficulty:4
ApproachRate:4
SliderMultiplier:0.999999999999999
SliderTickRate:1

[Events]
//Background and Video events
0,0,"S4 League.jpg"
//Break Periods
2,36496,42718
2,92625,96186
//Storyboard Layer 0 (Background)
//Storyboard Layer 1 (Fail)
//Storyboard Layer 2 (Pass)
//Storyboard Layer 3 (Foreground)
//Storyboard Sound Samples
//Background Colour Transformations
3,100,163,162,255

[TimingPoints]
490,483.870967741935,4,1,0,50,1,0
44024,-66.6666666666667,4,1,0,50,0,1
51523,-100,4,1,0,50,0,0
51765,-66.6666666666667,4,1,0,50,0,1
59263,-100,4,1,0,50,0,0
67246,-100,4,1,0,40,0,0
100167,-66.6666666666667,4,1,0,40,0,0
107885,-100,4,1,0,40,0,0
115867,-100,4,1,0,40,0,0
117318,-100,4,1,0,40,0,0
123366,-100,4,1,0,40,0,0
138847,-66.6666666666667,4,1,0,100,0,1
156296,-66.6666666666667,4,1,0,5,0,0

[Colours]
Combo1 : 255,128,64
Combo2 : 5,240,5
Combo3 : 5,5,240
Combo4 : 0,255,255

[HitObjects]
80,168,20812,2,2,B|96:72|332:72|332:200,1,300
252,196,22748,2,2,B|268:292|504:292|504:164,1,300
420,180,24683,2,2,B|404:84|168:84|168:212,1,300
252,196,26619,2,2,B|236:292|0:292|0:164,1,300
80,172,28554,5,4
384,76,30489,1,4
140,284,32425,1,4
460,284,34360,1,4
196,116,36296,1,4
40,288,44038,6,10,B|40:68|464:64|464:304,2,599.999982118607
160,304,48393,2,8,B|324:240,1,149.999995529652
196,184,49360,2,8,B|328:96,1,149.999995529652
440,84,50328,2,8,B|452:252,1,149.999995529652
344,284,51296,1,4
472,288,51780,6,10,B|472:68|48:64|48:304,2,599.999982118607
352,304,56135,2,8,B|188:240,1,149.999995529652
316,184,57102,2,8,B|184:96,1,149.999995529652
72,84,58070,2,8,B|60:252,1,149.999995529652
168,284,59038,1,4
256,192,59522,12,0,61457
108,312,61941,6,10,B|240:140,1,200
300,192,63393,2,10,B|32:60,1,300
96,104,65328,1,0
96,184,65812,2,2,B|248:312,1,200
324,280,67264,1,0
400,256,67748,2,2,B|324:68,1,200
316,152,69199,6,0,B|316:40,3,99.9999999999999,8|0|8|0
236,52,71135,2,0,B|236:160,3,99.9999999999999,8|0|8|0
156,156,73070,2,0,B|156:40,3,99.9999999999999,8|0|8|0
76,48,75006,2,0,B|76:160,3,99.9999999999999,8|0|8|0
156,164,76941,5,8
228,196,77425,2,0,B|444:196,1,200
348,188,78877,1,0
272,168,79360,1,0
220,116,79844,1,0
216,36,80328,1,0
136,36,80812,2,0,B|32:208,1,200
108,228,82264,1,0
164,288,82748,2,0,B|248:348|392:280,1,200
352,216,84199,1,0
344,136,84683,5,8
284,188,85167,2,0,B|68:188,1,200
164,180,86619,1,0
232,220,87102,1,0
292,268,87586,1,0
296,348,88070,1,0
376,348,88554,2,0,B|480:176,1,200
404,156,90006,1,0
348,96,90490,2,0,B|264:36|120:104,2,200
256,192,97506,12,0,99925
268,280,100167,6,0,B|272:4|132:4|132:308,1,449.999986588955
244,280,102102,2,0,B|240:4|380:4|380:308,1,449.999986588955
488,220,104038,1,0
472,128,104522,2,0,B|180:24,1,299.999991059303
124,96,105973,1,0
108,176,106457,1,0
156,240,106941,1,0
224,280,107425,1,0
316,152,107909,6,0,B|316:40,3,99.9999999999999,8|0|8|0
236,52,109845,2,0,B|236:160,3,99.9999999999999,8|0|8|0
156,156,111780,2,0,B|156:40,3,99.9999999999999,8|0|8|0
76,48,113716,2,0,B|76:160,3,99.9999999999999,8|0|8|0
76,228,115651,6,0,B|76:340,3,99.9999999999999,8|0|8|0
156,328,117587,2,0,B|156:220,3,99.9999999999999,8|0|8|0
220,180,119522,2,0,B|220:296,3,99.9999999999999,8|0|8|0
196,204,121458,2,0,B|196:92,3,99.9999999999999,8|0|8|0
172,28,123393,6,0,B|44:212|332:276,1,350
340,276,125328,2,0,B|468:92|180:28,1,350
172,52,127264,2,0,B|136:92|136:92|212:116|212:116|136:136|136:136|200:172|200:172|136:212,1,350
156,244,129199,2,0,B|156:332|156:332|280:332|280:228|280:228|396:228,1,350
392,208,131135,2,0,B|392:80|392:80|172:76,1,350
132,80,133070,2,0,B|132:244|132:244|332:244,1,350
256,192,135006,12,0,136699
256,192,136941,12,0,138635
256,196,138877,6,0,B|432:108,3,149.999995529652
280,84,140812,2,0,B|92:84,3,149.999995529652
160,200,142748,1,0
61,233,143232,2,8,B|72:84,1,149.999995529652
191,100,144200,2,8,B|316:184,1,149.999995529652
352,304,145167,2,8,B|212:249,1,149.999995529652
108,192,146135,1,4
40,96,146619,6,10,B|40:316|464:320|464:80,2,599.999982118607
160,80,150974,2,8,B|324:144,1,149.999995529652
204,204,151941,2,8,B|336:292,1,149.999995529652
448,280,152909,2,8,B|436:112,1,149.999995529652
324,88,153877,1,4
256,192,154360,12,0,156266
