osu file format v9

[General]
AudioFilename: Pixie Lott - Boys and girls.mp3
AudioLeadIn: 0
PreviewTime: 36958
Countdown: 1
SampleSet: Normal
StackLeniency: 0.7
Mode: 0
LetterboxInBreaks: 1
CountdownOffset: 1

[Editor]
Bookmarks: 134018
DistanceSpacing: 0.8
BeatDivisor: 2
GridSize: 8

[Metadata]
Title:Boys And Girls
Artist:Pixie Lott
Creator:-lalalala-
Version:Normal
Source:
Tags:

[Difficulty]
HPDrainRate:7
CircleSize:4
OverallDifficulty:7
ApproachRate:5
SliderMultiplier:1.5
SliderTickRate:2

[Events]
//Background and Video events
0,0,"pixie lott background.jpg"
//Break Periods
2,123383,138136
//Storyboard Layer 0 (Background)
//Storyboard Layer 1 (Fail)
//Storyboard Layer 2 (Pass)
//Storyboard Layer 3 (Foreground)
//Storyboard Sound Samples
//Background Colour Transformations
3,100,163,162,255

[TimingPoints]
425,461.500000000001,4,1,0,51,1,0
37327,-100,4,1,0,51,0,1
61306,-100,4,1,0,51,0,0
94553,-100,4,1,0,51,0,1
124163,-100,4,1,0,51,0,0
139076,-100,4,1,0,7,0,0
142307,-100,4,1,0,15,0,0
143691,-100,4,1,0,21,0,0
144153,-100,4,1,0,30,0,0
144614,-100,4,1,0,37,0,0
149922,-100,4,1,0,51,0,0
150429,-100,4,1,0,59,0,1
179487,-100,4,1,0,100,0,0

[HitObjects]
96,296,7809,2,8,B|96:136,1,150
224,296,8732,2,8,B|224:96,1,150
328,88,9655,2,0,B|488:88,1,150
328,160,10578,2,2,B|328:320,1,150
232,312,11501,5,2
232,232,11962,1,2
232,152,12424,1,2
232,72,12885,1,2
144,72,13347,2,2,B|24:192|152:328,1,225
184,288,14270,2,2,B|184:80,1,150
264,224,15193,6,2,B|328:320|432:232|432:232,1,150
408,192,16116,2,2,B|360:120|272:160,1,150
272,64,17039,1,2
160,64,17500,1,2
160,160,17962,1,2
160,256,18423,1,2
88,200,18885,1,2
88,200,19346,1,2
176,152,19808,6,2,B|232:152|344:152,1,150
328,224,20731,2,0,B|432:224|528:224,1,150
472,136,21654,2,2,B|424:48|424:48,2,75
376,136,22577,1,2
296,136,23038,5,2
216,136,23500,1,2
136,136,23961,1,2
136,56,24423,2,2,B|296:56,1,150
288,184,25346,2,2,B|448:184,2,150
144,184,26730,5,2
144,280,27192,1,2
232,224,27653,1,2
232,128,28115,1,2
232,128,28576,1,2
328,96,29038,2,2,B|384:72|368:168,2,75
376,224,29961,2,0,B|200:224,2,150
376,144,31345,5,0
328,104,31807,1,2
280,144,32268,1,2
328,184,32730,1,2
376,144,33191,1,2
328,104,33653,1,2
256,104,34114,6,2,B|72:104,2,150
256,192,35499,1,6
256,192,35960,1,6
256,192,36422,1,6
248,96,36883,6,10,B|344:104|328:232,1,150
192,136,37806,2,0,B|176:224|288:240,2,150
56,96,39191,1,0
56,192,39652,1,0
144,192,40114,1,0
232,192,40575,1,0
328,120,41037,6,2,B|328:280,4,150
248,192,43344,1,2
248,192,43575,1,2
248,192,43806,1,2
200,272,44267,1,0
168,192,44729,6,2,B|112:136|168:64|208:80|216:96,2,150
168,288,46113,1,2
432,288,46575,1,2
312,144,47036,1,2
320,56,47498,2,2,B|224:56|216:184,1,150
168,312,48421,6,0,B|88:240|176:168,2,150
56,312,49805,2,0,B|56:136,1,150
152,96,50728,1,2
152,96,51190,1,2
240,96,51651,6,2,B|256:144|256:160|240:192|224:224|160:232|104:216,2,225
208,144,53497,1,2
208,64,53959,1,2
272,104,54420,1,2
272,104,54882,1,0
400,96,55343,6,2,B|392:176|352:256|256:248|208:208,2,225
224,216,57189,1,0
224,128,57651,1,2
224,48,58112,1,2
152,88,58574,1,2
104,200,59035,6,2,B|40:104|64:0|168:8|264:8|320:136,2,375
256,192,62266,1,0
184,136,62727,1,0
256,96,63189,1,0
328,136,63650,1,0
256,192,64112,2,0,B|256:72,2,75
256,192,65035,6,2,B|152:208,1,75
256,192,65496,2,2,B|352:208,1,75
256,192,65958,2,2,B|256:88,2,75
168,192,66881,2,0,B|48:192|96:48,2,150
224,160,68265,2,0,B|224:56|120:72,1,150
256,192,69188,12,0,71957
272,112,72419,6,2,B|128:200|320:216,1,150
328,216,73342,2,2,B|368:280|224:280,1,150
216,352,74265,1,2
264,280,74726,1,2
160,280,75188,1,2
160,208,75649,2,2,B|160:48,1,150
232,56,76572,2,2,B|416:56,1,150
256,192,77495,12,0,79803
128,288,80264,6,0,B|32:192|24:32|232:-56|360:-8|432:120|472:200|352:328,1,750
248,240,83033,1,0
336,176,83495,1,0
248,160,83956,6,2,B|120:184,1,75
248,160,84418,2,2,B|336:176,1,75
248,160,84879,2,2,B|248:64,1,75
328,160,85341,2,2,B|328:344,2,150
248,280,86725,1,2
248,280,87187,5,2
248,192,87648,1,2
248,192,88110,1,2
144,272,88571,2,0,B|144:112,3,150
232,120,90417,2,0,B|328:120,2,75
232,208,91340,6,0,B|232:312|232:312|328:312|328:312|328:192,1,300
200,128,92725,1,2
256,128,93186,1,2
312,128,93648,1,2
256,64,94109,6,0,B|256:152,2,75
256,192,95032,6,0,B|256:360,1,150
176,192,95955,2,0,B|176:352,1,150
248,200,96878,2,2,B|176:144|80:208,1,150
248,200,97801,2,2,B|336:144|432:232,1,150
384,264,98724,2,2,B|328:344|200:224,3,150
256,192,100570,1,2
256,192,101032,1,2
312,120,101493,1,0
312,120,101955,5,8
360,192,102416,1,8
360,192,102878,1,0
384,96,103339,2,8,B|272:104|248:216|200:296,2,225
360,248,105185,6,8,B|344:160|216:80,2,225
392,88,107031,2,8,B|296:120|200:280,2,225
256,192,108877,5,8
256,192,109339,1,8
256,112,109800,1,8
256,112,110262,1,8
256,192,110723,2,8,B|216:296|128:176,3,150
256,192,112569,5,8
256,192,113031,1,8
256,112,113492,1,8
256,112,113954,1,8
376,192,114415,2,8,B|288:288|240:160,3,150
256,192,116261,5,8
256,192,116723,1,8
256,112,117184,1,8
256,112,117646,1,8
256,192,118107,2,8,B|176:272|128:168,3,150
256,192,119953,5,8
256,192,120415,1,8
256,112,120876,1,8
256,112,121338,1,8
256,192,121799,2,8,B|336:272|408:176,3,150
248,120,139336,6,0,B|240:16|368:40|400:56,2,150
360,200,140721,2,8,B|384:336|208:336,2,225
256,192,142567,1,8
256,192,143028,1,8
256,192,143490,1,8
256,120,143951,1,0
256,120,144413,1,8
256,120,144874,1,8
256,192,145336,12,8,149951
200,256,150412,6,0,B|120:176|208:88,1,150
312,256,151335,2,0,B|384:192|328:104,1,150
256,192,152258,1,8
256,192,152720,1,8
240,304,153181,6,0,B|80:248|112:192|24:48|208:0|248:136|248:136|336:-16|464:80|440:240|208:312,1,900
248,192,156412,1,0
200,264,156873,2,0,B|128:168|216:80,2,150
312,264,158258,2,0,B|392:160|296:72,2,150
304,32,159642,1,8
192,32,160104,1,8
248,96,160565,5,8
248,176,161027,2,2,B|248:320,4,75
328,176,162411,2,2,B|440:256|288:312,3,150
256,192,164257,12,2,165642
256,224,166103,5,0
216,184,166565,1,2
256,136,167026,1,2
288,184,167488,1,2
256,192,167949,12,2,169334
264,224,169795,5,2
216,176,170257,1,2
264,136,170718,1,2
304,176,171180,1,2
256,192,171641,12,2,173026
256,224,173487,5,2
208,176,173949,1,2
256,136,174410,1,2
304,176,174872,1,2
256,192,175333,12,2,176718
256,192,177179,5,2
256,192,177641,2,2,B|192:304|72:200|128:16|392:16|384:232|288:360|112:264,1,600
