osu file format v9

[General]
AudioFilename: Pixie Lott - Boys and girls.mp3
AudioLeadIn: 574
PreviewTime: 36958
Countdown: 1
SampleSet: Normal
StackLeniency: 0.7
Mode: 0
LetterboxInBreaks: 1

[Editor]
DistanceSpacing: 0.8
BeatDivisor: 2
GridSize: 8

[Metadata]
Title:Boys And Girls
Artist:Pixie Lott
Creator:-lalalala-
Version:Easy
Source:
Tags:

[Difficulty]
HPDrainRate:2
CircleSize:3
OverallDifficulty:2
ApproachRate:2
SliderMultiplier:1.1
SliderTickRate:0.5

[Events]
//Background and Video events
0,0,"pixie lott background.jpg"
//Break Periods
2,123381,137777
//Storyboard Layer 0 (Background)
//Storyboard Layer 1 (Fail)
//Storyboard Layer 2 (Pass)
//Storyboard Layer 3 (Foreground)
//Storyboard Sound Samples
//Background Colour Transformations
3,100,163,162,255

[TimingPoints]
396,461.680517082179,4,1,0,39,1,0
36690,-100,4,1,0,39,0,1
61306,-100,4,1,0,39,0,0
94248,-100,4,1,0,39,0,1
124163,-100,4,1,0,39,0,0
139130,-100,4,1,0,6,0,0
140516,-100,4,1,0,13,0,0
142131,-100,4,1,0,19,0,0
143055,-100,4,1,0,26,0,0
143934,-100,4,1,0,33,0,0
147902,-100,4,1,0,41,0,0
148826,-100,4,1,0,45,0,0
150211,-100,4,1,0,61,0,0
150429,-100,4,1,0,61,0,1

[Colours]
Combo1 : 255,190,159
Combo2 : 242,242,242

[HitObjects]
216,192,5473,2,0,B|376:192|360:200,1,110
328,280,6396,2,0,B|176:280,1,110
136,280,7320,2,0,B|136:48,1,220
216,64,8704,1,2
296,64,9166,1,2
376,64,9628,5,2
376,192,10089,1,0
296,192,10551,1,0
216,192,11012,1,0
216,80,11474,6,0,B|168:88|120:104|80:128|80:296,1,275
176,192,12859,1,2
280,272,13320,2,0,B|144:272,1,110
88,272,14244,1,2
88,192,14705,1,2
88,112,15167,2,2,B|144:104|176:200,1,110
288,184,16090,6,2,B|352:160|344:336,2,165
176,184,17936,6,2,B|176:48,1,110
64,184,18860,2,2,B|64:48,2,110
160,184,20244,1,0
160,272,20706,1,8
256,272,21168,1,2
256,184,21629,1,8
256,88,22091,2,8,B|376:88,3,110
176,288,23937,6,2,B|176:160,1,110
272,288,24860,2,2,B|272:144,1,110
272,88,25784,6,2,B|160:88,1,110
160,192,26707,2,4,B|296:192,1,110
368,192,27630,1,0
248,192,28092,1,0
248,280,28553,1,4
160,280,29015,1,4
160,192,29476,1,4
248,192,29938,5,0
328,192,30400,2,4,B|464:192,2,110
328,112,31784,2,0,B|112:112|152:232,1,220
256,192,33169,5,2
256,192,33631,1,2
256,192,34092,1,2
256,104,34554,2,0,B|368:104,1,110
328,224,35477,2,0,B|312:296|224:312|216:288,1,110
248,224,36400,2,2,B|248:64,1,110
160,64,37324,6,2,B|96:104|104:184,1,110
104,160,38247,1,0
104,280,38708,5,2
184,280,39170,1,2
264,280,39632,1,2
344,280,40093,1,2
424,280,40555,1,2
424,184,41016,6,2,B|184:184,1,220
200,88,42401,2,2,B|56:88,1,110
88,184,43324,2,2,B|88:304,1,110
184,288,44248,6,2,B|296:288,1,110
296,200,45171,2,2,B|296:88,1,110
256,192,46094,12,2,47479
336,112,47940,6,2,B|464:112,2,110
144,112,49325,2,0,B|304:112,3,110
256,192,51642,2,0,B|128:192,3,110
256,192,55326,6,0,B|368:192,3,110
256,192,59019,6,8,B|128:192,3,110
256,56,61788,2,8,B|256:288,1,220
256,352,63173,2,8,B|400:352,1,110
368,272,64096,5,8
256,272,64558,1,8
256,176,65020,5,8
256,80,65481,2,8,B|400:80,1,110
368,176,66404,5,8
368,264,66866,5,8
280,264,67328,1,8
280,176,67789,1,8
192,176,68251,1,8
192,264,68712,1,8
104,264,69174,1,8
104,184,69636,1,8
192,184,70097,1,0
272,184,70559,6,8,B|400:184,3,110
472,184,72867,5,12
472,280,73328,1,8
376,280,73790,1,10
280,280,74252,1,12
184,280,74713,1,12
184,184,75175,1,12
184,80,75636,2,12,B|24:80,5,110
144,208,78406,6,0,B|112:136|8:160|-16:256|64:376|264:320|248:104|232:112,2,440
152,104,82560,6,0,B|152:8,2,55
248,104,83484,1,0
344,104,83945,1,2
344,192,84407,1,2
344,296,85330,6,2,B|200:296,1,110
232,224,86253,2,2,B|232:120,2,55
152,224,87176,6,2,B|32:224,1,110
40,144,88100,2,2,B|40:24,1,110
120,32,89023,6,2,B|272:32,1,110
232,168,89946,2,0,B|232:88,1,55
304,168,90408,2,2,B|304:104,1,55
376,168,90869,2,2,B|376:104,2,55
384,32,91792,2,0,B|144:32,2,220
368,192,94100,6,0,B|296:192,2,55
368,280,95024,1,0
288,280,95485,1,0
208,280,95947,1,0
256,192,96408,6,0,B|376:192,1,110
440,192,97332,6,0,B|440:48,1,110
256,192,98255,6,0,B|336:192|328:320|200:344|128:208|152:112|304:80|328:96,2,385
256,192,101948,5,8
256,96,102427,1,8
160,96,102871,1,8
160,192,103332,5,8
64,192,103794,1,8
64,96,104274,1,8
160,96,104717,1,8
256,96,105179,2,2,B|440:96,2,165
160,96,107025,6,2,B|160:256,1,110
256,200,107948,2,2,B|256:80,1,110
256,192,108872,12,0,110257
216,200,110718,6,2,B|216:144,1,55
288,200,111180,2,10,B|288:128,4,55
256,192,112564,12,0,113949
224,192,114411,6,2,B|224:88,1,55
304,192,114872,2,2,B|304:112,4,55
256,192,116277,12,0,117662
192,200,118124,6,0,B|192:128,1,55
256,200,118586,6,0,B|256:112,4,55
256,192,119971,12,0,121356
216,192,121796,6,0,B|216:112,1,55
288,192,122258,6,0,B|288:120,4,55
144,288,139337,6,0,B|136:72|240:32|320:80|360:176|344:320,2,495
256,192,143953,12,0,147645
168,248,148108,6,2,B|112:112,1,110
240,248,149031,2,2,B|288:136,2,110
144,248,150442,5,2
144,152,150877,1,2
240,152,151339,1,2
240,248,151827,1,8
344,248,152262,1,8
344,152,152724,1,8
456,152,153185,1,4
344,56,153647,6,4,B|464:56,2,110
264,56,155032,2,0,B|8:56,1,220
40,136,156416,5,0
40,136,156905,1,0
128,192,157340,1,2
128,192,157801,1,2
128,288,158263,2,2,B|72:272|48:256|16:184|32:136|80:104,2,220
224,288,160571,1,2
320,288,161032,6,0,B|320:168,2,110
120,288,162417,6,0,B|264:288,3,110
408,296,164264,6,2,B|408:232,2,55
312,296,165187,6,2,B|312:200,2,55
256,192,166110,12,0,167495
176,192,167986,6,0,B|176:112,2,55
256,192,168909,6,2,B|256:112,2,55
256,192,169803,12,0,171188
216,192,171649,6,0,B|216:112,2,55
296,192,172602,6,0,B|296:88,2,55
256,192,173496,12,0,174881
216,192,175342,6,8,B|216:104,1,55
288,192,175804,6,8,B|288:128,1,55
360,192,176265,2,2,B|360:96,4,55
288,280,177681,2,0,B|192:328|104:208|200:72|304:144,1,330
