osu file format v5

[General]
AudioFilename: 06-cave-story-gravity-.mp3
AudioLeadIn: 0
AudioHash: a01951ad9eff8dd3472eeff0be64b5f0
PreviewTime: -1
Countdown: 1
SampleSet: Normal
EditorBookmarks: 13701,24712

[Metadata]
Title:Gravity
Artist:Pixel Studio
Creator:Vic
Version:Monster X

[Difficulty]
HPDrainRate:5
CircleSize:5
OverallDifficulty:6
SliderMultiplier:1.5
SliderTickRate:1

[Events]
//Background and Video events
//Break Periods
//Storyboard Layer 0 (Background)
//Storyboard Layer 1 (Failing)
//Storyboard Layer 2 (Passing)
//Storyboard Layer 3 (Foreground)
//Storyboard Sound Samples
//Background Colour Transformations
3,100,163,162,255

[TimingPoints]
1335,688.231245698555,4,1,0,100

[HitObjects]
256,32,1335,1,0
96,160,2711,1,0
320,160,4087,2,0,B|320:160|416:160,2,75
224,160,5464,1,0
384,32,6840,2,0,B|384:32|384:128,2,75
384,128,8217,1,0
192,192,9593,1,0
320,32,10970,2,0,B|320:32|416:32,2,75
320,128,12346,6,0,B|320:128|160:128,1,150
32,192,13723,5,0
224,192,15099,1,0
288,192,15443,1,0
352,192,15787,1,0
448,192,16476,2,0,B|448:192|448:32,1,150
256,32,17852,2,0,B|256:32|96:32,1,150
480,192,19229,5,0
288,192,20605,1,0
224,192,20949,1,0
160,192,21293,1,0
64,192,21981,2,0,B|64:192|64:32,1,150
256,32,23358,2,0,B|256:32|416:32,1,150
256,352,24734,5,0
256,224,26111,1,0
256,160,26455,1,0
256,96,26799,1,0
256,32,27487,2,0,B|256:32|416:32,1,150
480,32,28864,2,0,B|480:32|480:192,1,150
256,32,30240,5,0
256,160,31617,1,0
256,224,31961,1,0
256,288,32305,1,0
256,352,32993,2,0,B|256:352|96:352,1,150
32,352,34370,2,0,B|32:352|32:192,1,150
256,192,35746,12,0,37811
32,192,38671,1,0
64,192,38843,1,0
160,192,39359,1,0
192,192,39531,1,0
256,192,39875,2,0,B|256:192|416:192,1,150
480,32,41252,5,0
448,64,41424,1,0
416,96,41596,1,0
384,128,41768,1,0
320,192,42112,1,0
288,224,42284,1,0
224,288,42628,2,0,B|224:288|128:320|160:192,1,150
32,32,44005,5,0
64,64,44177,1,0
96,96,44349,1,0
128,128,44521,1,0
176,176,44865,1,0
208,208,45037,1,0
256,256,45381,2,0,B|256:256|288:320|416:224|320:192,2,150
160,256,47102,5,0
160,192,47446,1,0
160,96,48134,1,0
160,32,48478,1,0
224,32,48822,1,0
320,32,49511,1,0
384,32,49855,1,0
384,96,50199,1,0
448,160,50887,1,0
448,224,51231,1,0
384,224,51575,1,0
288,192,52264,5,0
224,192,52608,1,0
160,192,52952,1,0
160,96,53640,1,0
224,96,53984,1,0
288,96,54328,1,0
288,192,55017,2,0,B|288:192|384:192,2,75
192,192,56393,2,0,B|192:192|192:96|192:128,2,75
