osu file format v7

[General]
AudioFilename: Moonsong.mp3
AudioLeadIn: 0
PreviewTime: 18401
Countdown: 0
SampleSet: Soft
StackLeniency: 0.7
Mode: 0
LetterboxInBreaks: 1

[Editor]
DistanceSpacing: 0.800000011920929
BeatDivisor: 1
GridSize: 8

[Metadata]
Title:Moonsong
Artist:Pixel
Creator:Xgor
Version:Easy
Source:Cave Story
Tags:Outer Wall Doukutsu Monogatari Moon song Daisuke Amaya

[Difficulty]
HPDrainRate:1
CircleSize:3
OverallDifficulty:2
SliderMultiplier:0.9
SliderTickRate:1

[Events]
//Background and Video events
0,0,"OuterWall_Paper___by_Mighty183.png"
//Break Periods
//Storyboard Layer 0 (Background)
//Storyboard Layer 1 (Fail)
//Storyboard Layer 2 (Pass)
//Storyboard Layer 3 (Foreground)
//Storyboard Sound Samples
//Background Colour Transformations
3,100,163,162,255

[TimingPoints]
1117,480.115227654637,4,2,0,60,1,0
9278,-200,4,2,0,60,0,0
17918,-100,4,2,0,60,0,0

[Colours]
Combo1 : 210,214,103
Combo2 : 157,157,159
Combo3 : 98,101,147
Combo4 : 89,91,189

[HitObjects]
96,48,3037,1,0
96,192,3997,1,2
96,336,4957,1,4
416,48,6877,5,0
416,192,7838,1,2
416,336,8798,1,4
160,192,10718,6,0,B|256:144|256:248|336:192,1,180,0|0
472,192,13599,1,2
328,196,14559,6,0,B|256:248|256:144|160:192,1,180
16,192,17440,1,4
128,80,18400,6,0,B|296:192|296:0|496:88,1,360,2|2
128,304,22241,2,0,B|296:192|296:384|496:296,1,360,2|2
176,192,26082,5,0
256,336,27042,1,8
336,192,28002,1,2
256,48,28963,2,0,B|256:144,1,90,8|0
256,216,29923,5,4
176,72,30883,1,8
336,72,31843,1,2
256,216,32804,1,4
256,216,33284,1,0
224,288,33764,6,0,B|96:312|16:272|0:192,1,270,2|0
8,112,35684,2,0,B|135:88|215:128|230:205,1,270,4|0
288,288,37605,6,0,B|416:312|496:272|512:192,1,270,2|0
504,112,39525,2,0,B|376:88|296:128|281:205,1,270,6|0
256,280,41446,5,0
96,240,42406,1,8
256,200,43366,1,2
256,32,44326,2,0,B|256:128,1,90,8|0
256,200,45287,5,4
112,272,46247,1,8
256,344,47207,1,2
400,272,48167,1,4
448,72,49128,6,0,B|304:72,1,135,0|2
192,72,50568,2,0,B|48:72,1,135,0|2
152,152,52008,2,0,B|152:256,1,90,8|0
80,312,52968,6,0,B|224:312,1,135,0|2
336,312,54409,2,0,B|480:312,1,135,0|2
376,232,55849,2,0,B|376:128,1,90,2|8
312,88,56809,5,0
312,88,57530,1,2
200,88,58250,1,0
200,88,58970,1,2
256,192,59690,2,0,B|256:296,1,90,8|0
176,256,60650,5,0
176,256,61371,1,2
176,136,62091,1,0
176,136,62811,1,2
256,40,63531,1,4
360,168,64491,6,0,B|400:240|352:312,3,135,0|2|0|2
256,232,67372,2,0,B|128:232,1,90,8|0
112,168,68332,6,0,B|72:232|120:304,3,135,0|2|0|2
232,304,71213,1,4
312,304,71693,1,8
392,304,72173,6,0,B|432:240|384:168,3,135,0|2|0|0
296,112,75054,1,2
216,112,75534,1,8
256,192,76014,12,4,79855
