osu file format v12

[General]
AudioFilename: Cave Story Wii (EU) OST - T03_ Mimiga Town.mp3
AudioLeadIn: 0
PreviewTime: 36750
Countdown: 0
SampleSet: Soft
StackLeniency: 0.7
Mode: 3
LetterboxInBreaks: 0
SpecialStyle: 0
WidescreenStoryboard: 1

[Editor]
Bookmarks: 23
DistanceSpacing: 1.5
BeatDivisor: 4
GridSize: 16

[Metadata]
Title:Mimiga Town
TitleUnicode:Mimiga Town
Artist:Pixel
ArtistUnicode:Pixel
Creator:IamBaum
Version:Insane
Source:Cave Story
Tags:Cave Story Mimiga Town Village
BeatmapID:358698
BeatmapSetID:144252

[Difficulty]
HPDrainRate:7
CircleSize:4
OverallDifficulty:7
ApproachRate:5
SliderMultiplier:1
SliderTickRate:1

[Events]
//Background and Video events
0,0,"Cave-Story-logo.jpg",0,0
//Break Periods
//Storyboard Layer 0 (Background)
//Storyboard Layer 1 (Fail)
//Storyboard Layer 2 (Pass)
//Storyboard Layer 3 (Foreground)
//Storyboard Sound Samples
//Background Colour Transformations
3,100,163,162,255

[TimingPoints]
820,500,4,2,0,0,1,0

[HitObjects]
64,192,4820,128,0,5320:0:0:0:0:
192,192,4820,1,0,0:0:0:0:
320,192,5070,1,0,0:0:0:0:
448,192,5320,1,0,0:0:0:0:
192,192,5320,128,0,6820:0:0:0:0:
320,192,5570,1,0,0:0:0:0:
64,192,5820,1,0,0:0:0:0:
320,192,6070,1,0,0:0:0:0:
64,192,6070,1,0,0:0:0:0:
448,192,6320,1,0,0:0:0:0:
320,192,6570,1,0,0:0:0:0:
64,192,6570,1,0,0:0:0:0:
64,192,6820,1,0,0:0:0:0:
320,192,7070,1,0,0:0:0:0:
64,192,7320,128,0,8320:0:0:0:0:
448,192,7320,1,0,0:0:0:0:
192,192,7320,1,0,0:0:0:0:
192,192,7570,128,0,8320:0:0:0:0:
320,192,7570,1,0,0:0:0:0:
320,192,8070,1,0,0:0:0:0:
448,192,8320,1,0,0:0:0:0:
320,192,8570,1,0,0:0:0:0:
320,192,8820,128,0,9320:0:0:0:0:
448,192,8820,1,0,0:0:0:0:
64,192,9070,1,0,0:0:0:0:
192,192,9320,1,0,0:0:0:0:
448,192,9320,128,0,9820:0:0:0:0:
64,192,9570,1,0,0:0:0:0:
320,192,9820,128,0,10320:0:0:0:0:
64,192,10070,1,0,0:0:0:0:
448,192,10320,128,0,12320:0:0:0:0:
192,192,10320,1,0,0:0:0:0:
64,192,10570,1,0,0:0:0:0:
320,192,10820,128,0,12320:0:0:0:0:
64,192,11070,1,0,0:0:0:0:
192,192,11320,1,0,0:0:0:0:
64,192,11570,1,0,0:0:0:0:
64,192,12070,1,0,0:0:0:0:
192,192,12320,1,0,0:0:0:0:
64,192,12570,1,0,0:0:0:0:
64,192,12820,128,0,13320:0:0:0:0:
192,192,12820,1,0,0:0:0:0:
448,192,13070,1,0,0:0:0:0:
192,192,13320,128,0,13820:0:0:0:0:
320,192,13320,1,0,0:0:0:0:
448,192,13570,1,0,0:0:0:0:
64,192,13820,128,0,14320:0:0:0:0:
448,192,14070,1,0,0:0:0:0:
192,192,14320,128,0,16320:0:0:0:0:
320,192,14320,1,0,0:0:0:0:
448,192,14570,1,0,0:0:0:0:
64,192,14820,128,0,16320:0:0:0:0:
448,192,15070,1,0,0:0:0:0:
320,192,15320,1,0,0:0:0:0:
448,192,15570,1,0,0:0:0:0:
448,192,16070,1,0,0:0:0:0:
320,192,16320,1,0,0:0:0:0:
448,192,16570,1,0,0:0:0:0:
64,192,16820,128,0,18320:0:0:0:0:
192,192,16820,1,0,0:0:0:0:
448,192,17070,1,0,0:0:0:0:
192,192,17320,128,0,17820:0:0:0:0:
320,192,17320,1,0,0:0:0:0:
448,192,17570,1,0,0:0:0:0:
448,192,18070,1,0,0:0:0:0:
320,192,18320,1,0,0:0:0:0:
192,192,18320,1,0,0:0:0:0:
448,192,18570,1,0,0:0:0:0:
64,192,18820,128,0,19820:0:0:0:0:
192,192,18820,1,0,0:0:0:0:
448,192,19070,1,0,0:0:0:0:
320,192,19320,1,0,0:0:0:0:
448,192,19570,1,0,0:0:0:0:
192,192,19820,1,0,0:0:0:0:
448,192,20070,1,0,0:0:0:0:
320,192,20320,1,0,0:0:0:0:
448,192,20570,1,0,0:0:0:0:
448,192,20820,128,0,21320:0:0:0:0:
320,192,20820,1,0,0:0:0:0:
64,192,21070,1,0,0:0:0:0:
320,192,21320,128,0,21820:0:0:0:0:
192,192,21320,1,0,0:0:0:0:
64,192,21570,1,0,0:0:0:0:
448,192,21820,1,0,0:0:0:0:
320,192,22070,128,0,24320:0:0:0:0:
64,192,22070,1,0,0:0:0:0:
448,192,22070,1,0,0:0:0:0:
192,192,22320,1,0,0:0:0:0:
64,192,22570,1,0,0:0:0:0:
448,192,22570,1,0,0:0:0:0:
448,192,22820,1,0,0:0:0:0:
64,192,23070,1,0,0:0:0:0:
448,192,23320,1,0,0:0:0:0:
192,192,23320,1,0,0:0:0:0:
64,192,23570,1,0,0:0:0:0:
448,192,23570,1,0,0:0:0:0:
64,192,24070,1,0,0:0:0:0:
192,192,24320,1,0,0:0:0:0:
448,192,24320,1,0,0:0:0:0:
64,192,24570,1,0,0:0:0:0:
448,192,24820,128,0,25320:0:0:0:0:
320,192,24820,128,0,28320:0:0:0:0:
64,192,25070,1,0,0:0:0:0:
192,192,25320,1,0,0:0:0:0:
64,192,25570,1,0,0:0:0:0:
448,192,25820,128,0,26320:0:0:0:0:
64,192,26070,1,0,0:0:0:0:
192,192,26320,1,0,0:0:0:0:
64,192,26570,1,0,0:0:0:0:
448,192,26820,128,0,28320:0:0:0:0:
64,192,27070,1,0,0:0:0:0:
192,192,27320,1,0,0:0:0:0:
64,192,27570,1,0,0:0:0:0:
64,192,28070,1,0,0:0:0:0:
192,192,28320,1,0,0:0:0:0:
64,192,28570,1,0,0:0:0:0:
192,192,28820,128,0,29320:0:0:0:0:
64,192,29070,1,0,0:0:0:0:
320,192,29320,128,0,29820:0:0:0:0:
448,192,29320,1,0,0:0:0:0:
64,192,29570,1,0,0:0:0:0:
192,192,29820,128,0,30320:0:0:0:0:
64,192,30070,1,0,0:0:0:0:
320,192,30320,128,0,30820:0:0:0:0:
448,192,30320,1,0,0:0:0:0:
64,192,30570,1,0,0:0:0:0:
192,192,30820,128,0,32320:0:0:0:0:
64,192,31070,1,0,0:0:0:0:
448,192,31320,1,0,0:0:0:0:
64,192,31570,1,0,0:0:0:0:
64,192,32070,1,0,0:0:0:0:
448,192,32320,1,0,0:0:0:0:
64,192,32570,1,0,0:0:0:0:
192,192,32820,128,0,33320:0:0:0:0:
320,192,32820,1,0,0:0:0:0:
64,192,33070,1,0,0:0:0:0:
448,192,33320,1,0,0:0:0:0:
320,192,33320,128,0,33820:0:0:0:0:
64,192,33570,1,0,0:0:0:0:
192,192,33820,128,0,34320:0:0:0:0:
64,192,34070,1,0,0:0:0:0:
320,192,34320,128,0,35820:0:0:0:0:
448,192,34320,1,0,0:0:0:0:
64,192,34570,1,0,0:0:0:0:
192,192,34820,128,0,35820:0:0:0:0:
64,192,35070,1,0,0:0:0:0:
448,192,35320,1,0,0:0:0:0:
64,192,35570,1,0,0:0:0:0:
64,192,36070,1,0,0:0:0:0:
448,192,36320,1,0,0:0:0:0:
64,192,36570,1,0,0:0:0:0:
64,192,36820,128,0,37820:0:0:0:0:
192,192,36820,1,0,0:0:0:0:
320,192,36820,1,0,0:0:0:0:
448,192,37070,1,0,0:0:0:0:
192,192,37320,128,0,39320:0:0:0:0:
448,192,37320,1,0,0:0:0:0:
320,192,37320,1,0,0:0:0:0:
448,192,37570,1,0,0:0:0:0:
320,192,37820,1,0,0:0:0:0:
64,192,38070,128,0,38570:0:0:0:0:
448,192,38070,1,0,0:0:0:0:
320,192,38320,1,0,0:0:0:0:
448,192,38320,1,0,0:0:0:0:
448,192,38570,1,0,0:0:0:0:
64,192,38820,1,0,0:0:0:0:
320,192,38820,1,0,0:0:0:0:
448,192,39070,1,0,0:0:0:0:
64,192,39320,128,0,40320:0:0:0:0:
448,192,39320,1,0,0:0:0:0:
320,192,39320,1,0,0:0:0:0:
448,192,39570,1,0,0:0:0:0:
192,192,39570,128,0,40320:0:0:0:0:
320,192,39820,1,0,0:0:0:0:
448,192,40070,1,0,0:0:0:0:
448,192,40320,1,0,0:0:0:0:
320,192,40320,1,0,0:0:0:0:
448,192,40570,1,0,0:0:0:0:
64,192,40820,128,0,41320:0:0:0:0:
320,192,40820,1,0,0:0:0:0:
448,192,41070,1,0,0:0:0:0:
192,192,41320,128,0,41820:0:0:0:0:
320,192,41320,1,0,0:0:0:0:
448,192,41320,1,0,0:0:0:0:
448,192,41570,1,0,0:0:0:0:
64,192,41820,128,0,42320:0:0:0:0:
320,192,41820,1,0,0:0:0:0:
448,192,42070,1,0,0:0:0:0:
192,192,42320,128,0,44320:0:0:0:0:
320,192,42320,1,0,0:0:0:0:
448,192,42320,1,0,0:0:0:0:
448,192,42570,1,0,0:0:0:0:
64,192,42820,128,0,44320:0:0:0:0:
320,192,42820,1,0,0:0:0:0:
448,192,43070,1,0,0:0:0:0:
320,192,43320,1,0,0:0:0:0:
448,192,43320,1,0,0:0:0:0:
448,192,43570,1,0,0:0:0:0:
320,192,43820,1,0,0:0:0:0:
448,192,44070,1,0,0:0:0:0:
448,192,44320,1,0,0:0:0:0:
320,192,44320,1,0,0:0:0:0:
448,192,44570,1,0,0:0:0:0:
320,192,44820,1,0,0:0:0:0:
64,192,44820,1,0,0:0:0:0:
192,192,44820,1,0,0:0:0:0:
64,192,45070,1,0,0:0:0:0:
448,192,45320,128,0,45820:0:0:0:0:
64,192,45320,1,0,0:0:0:0:
192,192,45320,1,0,0:0:0:0:
192,192,45570,1,0,0:0:0:0:
320,192,45820,128,0,46820:0:0:0:0:
64,192,45820,1,0,0:0:0:0:
192,192,46070,1,0,0:0:0:0:
448,192,46320,128,0,48820:0:0:0:0:
64,192,46320,1,0,0:0:0:0:
192,192,46320,1,0,0:0:0:0:
192,192,46570,1,0,0:0:0:0:
64,192,46820,1,0,0:0:0:0:
192,192,47070,1,0,0:0:0:0:
192,192,47320,1,0,0:0:0:0:
64,192,47320,1,0,0:0:0:0:
192,192,47570,1,0,0:0:0:0:
64,192,47820,1,0,0:0:0:0:
192,192,48070,1,0,0:0:0:0:
192,192,48320,1,0,0:0:0:0:
64,192,48320,1,0,0:0:0:0:
192,192,48570,1,0,0:0:0:0:
320,192,48820,128,0,49320:0:0:0:0:
64,192,48820,1,0,0:0:0:0:
192,192,49070,1,0,0:0:0:0:
448,192,49320,128,0,49820:0:0:0:0:
192,192,49320,1,0,0:0:0:0:
64,192,49320,1,0,0:0:0:0:
192,192,49570,1,0,0:0:0:0:
320,192,49820,128,0,50320:0:0:0:0:
64,192,49820,1,0,0:0:0:0:
192,192,50070,1,0,0:0:0:0:
448,192,50320,128,0,50820:0:0:0:0:
192,192,50320,1,0,0:0:0:0:
64,192,50320,1,0,0:0:0:0:
192,192,50570,1,0,0:0:0:0:
320,192,50820,128,0,51820:0:0:0:0:
64,192,50820,1,0,0:0:0:0:
192,192,51070,1,0,0:0:0:0:
192,192,51320,1,0,0:0:0:0:
64,192,51320,1,0,0:0:0:0:
448,192,51820,128,0,52820:0:0:0:0:
320,192,52820,128,0,54820:0:0:0:0:
448,192,53070,1,0,0:0:0:0:
64,192,53070,1,0,0:0:0:0:
192,192,53320,1,0,0:0:0:0:
448,192,53320,1,0,0:0:0:0:
64,192,53570,1,0,0:0:0:0:
448,192,53570,1,0,0:0:0:0:
192,192,53820,1,0,0:0:0:0:
448,192,53820,1,0,0:0:0:0:
448,192,54070,1,0,0:0:0:0:
64,192,54070,1,0,0:0:0:0:
192,192,54320,1,0,0:0:0:0:
448,192,54320,1,0,0:0:0:0:
64,192,54570,1,0,0:0:0:0:
448,192,54570,1,0,0:0:0:0:
192,192,54820,1,0,0:0:0:0:
64,192,54820,1,0,0:0:0:0:
448,192,55070,1,0,0:0:0:0:
192,192,55070,1,0,0:0:0:0:
64,192,55070,1,0,0:0:0:0:
64,192,55320,1,0,0:0:0:0:
448,192,55320,1,0,0:0:0:0:
320,192,55320,1,0,0:0:0:0:
320,192,55570,1,0,0:0:0:0:
192,192,55570,1,0,0:0:0:0:
448,192,55570,1,0,0:0:0:0:
64,192,55820,1,0,0:0:0:0:
320,192,55820,1,0,0:0:0:0:
448,192,55820,1,0,0:0:0:0:
448,192,56070,1,0,0:0:0:0:
192,192,56070,1,0,0:0:0:0:
320,192,56070,1,0,0:0:0:0:
320,192,56320,1,0,0:0:0:0:
64,192,56320,1,0,0:0:0:0:
448,192,56320,1,0,0:0:0:0:
448,192,56570,1,0,0:0:0:0:
320,192,56570,1,0,0:0:0:0:
192,192,56570,1,0,0:0:0:0:
320,192,56820,1,0,0:0:0:0:
64,192,56820,1,0,0:0:0:0:
192,192,56820,1,0,0:0:0:0:
448,192,57070,1,0,0:0:0:0:
192,192,57070,1,0,0:0:0:0:
64,192,57070,1,0,0:0:0:0:
320,192,57320,1,0,0:0:0:0:
64,192,57320,1,0,0:0:0:0:
448,192,57320,1,0,0:0:0:0:
192,192,57570,1,0,0:0:0:0:
448,192,57570,1,0,0:0:0:0:
320,192,57570,1,0,0:0:0:0:
64,192,57820,1,0,0:0:0:0:
320,192,57820,1,0,0:0:0:0:
448,192,57820,1,0,0:0:0:0:
192,192,58070,1,0,0:0:0:0:
448,192,58070,1,0,0:0:0:0:
320,192,58070,1,0,0:0:0:0:
64,192,58320,1,0,0:0:0:0:
320,192,58320,1,0,0:0:0:0:
448,192,58320,1,0,0:0:0:0:
192,192,58570,1,0,0:0:0:0:
448,192,58570,1,0,0:0:0:0:
320,192,58570,1,0,0:0:0:0:
64,192,58820,128,0,59320:0:0:0:0:
192,192,58820,1,0,0:0:0:0:
320,192,59070,1,0,0:0:0:0:
448,192,59320,1,0,0:0:0:0:
192,192,59320,128,0,60820:0:0:0:0:
320,192,59570,1,0,0:0:0:0:
64,192,59820,1,0,0:0:0:0:
320,192,60070,1,0,0:0:0:0:
64,192,60070,1,0,0:0:0:0:
448,192,60320,1,0,0:0:0:0:
320,192,60570,1,0,0:0:0:0:
64,192,60570,1,0,0:0:0:0:
64,192,60820,1,0,0:0:0:0:
320,192,61070,1,0,0:0:0:0:
64,192,61320,128,0,62320:0:0:0:0:
448,192,61320,1,0,0:0:0:0:
192,192,61320,1,0,0:0:0:0:
192,192,61570,128,0,62320:0:0:0:0:
320,192,61570,1,0,0:0:0:0:
320,192,62070,1,0,0:0:0:0:
448,192,62320,1,0,0:0:0:0:
320,192,62570,1,0,0:0:0:0:
320,192,62820,128,0,63320:0:0:0:0:
192,192,62820,1,0,0:0:0:0:
64,192,63070,1,0,0:0:0:0:
448,192,63320,1,0,0:0:0:0:
192,192,63320,128,0,63820:0:0:0:0:
64,192,63570,1,0,0:0:0:0:
320,192,63820,128,0,64320:0:0:0:0:
64,192,64070,1,0,0:0:0:0:
192,192,64320,128,0,66320:0:0:0:0:
448,192,64320,1,0,0:0:0:0:
64,192,64570,1,0,0:0:0:0:
320,192,64820,128,0,66320:0:0:0:0:
64,192,65070,1,0,0:0:0:0:
448,192,65320,1,0,0:0:0:0:
64,192,65570,1,0,0:0:0:0:
64,192,66070,1,0,0:0:0:0:
448,192,66320,1,0,0:0:0:0:
64,192,66570,1,0,0:0:0:0:
320,192,66820,128,0,67320:0:0:0:0:
192,192,66820,1,0,0:0:0:0:
448,192,67070,1,0,0:0:0:0:
192,192,67320,128,0,67820:0:0:0:0:
64,192,67320,1,0,0:0:0:0:
448,192,67570,1,0,0:0:0:0:
320,192,67820,128,0,68320:0:0:0:0:
448,192,68070,1,0,0:0:0:0:
192,192,68320,128,0,70320:0:0:0:0:
64,192,68320,1,0,0:0:0:0:
448,192,68570,1,0,0:0:0:0:
320,192,68820,128,0,70320:0:0:0:0:
448,192,69070,1,0,0:0:0:0:
64,192,69320,1,0,0:0:0:0:
448,192,69570,1,0,0:0:0:0:
448,192,70070,1,0,0:0:0:0:
64,192,70320,1,0,0:0:0:0:
448,192,70570,1,0,0:0:0:0:
320,192,70820,128,0,72320:0:0:0:0:
192,192,70820,1,0,0:0:0:0:
448,192,71070,1,0,0:0:0:0:
192,192,71320,128,0,71820:0:0:0:0:
64,192,71320,1,0,0:0:0:0:
448,192,71570,1,0,0:0:0:0:
448,192,72070,1,0,0:0:0:0:
64,192,72320,1,0,0:0:0:0:
192,192,72320,1,0,0:0:0:0:
448,192,72570,1,0,0:0:0:0:
320,192,72820,128,0,73820:0:0:0:0:
192,192,72820,1,0,0:0:0:0:
448,192,73070,1,0,0:0:0:0:
64,192,73320,1,0,0:0:0:0:
448,192,73570,1,0,0:0:0:0:
192,192,73820,1,0,0:0:0:0:
448,192,74070,1,0,0:0:0:0:
320,192,74320,1,0,0:0:0:0:
448,192,74570,1,0,0:0:0:0:
320,192,74820,128,0,75320:0:0:0:0:
448,192,74820,1,0,0:0:0:0:
64,192,75070,1,0,0:0:0:0:
448,192,75320,128,0,75820:0:0:0:0:
192,192,75320,1,0,0:0:0:0:
64,192,75570,1,0,0:0:0:0:
320,192,75820,1,0,0:0:0:0:
320,192,76070,128,0,78320:0:0:0:0:
64,192,76070,1,0,0:0:0:0:
192,192,76070,1,0,0:0:0:0:
448,192,76320,1,0,0:0:0:0:
64,192,76570,1,0,0:0:0:0:
192,192,76570,1,0,0:0:0:0:
192,192,76820,1,0,0:0:0:0:
64,192,77070,1,0,0:0:0:0:
192,192,77320,1,0,0:0:0:0:
448,192,77320,1,0,0:0:0:0:
64,192,77570,1,0,0:0:0:0:
192,192,77570,1,0,0:0:0:0:
64,192,78070,1,0,0:0:0:0:
448,192,78320,1,0,0:0:0:0:
192,192,78320,1,0,0:0:0:0:
64,192,78570,1,0,0:0:0:0:
192,192,78820,128,0,79320:0:0:0:0:
448,192,78820,128,0,82320:0:0:0:0:
64,192,79070,1,0,0:0:0:0:
320,192,79320,1,0,0:0:0:0:
64,192,79570,1,0,0:0:0:0:
192,192,79820,128,0,80320:0:0:0:0:
64,192,80070,1,0,0:0:0:0:
320,192,80320,1,0,0:0:0:0:
64,192,80570,1,0,0:0:0:0:
192,192,80820,128,0,82320:0:0:0:0:
64,192,81070,1,0,0:0:0:0:
320,192,81320,1,0,0:0:0:0:
64,192,81570,1,0,0:0:0:0:
64,192,82070,1,0,0:0:0:0:
320,192,82320,1,0,0:0:0:0:
64,192,82570,1,0,0:0:0:0:
192,192,82820,128,0,83320:0:0:0:0:
64,192,83070,1,0,0:0:0:0:
320,192,83320,128,0,83820:0:0:0:0:
448,192,83320,1,0,0:0:0:0:
64,192,83570,1,0,0:0:0:0:
192,192,83820,128,0,84320:0:0:0:0:
64,192,84070,1,0,0:0:0:0:
320,192,84320,128,0,84820:0:0:0:0:
448,192,84320,1,0,0:0:0:0:
64,192,84570,1,0,0:0:0:0:
192,192,84820,128,0,86320:0:0:0:0:
64,192,85070,1,0,0:0:0:0:
448,192,85320,1,0,0:0:0:0:
64,192,85570,1,0,0:0:0:0:
64,192,86070,1,0,0:0:0:0:
448,192,86320,1,0,0:0:0:0:
320,192,86320,1,0,0:0:0:0:
64,192,86570,1,0,0:0:0:0:
192,192,86820,128,0,87320:0:0:0:0:
320,192,86820,1,0,0:0:0:0:
64,192,87070,1,0,0:0:0:0:
448,192,87320,1,0,0:0:0:0:
320,192,87320,128,0,87820:0:0:0:0:
64,192,87570,1,0,0:0:0:0:
192,192,87820,128,0,88320:0:0:0:0:
64,192,88070,1,0,0:0:0:0:
320,192,88320,128,0,89820:0:0:0:0:
448,192,88320,1,0,0:0:0:0:
64,192,88570,1,0,0:0:0:0:
192,192,88820,128,0,89820:0:0:0:0:
64,192,89070,1,0,0:0:0:0:
448,192,89320,1,0,0:0:0:0:
64,192,89570,1,0,0:0:0:0:
64,192,90070,1,0,0:0:0:0:
448,192,90320,1,0,0:0:0:0:
64,192,90570,1,0,0:0:0:0:
64,192,90820,128,0,91820:0:0:0:0:
192,192,90820,1,0,0:0:0:0:
320,192,90820,1,0,0:0:0:0:
448,192,91070,1,0,0:0:0:0:
192,192,91320,128,0,93320:0:0:0:0:
448,192,91320,1,0,0:0:0:0:
320,192,91320,1,0,0:0:0:0:
448,192,91570,1,0,0:0:0:0:
320,192,91820,1,0,0:0:0:0:
64,192,92070,128,0,92570:0:0:0:0:
448,192,92070,1,0,0:0:0:0:
320,192,92320,1,0,0:0:0:0:
448,192,92320,1,0,0:0:0:0:
448,192,92570,1,0,0:0:0:0:
64,192,92820,1,0,0:0:0:0:
320,192,92820,1,0,0:0:0:0:
448,192,93070,1,0,0:0:0:0:
64,192,93320,128,0,94320:0:0:0:0:
448,192,93320,1,0,0:0:0:0:
320,192,93320,1,0,0:0:0:0:
192,192,93570,1,0,0:0:0:0:
448,192,93570,1,0,0:0:0:0:
320,192,93820,1,0,0:0:0:0:
448,192,94070,1,0,0:0:0:0:
192,192,94320,1,0,0:0:0:0:
448,192,94320,1,0,0:0:0:0:
320,192,94320,1,0,0:0:0:0:
448,192,94570,1,0,0:0:0:0:
64,192,94820,128,0,95320:0:0:0:0:
320,192,94820,1,0,0:0:0:0:
448,192,95070,1,0,0:0:0:0:
192,192,95320,128,0,95820:0:0:0:0:
320,192,95320,1,0,0:0:0:0:
448,192,95320,1,0,0:0:0:0:
448,192,95570,1,0,0:0:0:0:
64,192,95820,128,0,96320:0:0:0:0:
320,192,95820,1,0,0:0:0:0:
448,192,96070,1,0,0:0:0:0:
192,192,96320,128,0,98320:0:0:0:0:
320,192,96320,1,0,0:0:0:0:
448,192,96320,1,0,0:0:0:0:
448,192,96570,1,0,0:0:0:0:
64,192,96820,128,0,98320:0:0:0:0:
320,192,96820,1,0,0:0:0:0:
448,192,97070,1,0,0:0:0:0:
320,192,97320,1,0,0:0:0:0:
448,192,97320,1,0,0:0:0:0:
448,192,97570,1,0,0:0:0:0:
320,192,97820,1,0,0:0:0:0:
448,192,98070,1,0,0:0:0:0:
448,192,98320,1,0,0:0:0:0:
320,192,98320,1,0,0:0:0:0:
448,192,98570,1,0,0:0:0:0:
320,192,98820,1,0,0:0:0:0:
64,192,98820,1,0,0:0:0:0:
192,192,98820,1,0,0:0:0:0:
64,192,99070,1,0,0:0:0:0:
192,192,99320,128,0,99820:0:0:0:0:
64,192,99320,1,0,0:0:0:0:
448,192,99320,1,0,0:0:0:0:
320,192,99320,1,0,0:0:0:0:
448,192,99570,1,0,0:0:0:0:
320,192,99820,128,0,100820:0:0:0:0:
64,192,99820,1,0,0:0:0:0:
448,192,100070,1,0,0:0:0:0:
192,192,100320,128,0,102820:0:0:0:0:
64,192,100320,1,0,0:0:0:0:
448,192,100320,1,0,0:0:0:0:
448,192,100570,1,0,0:0:0:0:
64,192,100820,1,0,0:0:0:0:
448,192,101070,1,0,0:0:0:0:
448,192,101320,1,0,0:0:0:0:
64,192,101320,1,0,0:0:0:0:
448,192,101570,1,0,0:0:0:0:
64,192,101820,1,0,0:0:0:0:
448,192,102070,1,0,0:0:0:0:
448,192,102320,1,0,0:0:0:0:
64,192,102320,1,0,0:0:0:0:
448,192,102570,1,0,0:0:0:0:
320,192,102820,128,0,103320:0:0:0:0:
64,192,102820,1,0,0:0:0:0:
448,192,103070,1,0,0:0:0:0:
192,192,103320,128,0,103820:0:0:0:0:
64,192,103320,1,0,0:0:0:0:
448,192,103320,1,0,0:0:0:0:
448,192,103570,1,0,0:0:0:0:
320,192,103820,128,0,104320:0:0:0:0:
64,192,103820,1,0,0:0:0:0:
448,192,104070,1,0,0:0:0:0:
192,192,104320,128,0,104820:0:0:0:0:
448,192,104320,1,0,0:0:0:0:
64,192,104320,1,0,0:0:0:0:
448,192,104570,1,0,0:0:0:0:
320,192,104820,128,0,105820:0:0:0:0:
64,192,104820,1,0,0:0:0:0:
448,192,105070,1,0,0:0:0:0:
448,192,105320,1,0,0:0:0:0:
64,192,105320,1,0,0:0:0:0:
448,192,105820,128,0,106820:0:0:0:0:
320,192,106820,128,0,108820:0:0:0:0:
448,192,107070,1,0,0:0:0:0:
64,192,107070,1,0,0:0:0:0:
192,192,107320,1,0,0:0:0:0:
448,192,107320,1,0,0:0:0:0:
64,192,107570,1,0,0:0:0:0:
448,192,107570,1,0,0:0:0:0:
192,192,107820,1,0,0:0:0:0:
448,192,107820,1,0,0:0:0:0:
448,192,108070,1,0,0:0:0:0:
64,192,108070,1,0,0:0:0:0:
192,192,108320,1,0,0:0:0:0:
448,192,108320,1,0,0:0:0:0:
64,192,108570,1,0,0:0:0:0:
448,192,108570,1,0,0:0:0:0:
192,192,108820,1,0,0:0:0:0:
64,192,108820,1,0,0:0:0:0:
448,192,109070,1,0,0:0:0:0:
192,192,109070,1,0,0:0:0:0:
64,192,109070,1,0,0:0:0:0:
64,192,109320,1,0,0:0:0:0:
448,192,109320,1,0,0:0:0:0:
320,192,109320,1,0,0:0:0:0:
320,192,109570,1,0,0:0:0:0:
192,192,109570,1,0,0:0:0:0:
448,192,109570,1,0,0:0:0:0:
64,192,109820,1,0,0:0:0:0:
320,192,109820,1,0,0:0:0:0:
448,192,109820,1,0,0:0:0:0:
448,192,110070,1,0,0:0:0:0:
192,192,110070,1,0,0:0:0:0:
320,192,110070,1,0,0:0:0:0:
320,192,110320,1,0,0:0:0:0:
64,192,110320,1,0,0:0:0:0:
448,192,110320,1,0,0:0:0:0:
448,192,110570,1,0,0:0:0:0:
320,192,110570,1,0,0:0:0:0:
192,192,110570,1,0,0:0:0:0:
320,192,110820,1,0,0:0:0:0:
64,192,110820,1,0,0:0:0:0:
192,192,110820,1,0,0:0:0:0:
448,192,111070,1,0,0:0:0:0:
192,192,111070,1,0,0:0:0:0:
64,192,111070,1,0,0:0:0:0:
320,192,111320,1,0,0:0:0:0:
64,192,111320,1,0,0:0:0:0:
448,192,111320,1,0,0:0:0:0:
192,192,111570,1,0,0:0:0:0:
448,192,111570,1,0,0:0:0:0:
320,192,111570,1,0,0:0:0:0:
64,192,111820,1,0,0:0:0:0:
320,192,111820,1,0,0:0:0:0:
448,192,111820,1,0,0:0:0:0:
192,192,112070,1,0,0:0:0:0:
448,192,112070,1,0,0:0:0:0:
320,192,112070,1,0,0:0:0:0:
64,192,112320,1,0,0:0:0:0:
320,192,112320,1,0,0:0:0:0:
448,192,112320,1,0,0:0:0:0:
192,192,112570,1,0,0:0:0:0:
448,192,112570,1,0,0:0:0:0:
320,192,112570,1,0,0:0:0:0:
