osu file format v5

[General]
AudioFilename: 31 Last Battle.mp3
AudioLeadIn: 0
PreviewTime: -1
Countdown: 1
SampleSet: Normal
StackLeniency: 0.7
Mode: 0
LetterboxInBreaks: 1
EditorDistanceSpacing: 0.800000011920929

[Metadata]
Title:Last battle
Artist:Pixel
Creator:Xgor
Version:Misery
Source:Cave Story
Tags:

[Difficulty]
HPDrainRate:4
CircleSize:4
OverallDifficulty:5
SliderMultiplier:1.1
SliderTickRate:1

[Events]
//Background and Video events
0,0,"battle.JPG"
//Break Periods
//Storyboard Layer 0 (Background)
//Storyboard Layer 1 (Failing)
//Storyboard Layer 2 (Passing)
//Storyboard Layer 3 (Foreground)
//Storyboard Sound Samples
//Background Colour Transformations
3,100,163,162,255

[TimingPoints]
0,315.789473684211,4,1,0,82,1,0

[Colours]
Combo1 : 0,64,128
Combo2 : 128,64,64
Combo3 : 225,113,0
Combo4 : 128,0,64

[HitObjects]
96,96,1263,2,0,L|448:96,1,330
416,160,2526,2,0,L|64:160,1,330
96,224,3789,2,0,L|448:224,1,330
416,288,5052,2,0,L|64:288,1,330
96,320,6315,6,0,L|96:64|96:64|192:64,1,330
160,64,7578,2,0,L|160:320|256:320,1,330
224,320,8842,2,0,L|224:64|320:64,1,330
288,64,10105,2,0,L|288:320|384:320,1,330
448,288,11368,6,0,L|448:352,8,55
416,192,12947,1,0
352,288,13263,1,0
256,288,13578,1,0
160,288,13894,2,0,L|160:64|288:64,1,330
352,64,15157,2,0,L|480:64|480:288,1,330
352,256,16421,6,0,L|352:192,8,55
320,352,18000,1,0
224,288,18315,1,0
96,288,18631,1,0
96,192,18947,2,0,L|96:64|224:64|224:192,1,330
289,134,20210,2,0,L|289:60|417:60|417:220,1,330
480,288,21473,6,0,L|384:288,7,55
384,288,22736,1,0
352,192,23052,1,0
288,128,23368,1,0
192,96,23684,1,4
128,160,24000,6,0,L|128:224,7,55
128,256,25263,1,0
128,352,25578,1,0
224,352,25894,1,0
320,352,26210,1,4
384,288,26526,6,0,L|384:64|192:64,1,330
192,64,27789,2,0,L|96:64|96:320,1,330
256,192,29052,12,0,30947
224,64,31578,6,0,L|64:192|160:352,1,330
256,288,32842,1,0
384,256,33315,1,0
416,128,33789,1,4
320,64,34105,6,0,L|192:128|128:320,1,330
288,320,35368,1,0
352,160,35842,1,0
160,96,36315,1,4
64,192,36631,6,0,L|416:288,1,330
448,160,37894,1,0
288,64,38368,1,0
128,96,38842,1,4
256,192,39157,12,0,41052
96,288,41684,6,0,L|160:160|352:288,1,330
416,160,42947,1,0
416,64,43421,1,0
416,256,43894,1,4
288,288,44210,6,0,L|96:160|192:64,1,330
256,96,45473,1,0
160,224,45947,1,0
352,320,46421,1,4
448,256,46736,6,0,L|352:128|224:256,1,330
128,192,48000,1,0
224,64,48473,1,0
352,160,48947,1,4
416,224,49263,6,0,L|64:224,1,330
96,160,50526,2,0,L|448:160,1,330
416,288,51789,2,0,L|64:288,1,330
96,96,53052,2,0,L|448:96,1,330
256,160,54315,6,4,L|256:320|448:320,1,330
416,320,55578,2,4,L|416:160|416:160|224:160,1,330
256,160,56842,2,4,L|256:320|64:320,1,330
96,320,58105,2,4,L|96:160|288:160,1,330
