osu file format v5

[General]
AudioFilename: 31 Last Battle.mp3
AudioLeadIn: 0
PreviewTime: -1
Countdown: 1
SampleSet: Normal
StackLeniency: 0.7
Mode: 0
LetterboxInBreaks: 1
EditorBookmarks: 11368,39157
EditorDistanceSpacing: 0.800000011920929

[Metadata]
Title:Last battle
Artist:Pixel
Creator:Xgor
Version:Ballos
Source:Cave Story
Tags:

[Difficulty]
HPDrainRate:9
CircleSize:6
OverallDifficulty:9
SliderMultiplier:1.8
SliderTickRate:2

[Events]
//Background and Video events
0,0,"battle.JPG"
//Break Periods
//Storyboard Layer 0 (Background)
//Storyboard Layer 1 (Failing)
//Storyboard Layer 2 (Passing)
//Storyboard Layer 3 (Foreground)
//Storyboard Sound Samples
//Background Colour Transformations
3,100,163,162,255

[TimingPoints]
0,315.789473684211,4,1,0,82,1,0

[Colours]
Combo1 : 0,64,128
Combo2 : 128,64,64
Combo3 : 225,113,0
Combo4 : 128,0,64

[HitObjects]
96,192,1263,1,0
96,192,1421,1,0
224,128,1736,1,0
352,64,2052,1,0
416,64,2210,1,2
448,128,2368,1,2
384,128,2526,5,0
384,128,2684,1,0
384,256,2999,1,0
224,256,3315,1,0
224,320,3473,1,2
160,320,3631,1,2
160,256,3789,5,0
160,256,3947,1,0
64,224,4262,1,0
96,96,4578,1,0
96,96,4736,1,2
96,96,4894,1,2
160,128,5052,5,0
160,128,5210,1,0
288,128,5525,1,0
352,128,5684,1,4
288,128,5842,1,4
384,192,6315,5,0
384,192,6473,1,0
288,288,6788,1,0
160,224,7104,1,0
160,224,7262,1,2
160,224,7420,1,2
224,160,7578,5,0
224,160,7736,1,0
128,64,8051,1,0
32,160,8367,1,0
32,160,8525,1,2
32,160,8683,1,2
64,224,8842,5,0
64,224,9000,1,0
192,256,9315,1,0
320,288,9631,1,0
320,288,9789,1,2
320,288,9947,1,2
352,224,10105,5,0
352,224,10263,1,0
192,224,10578,1,0
192,288,10736,1,4
256,288,10894,1,4
256,320,11368,5,0
256,320,11526,1,0
256,320,11684,1,0
256,320,11842,1,0
320,256,12000,1,0
320,256,12157,1,0
320,256,12315,1,0
320,256,12473,1,0
256,192,12631,1,0
192,192,12789,1,0
192,32,13105,1,0
256,32,13263,1,0
320,32,13421,1,0
320,96,13578,1,0
256,96,13736,1,0
192,96,13894,1,4
128,96,14052,1,4
256,192,14210,12,8,15789
64,256,16421,5,0
96,192,16579,1,0
128,256,16737,1,0
160,192,16895,1,0
224,192,17053,1,0
288,160,17210,1,0
224,128,17368,1,0
288,96,17526,1,0
352,96,17684,1,0
352,160,17842,1,0
352,96,18000,1,0
352,160,18157,1,0
320,224,18474,1,0
288,288,18631,1,0
224,288,18789,1,0
160,288,18947,1,4
128,224,19105,1,4
256,192,19263,12,0,20526
96,96,21157,5,0
160,96,21315,1,0
256,96,21473,1,0
256,96,21631,1,0
256,96,21789,1,0
256,96,21947,1,0
320,96,22105,1,0
320,96,22263,1,0
320,96,22421,1,0
320,96,22578,1,0
352,160,22736,1,2
384,224,22894,1,2
352,288,23052,1,2
288,320,23210,1,2
224,288,23368,1,2
192,224,23526,1,2
224,160,23684,1,2
256,96,23842,5,6
256,96,24000,1,0
256,96,24157,1,0
256,96,24316,1,0
256,96,24474,1,0
320,96,24631,1,0
320,96,24790,1,0
320,96,24948,1,0
320,96,25105,1,0
384,128,25263,1,2
448,192,25421,1,2
384,256,25579,1,2
320,320,25737,1,2
256,256,25895,1,2
192,192,26053,1,2
256,128,26211,1,2
320,64,26369,1,6
384,96,26526,5,0
480,96,26842,1,0
480,160,27000,1,0
480,288,27315,1,0
416,288,27473,1,0
256,288,27789,5,2
256,288,27947,1,2
256,288,28105,1,2
192,288,28263,1,2
192,288,28421,1,2
192,288,28578,1,2
192,288,28736,1,2
192,288,28894,2,0,L|96:288,1,90
64,224,29210,5,0
64,160,29368,1,0
64,224,29526,1,0
64,160,29684,1,0
64,224,29842,1,0
64,160,30000,1,0
64,224,30157,1,0
64,160,30315,1,0
64,224,30473,1,0
64,160,30631,1,0
64,224,30789,1,0
64,160,30947,1,0
64,224,31105,1,0
64,160,31263,1,4
192,160,31578,5,0
192,160,31736,1,0
192,160,31894,1,0
192,160,32052,2,8,L|384:160,1,180
384,160,32526,1,0
384,160,32684,1,0
352,224,32842,5,0
352,224,33000,1,0
352,224,33158,1,0
352,224,33315,2,8,L|160:224,1,180
160,224,33790,1,0
160,224,33948,1,0
96,224,34105,5,0
96,224,34263,1,0
96,224,34421,1,0
96,224,34578,2,8,L|96:32,1,180
96,32,35053,1,0
96,32,35211,1,0
160,32,35368,5,0
160,32,35526,1,0
160,32,35684,1,0
160,32,35842,2,8,L|352:32,1,180
352,32,36316,1,0
352,32,36474,1,0
352,96,36631,5,0
352,96,36789,1,0
352,96,36947,1,0
352,96,37105,2,8,L|352:288,1,180
352,288,37579,1,0
352,288,37737,1,0
288,288,37894,5,0
288,288,38052,1,0
288,288,38210,1,0
288,288,38368,2,8,L|96:288,1,180
96,288,38842,1,0
96,288,39000,1,0
256,192,39157,12,0,41052
96,288,41684,5,0
96,288,41842,1,0
96,288,42000,1,0
96,288,42157,2,8,L|256:192,1,180
256,192,42632,1,0
256,192,42790,1,0
192,160,42948,5,0
192,160,43106,1,0
192,160,43264,1,0
192,160,43421,2,8,L|32:64,1,180
32,64,43894,1,0
32,64,44054,1,0
96,32,44211,5,0
96,32,44369,1,0
96,32,44527,1,0
96,32,44684,2,8,L|320:32,1,180
288,32,45159,1,0
288,32,45317,1,0
352,64,45473,5,0
352,64,45632,1,0
352,64,45790,1,0
352,64,45947,2,8,L|256:224,1,180
256,224,46422,1,0
256,224,46580,1,0
224,288,46737,5,0
224,288,46895,1,0
224,288,47053,1,0
224,288,47210,2,8,L|96:160,1,180
96,160,47685,1,0
96,160,47843,1,0
160,160,48000,5,0
160,160,48158,1,0
160,160,48316,1,0
160,160,48473,2,8,L|320:64,1,180
320,64,48948,1,0
320,64,49106,1,0
384,64,49263,6,0,L|384:352,1,270
256,320,50052,1,0
192,320,50210,1,0
128,320,50368,1,4
64,320,50526,6,0,L|64:32,1,270
192,64,51315,1,0
256,64,51473,1,0
320,64,51631,1,4
384,64,51789,6,0,L|160:256,1,270
32,224,52578,1,0
64,160,52736,1,0
64,96,52894,1,4
128,64,53052,6,0,L|352:256,1,270
416,224,53684,1,4
416,160,53842,1,4
416,32,54315,6,0,L|128:32,1,270
0,32,55105,1,0
32,96,55263,1,0
64,160,55421,1,4
128,192,55578,6,0,L|416:192,1,270
512,288,56368,1,0
448,256,56526,1,0
448,320,56684,1,4
384,320,56842,6,0,L|96:320,1,270
128,192,57631,1,0
128,128,57789,1,0
128,64,57947,1,4
192,64,58105,6,0,L|480:64,1,270
448,128,58736,1,4
416,192,58894,1,4
