osu file format v5

[General]
AudioFilename: 31 Last Battle.mp3
AudioLeadIn: 1544
PreviewTime: -1
Countdown: 0
SampleSet: Soft
StackLeniency: 0.7
Mode: 0
LetterboxInBreaks: 1
EditorDistanceSpacing: 1.20000004768372

[Metadata]
Title:Last Battle
Artist:Pixel
Creator:rust45
Version:Minimal Items
Source:Cave Story
Tags:Cave story pixel video game

[Difficulty]
HPDrainRate:7
CircleSize:6
OverallDifficulty:7
SliderMultiplier:1.2
SliderTickRate:2

[Events]
//Background and Video events
0,0,"3HP.PNG"
//Break Periods
//Storyboard Layer 0 (Background)
//Storyboard Layer 1 (Failing)
//Storyboard Layer 2 (Passing)
//Storyboard Layer 3 (Foreground)
//Storyboard Sound Samples
//Background Colour Transformations
3,100,163,162,255

[TimingPoints]
1259,315.955766192733,4,2,0,50,1,0

[HitObjects]
64,80,1247,2,0,B|112:144,1,60,0|8
160,160,1562,2,0,C|224:112,1,60,0|8
272,96,1878,2,0,C|336:96,1,60,0|8
336,160,2194,2,0,C|336:224,1,60,0|8
344,288,2510,6,0,C|312:320|280:320,1,60,0|8
224,320,2826,2,0,C|224:288|256:272,1,60,0|8
248,200,3142,2,0,C|248:168|200:152,1,60,0|8
152,152,3458,2,0,L|152:120|184:120,1,60,0|8
248,112,3774,6,0,L|248:80|216:80,1,60,0|8
144,72,4090,2,0,L|144:40|176:40,1,60,0|8
240,24,4406,2,0,B|288:24|328:24,1,60,0|8
296,96,4722,2,0,B|344:88|320:136,1,60,0|8
256,160,5038,5,2
280,224,5196,1,2
384,120,5511,1,8
400,192,5669,1,8
416,264,5827,1,4
416,56,6301,5,2
344,56,6459,1,8
488,56,6775,1,0
488,200,7091,1,2
416,200,7249,2,0,B|352:256,1,60,0|8
296,240,7565,5,2
248,192,7723,1,8
160,80,8039,1,0
304,80,8355,2,0,B|304:152,2,60,2|8|8
256,136,8829,5,2
256,136,8987,1,8
256,280,9303,1,2
368,192,9618,1,8
296,192,9776,1,8
224,192,9934,1,8
152,192,10092,5,0
208,240,10250,1,2
328,320,10566,1,0
328,248,10724,1,2
328,176,10882,2,0,B|296:176|312:128|232:96,1,120,8|4
256,192,11356,12,4,12304
80,64,12620,5,2
144,64,12778,1,0
288,64,13094,1,2
352,64,13252,1,4
352,128,13410,5,2
304,176,13567,1,2
248,216,13725,1,2
184,248,13883,1,10
224,288,14041,2,0,B|272:304|272:256,1,60
336,272,14357,1,2
384,224,14515,2,0,B|384:192|336:176,1,60
128,192,15147,6,2,B|160:224|192:176,1,60
256,192,15463,1,8
256,192,15621,1,8
328,192,15779,2,0,B|328:120,3,60,0|8|8|0
256,112,16411,5,0
316,73,16569,1,0
256,112,16727,1,0
317,74,16885,1,0
376,115,17043,2,0,B|440:115,3,60,0|8|8|0
375,72,17674,6,2,B|232:72,1,120
184,72,18148,1,0
232,119,18306,2,2,B|337:179,1,120
400,216,18780,1,0
328,240,18938,2,2,B|286:297|238:249|222:281,1,120
152,280,19412,5,0
80,280,19570,1,0
80,208,19728,1,0
152,208,19886,1,0
120,144,20044,1,0
192,144,20202,6,8,B|272:112|256:112,5,60
264,192,21150,2,2,B|280:224|328:192,1,60
384,200,21466,1,0
384,128,21624,1,8
312,128,21781,1,0
312,128,21939,1,8
256,128,22097,6,0,B|272:144|320:128,1,60
312,200,22413,1,8
312,200,22571,1,8
272,248,22729,2,0,B|240:264|208:232,1,60,0|8
144,208,23045,1,0
144,208,23203,1,8
144,128,23361,2,2,B|176:112|208:144,1,60
240,80,23677,1,0
240,80,23835,1,8
176,80,23993,6,0,B|192:64|240:48|288:96,1,120,2|0
288,160,24467,2,0,B|256:192|176:144,1,120,2|0
384,80,25257,5,8
312,80,25415,1,8
240,80,25573,1,8
240,152,25730,1,8
240,224,25888,2,0,L|240:256|272:256,3,60
256,192,26678,12,0,30943
32,32,31575,5,0
112,88,31733,1,0
184,144,31891,1,0
264,192,32049,1,0
432,280,32365,1,8
512,336,32523,1,8
480,192,32839,5,8
32,192,33313,1,8
256,192,33787,1,8
256,336,34102,5,2
304,256,34260,1,2
208,256,34418,1,2
256,176,34576,1,2
256,32,34892,1,8
256,104,35050,1,8
0,16,35366,5,8
512,16,35840,1,8
256,208,36314,1,8
256,160,36630,6,0,L|288:160|272:96|160:96|160:176|256:272,1,420
352,224,37894,2,0,L|208:112,1,180,0|4
176,48,38999,5,2
176,48,39157,2,8,C|240:48,3,60
240,128,39947,1,8
336,48,40263,1,2
336,48,40421,2,8,C|272:48,3,60
272,128,41211,1,8
48,128,41685,5,2
96,176,41843,2,8,L|128:192,2,30
96,248,42158,1,8
176,232,42316,1,2
224,176,42474,2,8,L|288:144,3,60
352,192,43106,1,2
352,192,43185,1,2
352,192,43264,2,2,L|272:192,3,60
292,192,43896,1,0
292,192,44054,1,0
288,264,44212,6,2,B|216:264,1,60
152,264,44528,1,2
152,264,44686,1,4
80,264,44844,2,2,B|20:264,1,60
72,208,45160,1,2
136,184,45318,1,8
192,144,45476,6,0,B|224:112|240:128|272:160|304:128,1,120
320,208,45950,2,0,B|336:224|304:272|384:320,1,120
416,256,46423,1,2
416,184,46581,1,2
464,128,46739,5,2
448,96,46818,1,0
424,72,46897,1,0
392,64,46976,1,0
360,80,47055,2,0,B|360:144,1,60,10|8
360,208,47371,6,0,B|360:248,3,30
323,239,47687,1,8
323,239,47845,1,8
248,240,48003,6,0,B|248:202,3,30
208,208,48319,1,8
208,208,48477,1,8
136,208,48635,5,2
136,208,48714,1,0
136,208,48793,1,0
136,208,48872,1,0
136,168,48951,1,8
136,168,49109,1,8
256,192,49267,12,4,54321
