osu file format v12

[General]
AudioFilename: CSPC - 12 - Eyes Of Flame.mp3
AudioLeadIn: 2000
PreviewTime: 10903
Countdown: 0
SampleSet: Soft
StackLeniency: 0.3
Mode: 0
LetterboxInBreaks: 0
WidescreenStoryboard: 0

[Editor]
DistanceSpacing: 1
BeatDivisor: 4
GridSize: 4

[Metadata]
Title:Eyes Of Flame
TitleUnicode:Eyes Of Flame
Artist:Pixel
ArtistUnicode:Pixel
Creator:AkagamiNamikaze
Version:Hard
Source:Cave Story
Tags:Kurisuchianu Cristian Gero DakeDekaane
BeatmapID:239482
BeatmapSetID:77421

[Difficulty]
HPDrainRate:5
CircleSize:4
OverallDifficulty:6
ApproachRate:7
SliderMultiplier:1.6
SliderTickRate:2

[Events]
//Background and Video events
0,0,"cave_story_wallpaper_by_davidn6597-d3gz8bi.JPG",0,0
//Break Periods
//Storyboard Layer 0 (Background)
//Storyboard Layer 1 (Fail)
//Storyboard Layer 2 (Pass)
//Storyboard Layer 3 (Foreground)
//Storyboard Sound Samples
//Background Colour Transformations
3,100,163,162,255

[TimingPoints]
661,320.085356094959,4,2,0,50,1,0
21146,-100,4,2,0,50,0,1
31389,-100,4,2,0,50,0,0
49313,-100,4,2,0,50,0,1
51234,-200,4,2,0,50,0,1
51874,-100,4,2,0,50,0,0
62117,-100,4,2,0,50,0,1
72360,-100,4,2,0,50,0,0
90284,-100,4,2,0,50,0,1
92205,-200,4,2,0,50,0,1
92845,-100,4,2,0,50,0,0
93485,-100,4,2,0,45,0,0
94125,-100,4,2,0,30,0,0
94766,-100,4,2,0,15,0,0
95406,-100,4,2,0,5,0,0

[Colours]
Combo1 : 0,0,91
Combo2 : 0,128,64
Combo3 : 157,157,0
Combo4 : 145,0,0

[HitObjects]
64,280,661,1,0,0:0:0:0:
16,216,821,1,0,0:0:0:0:
92,192,981,2,0,P|180:128|220:88,1,160,2|0,0:0|0:0,0:0:0:0:
296,92,1461,2,2,P|332:127|420:191,1,160,0|0,0:0|0:0,0:0:0:0:
492,228,1941,5,0,0:0:0:0:
476,308,2101,1,0,0:0:0:0:
404,272,2261,2,0,P|360:272|324:292,1,80,2|0,0:0|0:0,0:0:0:0:
384,348,2581,1,0,0:0:0:0:
312,380,2741,1,0,0:0:0:0:
256,320,2901,2,2,L|256:240,1,80
232,164,3221,5,0,0:0:0:0:
164,208,3381,1,0,0:0:0:0:
184,288,3541,2,0,P|152:264|36:232,1,160,2|0,0:0|0:0,0:0:0:0:
37,151,4021,2,2,P|152:120|184:96,1,160,0|0,0:0|0:0,0:0:0:0:
344,112,4662,6,0,L|264:112,1,80,0|4,0:0|0:0,0:0:0:0:
264,192,4982,2,0,L|352:192,1,80,0|4,0:0|0:0,0:0:0:0:
344,272,5302,2,0,L|264:272,1,80,0|4,0:0|0:0,0:0:0:0:
196,232,5622,1,4,0:0:0:0:
116,196,5782,6,0,L|132:280,1,80,4|0,0:0|0:0,0:0:0:0:
52,292,6102,2,0,L|36:208,1,80,2|0,0:0|0:0,0:0:0:0:
64,136,6422,1,0,0:0:0:0:
132,92,6582,2,2,L|296:92,1,160,0|0,0:0|0:0,0:0:0:0:
360,48,7062,5,0,0:0:0:0:
432,84,7222,1,0,0:0:0:0:
364,128,7382,2,0,P|376:176|392:204,1,80,2|0,0:0|0:0,0:0:0:0:
372,280,7702,1,0,0:0:0:0:
296,304,7862,1,0,0:0:0:0:
308,224,8022,2,2,P|296:176|280:148,1,80
260,72,8343,6,0,P|213:88|186:106,1,80
204,180,8663,2,0,P|216:228|232:256,1,80,2|0,0:0|0:0,0:0:0:0:
220,332,8983,1,0,0:0:0:0:
152,288,9143,2,2,P|124:232|124:128,1,160,0|0,0:0|0:0,0:0:0:0:
256,48,9783,6,0,L|256:128,1,80,0|4,0:0|0:0,0:0:0:0:
296,196,10103,2,0,P|300:236|296:276,1,80,0|4,0:0|0:0,0:0:0:0:
216,276,10423,2,0,P|212:236|216:196,1,80,0|4,0:0|0:0,0:0:0:0:
156,144,10743,1,4,0:0:0:0:
100,88,10903,6,0,L|20:88,2,80,4|2|0,0:0|0:0|0:0,0:0:0:0:
164,40,11383,1,2,0:0:0:0:
240,20,11543,2,0,L|320:20,2,80,0|2|0,0:0|0:0|0:0,0:0:0:0:
164,40,12024,1,2,0:0:0:0:
216,100,12184,2,0,P|248:128|284:144,1,80,2|0,0:0|0:0,0:0:0:0:
356,112,12504,1,2,0:0:0:0:
304,48,12664,2,2,P|416:56|436:92,1,160,2|0,0:0|0:0,0:0:0:0:
476,156,13144,1,2,0:0:0:0:
476,236,13304,1,0,0:0:0:0:
476,316,13464,6,0,L|396:316,3,80,0|0|2|2,0:0|0:0|0:0|0:0,0:0:0:0:
316,316,14104,2,0,L|316:356,8,40,0|0|2|2|0|0|2|2|2,0:0|0:0|0:0|0:0|0:0|0:0|0:0|0:0|0:0,0:0:0:0:
256,260,14904,1,0,0:0:0:0:
256,180,15064,1,0,0:0:0:0:
188,224,15224,2,2,P|256:260|328:220,1,160,6|0,0:0|0:0,0:0:0:0:
328,144,15705,1,6,0:0:0:0:
256,180,15865,1,6,0:0:0:0:
184,144,16025,5,4,0:0:0:0:
184,144,16105,1,0,0:0:0:0:
184,144,16185,1,0,0:0:0:0:
256,108,16345,2,2,P|204:64|112:180,2,240,2|0|0,0:0|0:0|0:0,0:0:0:0:
184,252,17625,2,0,P|160:280|144:320,1,80,2|0,0:0|0:0,0:0:0:0:
216,352,17945,2,0,L|300:352,1,80,2|0,0:0|0:0,0:0:0:0:
367,319,18265,2,0,P|353:282|328:252,1,80,2|0,0:0|0:0,0:0:0:0:
256,272,18585,5,2,0:0:0:0:
256,272,18665,1,0,0:0:0:0:
256,272,18745,1,0,0:0:0:0:
256,192,18905,2,2,B|360:192|360:192|256:32|256:32|152:192|152:192,1,480,2|0,0:0|0:0,0:0:0:0:
328,131,20186,2,0,P|353:101|367:64,1,80,6|0,0:0|0:0,0:0:0:0:
296,32,20506,2,0,L|216:32,1,80,2|4,0:0|0:0,0:0:0:0:
144,64,20826,2,0,P|158:101|184:132,1,80,6|0,0:0|0:0,0:0:0:0:
256,192,21146,5,4,0:0:0:0:
196,244,21306,1,2,0:1:0:0:
132,292,21466,2,0,P|146:329|152:369,1,80,0|2,1:0|0:1,0:0:0:0:
236,313,21786,2,0,P|219:276|196:244,1,80,0|2,0:0|0:1,0:0:0:0:
256,192,22106,2,0,P|287:217|312:248,1,80,0|2,1:0|0:1,0:0:0:0:
376,296,22426,2,0,L|456:296,1,80,2|0,0:1|0:0,0:0:0:0:
500,228,22746,1,2,1:0:0:0:
500,148,22906,2,2,P|452:76|380:80,1,160,2|2,0:1|0:1,0:1:0:0:
344,148,23387,1,2,1:0:0:0:
424,148,23547,1,2,0:1:0:0:
344,148,23707,6,0,L|260:148,1,80,0|2,0:0|0:1,0:0:0:0:
168,236,24027,2,0,L|252:236,1,80,0|2,1:0|0:1,0:0:0:0:
328,236,24347,2,0,L|328:280,8,40,0|0|2|2|0|0|2|2|2,0:0|0:0|0:1|0:1|1:0|0:0|0:1|0:1|0:1,0:0:0:0:
404,208,25147,1,0,0:0:0:0:
404,208,25307,1,0,1:0:0:0:
460,148,25467,2,2,P|424:80|344:56,1,160,2|2,0:1|1:0,0:1:0:0:
292,108,25947,1,2,1:0:0:0:
332,176,26107,1,2,0:1:0:0:
256,192,26267,5,0,1:0:0:0:
256,192,26347,1,0,0:0:0:0:
256,192,26427,1,0,0:0:0:0:
220,276,26587,2,0,P|128:208|44:276,2,240,0|0|0,1:0|0:0|0:0,0:0:0:0:
256,348,27708,1,0,0:0:0:0:
176,344,27868,2,0,P|148:312|140:264,1,80,0|0,1:0|0:0,0:0:0:0:
184,212,28188,1,0,0:0:0:0:
328,212,28348,1,0,1:0:0:0:
372,276,28508,2,0,P|362:314|336:344,1,80,0|0,1:0|0:0,0:0:0:0:
256,348,28828,5,0,1:0:0:0:
256,348,28908,1,0,0:0:0:0:
256,348,28988,1,0,0:0:0:0:
256,252,29148,2,0,B|232:172|280:92|256:12,2,240,0|0|0,1:0|0:0|0:0,0:0:0:0:
256,348,30268,1,0,0:0:0:0:
336,332,30428,2,0,P|340:288|340:248,1,80,0|0,1:0|0:0,0:0:0:0:
296,184,30748,2,0,P|264:180|216:184,1,80
171,252,31068,2,0,P|172:288|176:332,1,80,0|0,1:0|0:0,0:0:0:0:
96,332,31389,6,0,P|92:288|91:252,1,80,2|0,0:0|0:0,0:0:0:0:
128,184,31709,1,0,0:0:0:0:
64,132,31869,2,0,P|128:88|188:28,1,160,2|2,0:0|0:0,0:0:0:0:
264,12,32349,1,0,0:0:0:0:
224,132,32509,1,0,0:0:0:0:
300,108,32669,2,0,P|340:104|380:108,1,80,2|0,0:0|0:0,0:0:0:0:
424,176,32989,2,0,P|428:216|424:256,1,80,2|0,0:0|0:0,0:0:0:0:
380,320,33309,2,0,P|340:324|300:320,1,80,2|2,0:0|0:0,0:0:0:0:
256,256,33629,2,0,P|252:216|256:176,1,80,0|2,0:0|0:0,0:0:0:0:
212,108,33949,5,0,0:0:0:0:
216,28,34109,1,0,0:0:0:0:
212,108,34269,2,0,P|160:192|104:240,1,160,2|0,0:0|0:0,0:0:0:0:
180,276,34750,2,2,P|236:256|332:276,1,160,0|0,0:0|0:0,0:0:0:0:
404,312,35230,1,0,0:0:0:0:
468,265,35390,1,0,0:0:0:0:
397,232,35550,2,0,P|339:177|300:107,1,160,2|0,0:0|0:0,0:0:0:0:
344,36,36030,2,2,P|243:46|217:103,1,160,4|0,0:0|0:0,0:0:0:0:
218,170,36510,5,6,0:0:0:0:
224,252,36670,1,0,0:0:0:0:
299,268,36830,1,0,0:0:0:0:
332,196,36990,2,0,P|360:164|472:152,1,160,2|2,0:0|0:0,0:0:0:0:
484,232,37470,2,0,L|484:312,1,80
412,276,37790,2,0,L|412:356,1,80,2|0,0:0|0:0,0:0:0:0:
336,332,38110,2,0,L|252:332,1,80,2|0,0:0|0:0,0:0:0:0:
180,356,38431,2,0,L|180:276,1,80,2|2,0:0|0:0,0:0:0:0:
108,312,38751,2,0,L|108:232,1,80,0|2,0:0|0:0,0:0:0:0:
60,168,39071,5,0,0:0:0:0:
84,92,39231,1,0,0:0:0:0:
132,28,39391,2,0,P|188:76|216:156,1,160,2|0,0:0|0:0,0:0:0:0:
296,156,39871,2,2,P|324:76|380:28,1,160,0|0,0:0|0:0,0:0:0:0:
444,76,40351,1,0,0:0:0:0:
468,152,40511,1,0,0:0:0:0:
492,228,40671,2,0,B|448:296|448:296|368:296,1,160,6|0,0:0|0:0,0:0:0:0:
288,296,41151,2,2,B|208:296|208:296|164:228,1,160,4|0,0:0|0:0,0:0:0:0:
104,176,41631,6,0,P|100:132|88:96,1,80,4|0,0:0|0:0,0:0:0:0:
148,44,41952,2,0,P|192:40|228:28,1,80,2|0,0:0|0:0,0:0:0:0:
304,44,42272,2,0,P|308:88|320:124,1,80
364,188,42592,2,0,P|408:184|444:172,1,80,2|0,0:0|0:0,0:0:0:0:
492,236,42912,2,0,P|503:269|507:313,1,80
388,336,43232,2,0,P|376:302|372:258,1,80,2|0,0:0|0:0,0:0:0:0:
296,236,43552,5,2,0:0:0:0:
200,236,43712,1,0,0:0:0:0:
156,148,43872,1,2,0:0:0:0:
252,148,44032,1,0,0:0:0:0:
348,148,44192,1,2,0:0:0:0:
256,192,44272,12,4,46113,1:0:0:0:
132,192,46753,6,0,P|144:152|160:112,1,80
216,56,47073,2,0,P|256:52|296:56,1,80,2|0,0:0|0:0,0:0:0:0:
353,116,47393,2,0,P|368:152|380:192,1,80
360,268,47713,2,0,P|332:300|288:308,1,80,2|0,0:0|0:0,0:0:0:0:
215,308,48033,2,0,P|180:300|152:268,1,80
132,192,48353,5,2,0:0:0:0:
132,96,48513,1,0,0:0:0:0:
256,96,48673,1,2,0:0:0:0:
256,192,48833,1,0,0:0:0:0:
380,192,48993,1,2,0:0:0:0:
380,96,49153,1,2,0:0:0:0:
256,96,49313,6,0,P|224:60|132:96,1,160,4|2,1:0|0:1,0:0:0:0:
132,192,49794,2,0,P|224:228|256:192,1,160,4|2,1:0|0:1,0:0:0:0:
380,95,50274,2,0,P|432:143|380:192,1,160,4|2,1:0|0:1,0:0:0:0:
255,192,50754,2,0,P|203:143|256:96,1,160,4|2,1:0|0:1,0:0:0:0:
316,256,51234,6,0,L|316:336,1,80,6|2,1:0|0:1,0:0:0:0:
412,296,51874,6,0,L|492:296,2,80,4|2|0,0:0|0:0|0:0,0:0:0:0:
348,344,52354,1,2,0:0:0:0:
272,364,52514,2,0,L|192:364,2,80,0|2|0,0:0|0:0|0:0,0:0:0:0:
348,344,52995,1,2,0:0:0:0:
296,284,53155,2,0,P|264:256|228:240,1,80,2|0,0:0|0:0,0:0:0:0:
156,272,53475,1,2,0:0:0:0:
208,336,53635,2,2,P|96:328|76:292,1,160,2|0,0:0|0:0,0:0:0:0:
36,228,54115,1,2,0:0:0:0:
36,148,54275,1,0,0:0:0:0:
36,68,54435,6,0,L|116:68,3,80,0|0|2|2,0:0|0:0|0:0|0:0,0:0:0:0:
196,68,55075,2,0,L|196:28,8,40,0|0|2|2|0|0|2|2|2,0:0|0:0|0:0|0:0|0:0|0:0|0:0|0:0|0:0,0:0:0:0:
256,124,55875,1,0,0:0:0:0:
256,204,56035,1,0,0:0:0:0:
324,160,56195,2,2,P|256:124|184:164,1,160,6|0,0:0|0:0,0:0:0:0:
184,240,56676,1,6,0:0:0:0:
256,200,56836,1,6,0:0:0:0:
328,240,56996,5,4,0:0:0:0:
328,240,57076,1,0,0:0:0:0:
328,240,57156,1,0,0:0:0:0:
256,276,57316,2,2,P|308:320|400:204,2,240,2|0|0,0:0|0:0|0:0,0:0:0:0:
328,131,58596,2,0,P|353:101|367:64,1,80,2|0,0:0|0:0,0:0:0:0:
296,32,58916,2,0,L|216:32,1,80,2|0,0:0|0:0,0:0:0:0:
144,64,59236,2,0,P|158:101|184:132,1,80,2|0,0:0|0:0,0:0:0:0:
256,112,59556,5,2,0:0:0:0:
256,112,59636,1,0,0:0:0:0:
256,112,59716,1,0,0:0:0:0:
256,192,59876,2,2,B|152:192|152:192|256:352|256:352|360:192|360:192,1,480,2|0,0:0|0:0,0:0:0:0:
183,252,61157,2,0,P|158:282|144:319,1,80,6|0,0:0|0:0,0:0:0:0:
216,352,61477,2,0,L|296:352,1,80,2|4,0:0|0:0,0:0:0:0:
367,319,61797,2,0,P|353:282|328:252,1,80,6|0,0:0|0:0,0:0:0:0:
256,192,62117,5,4,0:0:0:0:
316,140,62277,1,2,0:1:0:0:
380,92,62437,2,0,P|366:55|360:15,1,80,0|2,1:0|0:1,0:0:0:0:
276,71,62757,2,0,P|293:108|316:140,1,80,0|2,0:0|0:1,0:0:0:0:
256,192,63077,2,0,P|225:167|200:136,1,80,0|2,1:0|0:1,0:0:0:0:
136,88,63397,2,0,L|56:88,1,80,2|0,0:1|0:0,0:0:0:0:
12,156,63717,1,2,1:0:0:0:
12,236,63877,2,2,P|60:308|132:304,1,160,2|2,0:1|0:1,0:1:0:0:
168,236,64358,1,2,1:0:0:0:
88,236,64518,1,2,0:1:0:0:
168,236,64678,6,0,L|252:236,1,80,0|2,0:0|0:1,0:0:0:0:
344,148,64998,2,0,L|260:148,1,80,0|2,1:0|0:1,0:0:0:0:
184,148,65318,2,0,L|184:104,8,40,0|0|2|2|0|0|2|2|2,0:0|0:0|0:1|0:1|1:0|0:0|0:1|0:1|0:1,0:0:0:0:
108,176,66118,1,0,0:0:0:0:
108,176,66278,1,0,1:0:0:0:
52,236,66438,2,2,P|88:304|168:328,1,160,2|2,0:1|1:0,0:1:0:0:
220,276,66918,1,2,1:0:0:0:
180,208,67078,1,2,0:1:0:0:
256,192,67238,5,0,1:0:0:0:
256,192,67318,1,0,0:0:0:0:
256,192,67398,1,0,0:0:0:0:
292,108,67558,2,0,P|384:176|468:108,2,240,0|0|0,1:0|0:0|0:0,0:0:0:0:
256,36,68679,1,0,0:0:0:0:
336,40,68839,2,0,P|362:69|372:107,1,80,0|0,1:0|0:0,0:0:0:0:
328,172,69159,1,0,0:0:0:0:
184,172,69319,1,0,1:0:0:0:
139,107,69479,2,0,P|149:69|175:40,1,80,0|0,1:0|0:0,0:0:0:0:
256,36,69799,5,0,1:0:0:0:
256,36,69879,1,0,0:0:0:0:
256,36,69959,1,0,0:0:0:0:
256,132,70119,2,0,B|280:212|232:292|256:372,2,240,0|0|0,1:0|0:0|0:0,0:0:0:0:
256,36,71239,1,0,0:0:0:0:
176,52,71399,2,0,P|172:96|172:136,1,80,0|0,1:0|0:0,0:0:0:0:
216,200,71719,2,0,P|248:204|296:200,1,80
341,132,72039,2,0,P|340:96|336:52,1,80,0|0,1:0|0:0,0:0:0:0:
416,52,72360,6,0,P|420:96|421:132,1,80,2|0,0:0|0:0,0:0:0:0:
384,200,72680,1,0,0:0:0:0:
448,252,72840,2,0,P|384:296|324:356,1,160,2|2,0:0|0:0,0:0:0:0:
248,372,73320,1,0,0:0:0:0:
288,252,73480,1,0,0:0:0:0:
212,276,73640,2,0,P|172:280|132:276,1,80,2|0,0:0|0:0,0:0:0:0:
88,208,73960,2,0,P|84:168|88:128,1,80,2|0,0:0|0:0,0:0:0:0:
132,64,74280,2,0,P|172:60|212:64,1,80,2|2,0:0|0:0,0:0:0:0:
256,128,74600,2,0,P|260:168|256:208,1,80,0|2,0:0|0:0,0:0:0:0:
300,276,74920,5,0,0:0:0:0:
296,356,75080,1,0,0:0:0:0:
300,276,75240,2,0,P|352:192|408:144,1,160,2|0,0:0|0:0,0:0:0:0:
332,108,75721,2,2,P|276:128|180:108,1,160,0|0,0:0|0:0,0:0:0:0:
108,72,76201,1,0,0:0:0:0:
44,119,76361,1,0,0:0:0:0:
114,151,76521,2,0,P|172:206|212:276,1,160,2|0,0:0|0:0,0:0:0:0:
168,348,77001,2,2,P|268:337|294:280,1,160,4|0,0:0|0:0,0:0:0:0:
294,214,77481,5,6,0:0:0:0:
288,132,77641,1,0,0:0:0:0:
213,116,77801,1,0,0:0:0:0:
180,188,77961,2,0,P|152:220|40:232,1,160,2|2,0:0|0:0,0:0:0:0:
28,152,78441,2,0,L|28:72,1,80
100,108,78761,2,0,L|100:28,1,80,2|0,0:0|0:0,0:0:0:0:
176,52,79081,2,0,L|260:52,1,80,2|0,0:0|0:0,0:0:0:0:
332,28,79402,2,0,L|332:108,1,80,2|2,0:0|0:0,0:0:0:0:
404,72,79722,2,0,L|404:152,1,80,0|2,0:0|0:0,0:0:0:0:
452,216,80042,5,0,0:0:0:0:
428,292,80202,1,0,0:0:0:0:
380,356,80362,2,0,P|324:308|296:228,1,160,2|0,0:0|0:0,0:0:0:0:
216,228,80842,2,2,P|188:308|132:356,1,160,0|0,0:0|0:0,0:0:0:0:
68,308,81322,1,0,0:0:0:0:
44,232,81482,1,0,0:0:0:0:
20,156,81642,2,0,B|64:88|64:88|144:88,1,160,6|0,0:0|0:0,0:0:0:0:
224,88,82122,2,2,B|304:88|304:88|348:156,1,160,4|0,0:0|0:0,0:0:0:0:
408,208,82602,6,0,P|412:252|424:288,1,80,4|0,0:0|0:0,0:0:0:0:
364,340,82923,2,0,P|320:344|284:356,1,80,2|0,0:0|0:0,0:0:0:0:
208,340,83243,2,0,P|204:296|192:260,1,80
148,196,83563,2,0,P|104:200|68:212,1,80,2|0,0:0|0:0,0:0:0:0:
20,148,83883,2,0,P|9:115|5:71,1,80
124,48,84203,2,0,P|136:82|140:126,1,80,2|0,0:0|0:0,0:0:0:0:
216,148,84523,5,2,0:0:0:0:
312,148,84683,1,0,0:0:0:0:
356,236,84843,1,2,0:0:0:0:
260,236,85003,1,0,0:0:0:0:
164,236,85163,1,2,0:0:0:0:
256,192,85243,12,4,87084,1:0:0:0:
380,192,87724,6,0,P|368:232|352:272,1,80
296,328,88044,2,0,P|256:332|216:328,1,80,2|0,0:0|0:0,0:0:0:0:
159,268,88364,2,0,P|144:232|132:192,1,80
152,116,88684,2,0,P|180:84|224:76,1,80,2|0,0:0|0:0,0:0:0:0:
297,76,89004,2,0,P|332:84|360:116,1,80
380,192,89324,5,2,0:0:0:0:
380,288,89484,1,0,0:0:0:0:
256,288,89644,1,2,0:0:0:0:
256,192,89804,1,0,0:0:0:0:
132,192,89964,1,2,0:0:0:0:
132,288,90124,1,2,0:0:0:0:
256,288,90284,6,0,P|288:324|380:288,1,160,4|2,1:0|0:1,0:0:0:0:
380,192,90765,2,0,P|288:156|256:192,1,160,4|2,1:0|0:1,0:0:0:0:
131,288,91245,2,0,P|79:240|132:192,1,160,4|2,1:0|0:1,0:0:0:0:
256,191,91725,2,0,P|308:240|256:288,1,160,4|2,1:0|0:1,0:0:0:0:
196,128,92205,6,0,L|196:48,1,80,6|2,1:0|0:1,0:0:0:0:
196,48,92845,5,4,0:0:0:0:
256,192,92925,12,0,95406,0:0:0:0:
