osu file format v12

[General]
AudioFilename: CSPC - 12 - Eyes Of Flame.mp3
AudioLeadIn: 2000
PreviewTime: 10903
Countdown: 0
SampleSet: Soft
StackLeniency: 0.3
Mode: 0
LetterboxInBreaks: 0
WidescreenStoryboard: 0

[Editor]
DistanceSpacing: 0.8
BeatDivisor: 2
GridSize: 4

[Metadata]
Title:Eyes Of Flame
TitleUnicode:Eyes Of Flame
Artist:Pixel
ArtistUnicode:Pixel
Creator:AkagamiNamikaze
Version:Easy
Source:Cave Story
Tags:Kurisuchianu Cristian Gero DakeDekaane
BeatmapID:233884
BeatmapSetID:77421

[Difficulty]
HPDrainRate:2
CircleSize:3
OverallDifficulty:2
ApproachRate:3
SliderMultiplier:0.799999999999999
SliderTickRate:2

[Events]
//Background and Video events
0,0,"cave_story_wallpaper_by_davidn6597-d3gz8bi.JPG",0,0
//Break Periods
//Storyboard Layer 0 (Background)
//Storyboard Layer 1 (Fail)
//Storyboard Layer 2 (Pass)
//Storyboard Layer 3 (Foreground)
//Storyboard Sound Samples
//Background Colour Transformations
3,100,163,162,255

[TimingPoints]
661,320.085356094959,4,2,0,50,1,0
21146,-100,4,2,0,50,0,1
31389,-100,4,2,0,50,0,0
49313,-100,4,2,0,50,0,1
51874,-100,4,2,0,50,0,0
62117,-100,4,2,0,50,0,1
72360,-100,4,2,0,50,0,0
90284,-100,4,2,0,50,0,1
92845,-100,4,2,0,50,0,0
93485,-100,4,2,0,45,0,0
94125,-100,4,2,0,30,0,0
94766,-100,4,2,0,15,0,0
95406,-100,4,2,0,5,0,0

[Colours]
Combo1 : 0,0,91
Combo2 : 0,128,64
Combo3 : 157,157,0
Combo4 : 145,0,0

[HitObjects]
124,120,661,2,0,P|256:44|388:124,1,320,0|2,0:0|0:0,0:0:0:0:
496,192,2581,1,2,0:0:0:0:
388,264,3221,2,0,P|256:340|124:260,1,320,0|2,0:0|0:0,0:0:0:0:
48,160,5142,2,0,P|56:120|48:80,1,79.9999999999999,4|4,0:2|0:2,0:0:0:0:
100,44,5782,6,0,P|256:72|416:40,1,320,4|2,0:0|0:0,0:0:0:0:
392,168,7702,1,2,0:0:0:0:
412,296,8343,2,0,P|256:268|96:300,1,320,4|2,0:0|0:0,0:0:0:0:
0,212,10263,2,0,L|52:152,1,79.9999999999999,4|4,0:2|0:2,0:0:0:0:
92,100,10903,6,0,P|212:88|324:124,1,240,4|2,0:2|0:0,0:0:0:0:
372,168,12184,2,2,P|384:248|412:284,2,120
332,120,13464,2,2,P|256:96|180:120,1,160,0|2,0:0|0:0,0:0:0:0:
132,160,14424,1,2,0:0:0:0:
92,208,14744,2,2,P|80:288|52:324,2,120
256,192,16025,12,0,17305,0:0:0:0:
256,148,17945,6,0,L|256:60,1,79.9999999999999,2|0,0:0|0:0,0:0:0:0:
256,192,18585,12,0,19866,0:0:0:0:
256,236,20506,6,0,L|256:324,1,79.9999999999999,0|4,0:0|0:2,0:0:0:0:
256,380,21146,6,0,P|176:352|92:224,1,240,4|2,0:2|1:0,0:0:0:0:
92,164,22426,2,0,P|175:39|255:11,1,240,2|2,0:1|1:0,0:0:0:0:
316,24,23707,2,0,B|316:108|316:108|344:132|368:164|368:164|452:164,1,240,0|2,0:0|1:0,0:0:0:0:
472,224,24987,2,2,L|472:348,2,120,0|2|2,0:0|1:1|0:1,0:1:0:0:
256,192,26267,12,0,27548,0:0:0:0:
256,128,28188,6,2,B|276:128|296:124|296:124|316:128|336:128,1,79.9999999999999,2|2,0:1|0:1,1:0:0:0:
256,192,28828,12,0,30108,0:0:0:0:
256,256,30749,6,2,B|236:256|216:260|216:260|196:256|176:256,1,79.9999999999999,2|2,0:1|0:1,1:0:0:0:
172,192,31389,6,0,P|248:144|320:124,1,160,2|2,0:0|0:0,0:0:0:0:
440,92,32669,1,2,0:0:0:0:
440,220,33309,2,0,P|373:263|329:329,1,160,2|0,0:0|0:0,0:0:0:0:
276,364,34269,1,2,0:0:0:0:
232,320,34590,6,0,P|204:240|152:184,1,160,0|0,0:0|0:0,0:0:0:0:
264,124,35870,2,0,P|292:204|344:260,1,160,2|0,0:0|0:0,0:0:0:0:
408,256,36830,6,0,P|464:192|488:116,2,160,2|0|2,0:0|0:0|0:0,0:0:0:0:
360,296,38431,1,0,0:0:0:0:
232,292,39071,6,0,P|136:156|232:104,1,320,0|2,0:0|0:0,0:0:0:0:
320,196,40991,1,4,0:0:0:0:
256,196,41311,1,4,0:0:0:0:
192,196,41631,1,4,0:0:0:0:
112,96,42272,6,0,P|236:56|276:56,1,160,2|2,0:0|0:0,0:0:0:0:
368,132,43552,2,0,P|244:172|204:172,1,160,2|2,0:0|0:0,0:0:0:0:
256,192,44352,12,0,45472,0:0:0:0:
256,92,46113,5,0,0:0:0:0:
256,156,46433,1,4,0:0:0:0:
256,220,46753,6,0,P|176:240|92:244,1,160,4|2,0:0|0:0,0:0:0:0:
24,140,48033,2,0,P|104:120|181:115,1,160,0|2,0:0|0:0,0:0:0:0:
256,16,49313,6,6,B|268:40|272:72|272:72|276:104|288:132,4,120
128,32,51874,6,0,P|112:112|56:176,1,160,4|2,0:0|0:0,0:0:0:0:
8,288,53155,1,2,0:0:0:0:
92,332,53635,2,0,P|196:312|216:316,1,120,2|0,0:0|0:0,0:0:0:0:
256,356,54435,2,0,P|320:280|256:88,1,320
128,84,56355,1,4,0:0:0:0:
80,125,56675,1,0,0:0:0:0:
40,176,56996,6,0,P|40:260|152:356,1,240,4|0,0:0|0:0,0:0:0:0:
256,280,58596,2,2,L|256:196,1,79.9999999999999
344,108,59556,2,0,P|456:204|456:288,1,240
340,232,61157,2,0,B|324:280|324:328|324:328|264:312,1,160,4|0,0:0|0:0,0:0:0:0:
208,280,62117,6,0,P|124:288|48:280,2,160,4|2|2,0:0|1:0|0:1,0:0:0:0:
296,188,64037,1,2,1:0:0:0:
208,92,64678,2,0,P|124:84|48:92,2,160,0|2|2,0:0|1:0|0:1,0:0:0:0:
296,188,66598,2,0,L|376:188,1,79.9999999999999,0|2,0:0|0:1,0:0:0:0:
256,192,67238,12,0,68519,0:0:0:0:
204,144,69159,6,2,P|184:112|144:84,1,79.9999999999999
256,192,69799,12,0,71079,0:0:0:0:
308,240,71719,6,2,P|328:272|368:300,1,79.9999999999999
412,336,72360,6,0,P|468:280|408:64,1,320,4|2,0:0|0:0,0:0:0:0:
308,140,74280,1,2,0:0:0:0:
204,68,74920,2,0,P|152:278|208:334,1,320,2|2,0:0|0:0,0:0:0:0:
308,252,76841,1,4,0:0:0:0:
196,188,77481,6,0,P|96:200|36:168,2,160,4|0|2,0:0|0:0|0:0,0:0:0:0:
192,60,79401,2,0,L|352:60,1,160,2|0,0:0|0:0,0:0:0:0:
452,140,80682,1,2,0:0:0:0:
452,268,81322,1,0,0:0:0:0:
324,268,81962,1,0,0:0:0:0:
196,268,82602,6,0,P|148:248|148:84,1,240,4|0,0:0|0:0,0:0:0:0:
268,44,84203,2,0,P|302:66|324:112,2,79.9999999999999,2|0|2,0:0|0:0|0:0,0:0:0:0:
204,56,85163,1,0,0:0:0:0:
256,192,85323,12,0,86443,0:0:0:0:
204,56,87084,1,4,0:0:0:0:
284,156,87724,6,0,P|192:184|80:84,1,240,4|0,0:0|0:0,0:0:0:0:
204,56,89324,2,0,P|246:50|284:56,1,79.9999999999999
396,116,90284,2,4,P|429:161|441:223,4,120
284,56,92845,5,4,0:0:0:0:
256,192,93005,12,0,95406,0:0:0:0:
