osu file format v13

[General]
AudioFilename: Pitbull - Timber(feat. Ke$ha).mp3
AudioLeadIn: 0
PreviewTime: -1
Countdown: 0
SampleSet: Soft
StackLeniency: 0.7
Mode: 0
LetterboxInBreaks: 1
WidescreenStoryboard: 0

[Editor]
DistanceSpacing: 1
BeatDivisor: 4
GridSize: 4
TimelineZoom: 1

[Metadata]
Title:Timber(feat. Ke$ha)
TitleUnicode:Timber(feat. Ke$ha)
Artist:Pitbull
ArtistUnicode:Pitbull
Creator:inferno
Version:Timber
Source:
Tags:DJ party rock
BeatmapID:344812
BeatmapSetID:138017

[Difficulty]
HPDrainRate:7
CircleSize:4
OverallDifficulty:6
ApproachRate:9
SliderMultiplier:1.8
SliderTickRate:1

[Events]
//Background and Video events
0,0,"bg.jpg",0,0
//Break Periods
2,141227,155427
//Storyboard Layer 0 (Background)
//Storyboard Layer 1 (Fail)
//Storyboard Layer 2 (Pass)
//Storyboard Layer 3 (Foreground)
//Storyboard Sound Samples
//Background Colour Transformations
3,100,163,162,255

[TimingPoints]
951,461.538461538462,4,2,0,61,1,0
7643,-133.333333333333,4,2,0,61,0,0
22874,-100,4,2,0,61,0,0
37874,-76.9230769230769,4,2,0,61,0,0
44797,-133.333333333333,4,2,0,61,0,0
45143,-76.9230769230769,4,2,0,61,0,0
46643,-133.333333333333,4,2,0,61,0,0
46989,-76.9230769230769,4,2,0,61,0,0
48489,-133.333333333333,4,2,0,61,0,0
48835,-76.9230769230769,4,2,0,61,0,0
52181,-133.333333333333,4,2,0,61,0,0
52527,-76.9230769230769,4,2,0,61,0,0
67412,-100,4,2,0,61,0,0
80335,-133.333333333333,4,2,0,61,0,0
81143,-100,4,2,0,61,0,0
96951,-58.8235294117647,4,2,0,61,0,1
111258,-76.9230769230769,4,2,0,61,0,0
114951,-100,4,2,0,61,0,0
115297,-76.9230769230769,4,2,0,61,0,0
120489,-133.333333333333,4,2,0,61,0,0
120835,-76.9230769230769,4,2,0,61,0,0
122335,-133.333333333333,4,2,0,61,0,0
122681,-76.9230769230769,4,2,0,61,0,0
163412,-76.9230769230769,4,2,0,61,0,0
170797,-58.8235294117647,4,2,0,61,0,1
186951,-133.333333333333,4,2,0,61,0,1
187297,-58.8235294117647,4,2,0,61,0,1
194335,-133.333333333333,4,2,0,61,0,1
194681,-58.8235294117647,4,2,0,61,0,1
200335,-76.9230769230769,4,2,0,61,0,0

[Colours]
Combo1 : 192,192,192
Combo2 : 255,128,64
Combo3 : 58,221,11
Combo4 : 145,0,72
Combo5 : 0,255,255
Combo6 : 242,242,0

[HitObjects]
120,104,7643,5,0,0:0:0:0:
128,128,7874,1,0,0:0:0:0:
136,152,8105,1,0,0:0:0:0:
144,176,8335,2,0,P|224:192|264:232,2,135.000005149842
264,296,9489,5,0,0:0:0:0:
288,288,9720,1,0,0:0:0:0:
312,280,9951,1,0,0:0:0:0:
336,272,10181,2,0,L|416:240,1,67.5000025749208
336,272,10643,2,0,P|336:224|416:144,1,135.000005149842
208,72,11335,5,0,0:0:0:0:
232,96,11566,1,0,0:0:0:0:
264,104,11797,1,0,0:0:0:0:
296,104,12027,2,0,P|368:112|400:144,2,101.250003862381
224,216,12951,1,0,0:0:0:0:
160,336,13181,5,0,0:0:0:0:
128,336,13412,1,0,0:0:0:0:
96,320,13643,1,0,0:0:0:0:
80,288,13874,2,0,B|96:240|16:192|56:144,2,135.000005149842
352,144,15027,5,0,0:0:0:0:
320,184,15258,1,0,0:0:0:0:
288,224,15489,1,0,0:0:0:0:
256,264,15720,2,0,P|208:288|128:280,2,135.000005149842
80,176,16874,5,0,0:0:0:0:
136,168,17104,1,0,0:0:0:0:
168,120,17335,1,0,0:0:0:0:
224,120,17566,2,0,L|272:48,1,67.5000025749208
224,120,18027,2,0,B|248:184|248:184|312:224,1,135.000005149842
432,56,18720,5,0,0:0:0:0:
464,96,18951,1,0,0:0:0:0:
464,152,19181,1,0,0:0:0:0:
424,184,19412,2,0,P|392:248|312:256,2,135.000005149842
184,192,20566,5,0,0:0:0:0:
144,224,20797,1,0,0:0:0:0:
136,280,21027,1,0,0:0:0:0:
168,328,21258,2,0,L|112:376,1,67.5000025749208,2|0,0:0|0:0,0:0:0:0:
304,304,21720,2,0,L|248:352,1,67.5000025749208,2|0,0:0|0:0,0:0:0:0:
440,280,22181,2,0,L|384:328,1,67.5000025749208,2|0,0:0|0:0,0:0:0:0:
344,176,22643,1,2,0:0:0:0:
344,176,22874,6,0,P|304:144|176:168,1,180
104,204,23566,1,0,0:0:0:0:
40,144,23797,1,0,0:0:0:0:
104,204,24027,1,0,0:0:0:0:
184,160,24258,1,0,0:0:0:0:
248,224,24489,2,0,P|312:280|416:256,1,180
424,184,25181,5,0,0:0:0:0:
364,116,25411,1,0,0:0:0:0:
364,116,25527,1,0,0:0:0:0:
364,116,25642,1,0,0:0:0:0:
272,112,25874,2,0,L|192:40,1,90
176,136,26335,2,0,L|68:184,1,90
216,304,27027,5,0,0:0:0:0:
296,260,27258,2,0,P|344:256|392:288,1,90
216,208,27720,2,0,P|200:160|216:116,1,90
276,60,28181,1,0,0:0:0:0:
276,60,28297,1,0,0:0:0:0:
276,60,28412,1,0,0:0:0:0:
364,80,28643,6,0,P|392:128|388:168,1,90
348,240,29104,1,0,0:0:0:0:
348,240,29220,1,0,0:0:0:0:
348,240,29335,1,0,0:0:0:0:
412,304,29566,1,0,0:0:0:0:
412,304,29797,1,0,0:0:0:0:
412,304,30027,1,0,0:0:0:0:
256,280,30258,6,0,B|204:248|136:300|68:280,1,180
28,208,30951,1,0,0:0:0:0:
28,208,31181,1,0,0:0:0:0:
80,132,31412,1,0,0:0:0:0:
80,132,31643,1,0,0:0:0:0:
172,128,31874,2,0,P|232:108|280:116,1,90
328,276,32566,5,0,0:0:0:0:
248,236,32797,1,0,0:0:0:0:
248,236,32912,1,0,0:0:0:0:
248,236,33027,1,0,0:0:0:0:
168,196,33258,2,0,P|112:228|64:208,1,90
292,156,33720,2,0,P|348:124|396:144,1,90
404,304,34412,6,0,P|344:292|308:308,1,90
236,336,34874,2,0,P|160:336|140:312,1,90
104,256,35335,1,0,0:0:0:0:
44,188,35566,1,0,0:0:0:0:
44,188,35681,1,0,0:0:0:0:
44,188,35797,1,0,0:0:0:0:
256,192,36027,12,0,37643,0:0:0:0:
440,88,37874,5,0,0:0:0:0:
440,88,37989,1,0,0:0:0:0:
440,88,38104,1,0,0:0:0:0:
392,196,38335,2,0,P|368:256|320:284,1,116.999994644165
325,282,38681,1,0,0:0:0:0:
325,282,38797,2,0,P|256:280|200:296,1,116.999994644165
124,212,39258,1,0,0:0:0:0:
104,328,39489,1,0,0:0:0:0:
144,84,39720,5,0,0:0:0:0:
144,84,39835,1,0,0:0:0:0:
144,84,39951,1,0,0:0:0:0:
196,188,40181,2,0,P|256:144|312:144,1,116.999994644165
296,140,40527,1,0,0:0:0:0:
296,140,40643,2,0,P|364:136|392:96,1,116.999994644165
300,24,41104,1,0,0:0:0:0:
392,100,41335,1,0,0:0:0:0:
196,64,41566,6,0,L|140:28,2,58.4999973220826
196,64,41912,1,0,0:0:0:0:
196,64,42027,2,0,B|212:136|212:136|196:208,1,116.999994644165
202,178,42374,1,0,0:0:0:0:
202,178,42489,2,0,B|136:208|136:208|91:187|91:187|12:216,1,175.499991966248
20,260,42951,2,0,B|40:308|40:308|108:336,1,116.999994644165
260,232,43412,5,0,0:0:0:0:
272,264,43527,1,0,0:0:0:0:
292,292,43643,1,0,0:0:0:0:
320,316,43758,1,0,0:0:0:0:
352,332,43874,2,0,P|416:308|464:312,1,116.999994644165
367,99,44335,2,0,P|313:122|256:120,1,116.999994644165
88,184,44797,6,0,L|100:272,1,67.5000025749208
352,188,45258,5,0,0:0:0:0:
272,272,45489,1,0,0:0:0:0:
240,284,45604,1,0,0:0:0:0:
208,296,45720,1,0,0:0:0:0:
124,212,45951,1,0,0:0:0:0:
156,200,46067,1,0,0:0:0:0:
188,188,46182,1,0,0:0:0:0:
264,100,46412,1,0,0:0:0:0:
424,200,46643,6,0,L|412:112,1,67.5000025749208
340,44,47104,5,0,0:0:0:0:
248,120,47335,1,0,0:0:0:0:
260,152,47451,1,0,0:0:0:0:
272,184,47566,1,0,0:0:0:0:
284,216,47681,1,0,0:0:0:0:
296,248,47797,1,0,0:0:0:0:
308,280,47912,1,0,0:0:0:0:
320,312,48027,2,0,B|304:352|192:308|192:308|156:336,1,175.499991966248
120,344,48489,6,0,L|24:360,1,67.5000025749208
72,224,48951,6,0,L|20:264,2,58.4999973220826
72,188,49297,1,0,0:0:0:0:
80,152,49412,2,0,P|124:112|188:112,1,116.999994644165
179,109,49758,1,0,0:0:0:0:
179,109,49874,1,0,0:0:0:0:
284,160,50104,1,0,0:0:0:0:
384,100,50335,1,0,0:0:0:0:
180,108,50566,2,0,P|188:164|160:232,1,116.999994644165
388,272,51027,6,0,L|456:304,2,58.4999973220826
288,332,51489,1,0,0:0:0:0:
224,236,51720,1,0,0:0:0:0:
320,168,51951,1,0,0:0:0:0:
128,68,52181,6,0,L|88:152,1,67.5000025749208
128,280,52643,5,0,0:0:0:0:
224,164,52874,1,0,0:0:0:0:
276,308,53104,1,0,0:0:0:0:
120,152,53335,1,0,0:0:0:0:
240,60,53566,2,0,P|300:80|340:128,1,116.999994644165
448,320,54027,2,0,P|388:300|348:252,1,116.999994644165
64,320,54489,6,0,P|124:300|164:252,1,116.999994644165
180,208,54835,1,0,0:0:0:0:
180,148,54951,1,0,0:0:0:0:
392,84,55181,1,0,0:0:0:0:
336,100,55296,1,0,0:0:0:0:
296,144,55412,2,0,P|244:84|188:76,1,116.999994644165
76,192,55874,2,0,P|128:252|184:260,1,116.999994644165
432,248,56335,6,0,L|380:292,1,58.4999973220826
340,220,56566,2,0,L|288:268,1,58.4999973220826
252,192,56797,2,0,L|124:304,1,116.999994644165
112,316,57143,1,0,0:0:0:0:
68,260,57258,6,0,L|136:236,1,58.4999973220826
88,168,57489,2,0,L|168:144,1,58.4999973220826
108,72,57720,2,0,L|232:40,1,116.999994644165
340,116,58181,6,0,B|320:200|320:200|332:256,1,116.999994644165
348,280,58527,1,0,0:0:0:0:
400,296,58643,1,0,0:0:0:0:
296,304,58874,1,0,0:0:0:0:
244,312,58989,1,0,0:0:0:0:
200,284,59104,2,0,B|144:256|144:256|72:288,1,116.999994644165
340,116,59566,2,0,B|396:144|396:144|468:112,1,116.999994644165
224,72,60027,5,0,0:0:0:0:
124,188,60258,1,0,0:0:0:0:
80,44,60489,1,0,0:0:0:0:
240,228,60720,1,0,0:0:0:0:
140,344,60951,2,0,P|92:276|104:236,1,116.999994644165
356,216,61412,2,0,P|404:284|392:324,1,116.999994644165
288,104,61874,5,0,0:0:0:0:
236,128,61989,1,0,0:0:0:0:
176,132,62104,2,0,P|120:124|40:168,1,116.999994644165
164,316,62566,1,0,0:0:0:0:
188,264,62681,1,0,0:0:0:0:
184,204,62797,2,0,P|124:180|108:100,1,116.999994644165
348,36,63258,2,0,P|408:60|424:140,1,116.999994644165
372,208,63720,6,0,L|334:252,1,58.4999973220826
252,108,63951,2,0,L|289:63,1,58.4999973220826,0|0,0:0|0:0,0:0:0:0:
332,136,64181,2,0,L|224:260,1,116.999994644165
208,276,64527,1,0,0:0:0:0:
148,236,64643,6,0,L|92:216,1,58.4999973220826
198,88,64874,2,0,L|253:107,1,58.4999973220826,0|0,0:0|0:0,0:0:0:0:
200,172,65104,2,0,L|45:115,1,116.999994644165
256,192,65566,12,0,67181,0:0:0:0:
120,96,67412,5,8,0:0:0:0:
392,96,67874,1,8,0:0:0:0:
120,96,68335,1,8,0:0:0:0:
176,168,68566,5,0,0:0:0:0:
100,220,68797,1,8,0:0:0:0:
44,148,69027,1,0,0:0:0:0:
316,312,69258,1,8,0:0:0:0:
232,280,69489,1,0,0:0:0:0:
172,348,69720,1,8,0:0:0:0:
340,36,70181,1,8,0:0:0:0:
356,124,70412,5,0,0:0:0:0:
276,164,70643,1,8,0:0:0:0:
208,104,70874,1,0,0:0:0:0:
256,28,71104,1,8,0:0:0:0:
452,272,71566,1,8,0:0:0:0:
60,272,72027,5,8,0:0:0:0:
108,196,72258,1,0,0:0:0:0:
152,272,72489,1,8,0:0:0:0:
60,272,72720,1,0,0:0:0:0:
116,348,72951,1,8,0:0:0:0:
396,36,73412,1,8,0:0:0:0:
116,348,73874,1,8,0:0:0:0:
192,272,74104,5,0,0:0:0:0:
296,248,74335,1,8,0:0:0:0:
400,280,74566,1,0,0:0:0:0:
472,364,74797,1,8,0:0:0:0:
452,308,75258,1,8,0:0:0:0:
432,252,75720,1,8,0:0:0:0:
408,196,75951,5,0,0:0:0:0:
304,224,76181,1,8,0:0:0:0:
196,208,76412,1,0,0:0:0:0:
108,144,76643,1,8,0:0:0:0:
76,40,76874,1,0,0:0:0:0:
244,100,77104,5,8,0:0:0:0:
408,316,77566,1,8,0:0:0:0:
300,296,77797,1,0,0:0:0:0:
408,316,78027,1,8,0:0:0:0:
372,212,78258,1,0,0:0:0:0:
300,296,78489,1,8,0:0:0:0:
32,144,78951,1,8,0:0:0:0:
300,296,79412,1,8,0:0:0:0:
288,188,79643,5,0,0:0:0:0:
232,96,79874,1,8,0:0:0:0:
132,52,80104,1,0,0:0:0:0:
24,56,80335,2,0,L|88:116,1,67.5000025749208,10|0,0:0|0:0,0:0:0:0:
44,216,80797,2,2,L|104:268,1,67.5000025749208,10|2,0:0|0:0,0:0:0:0:
220,192,81258,1,8,0:0:0:0:
220,192,81489,1,0,0:0:0:0:
200,32,81720,1,8,0:0:0:0:
200,32,81951,1,0,0:0:0:0:
200,32,82181,5,4,0:0:0:0:
312,352,82643,1,8,0:0:0:0:
472,112,83104,1,8,0:0:0:0:
388,228,83335,1,0,0:0:0:0:
384,84,83566,1,8,0:0:0:0:
388,228,83797,1,0,0:0:0:0:
296,120,84027,5,8,0:0:0:0:
296,120,84258,1,0,0:0:0:0:
216,264,84489,1,8,0:0:0:0:
216,264,84720,1,0,0:0:0:0:
124,152,84951,1,8,0:0:0:0:
120,296,85181,1,0,0:0:0:0:
124,152,85412,1,8,0:0:0:0:
28,260,85643,1,0,0:0:0:0:
124,152,85874,5,8,0:0:0:0:
308,40,86220,1,0,0:0:0:0:
308,40,86335,1,8,0:0:0:0:
268,180,86566,1,0,0:0:0:0:
228,320,86797,1,8,0:0:0:0:
412,208,87027,1,0,0:0:0:0:
228,320,87258,1,8,0:0:0:0:
412,208,87488,1,0,0:0:0:0:
372,348,87720,5,8,0:0:0:0:
188,232,88066,1,0,0:0:0:0:
188,232,88181,1,8,0:0:0:0:
332,212,88412,1,0,0:0:0:0:
308,252,88527,1,0,0:0:0:0:
284,292,88643,1,8,0:0:0:0:
284,292,88874,1,0,0:0:0:0:
352,176,89104,1,8,0:0:0:0:
260,328,89335,1,0,0:0:0:0:
120,284,89566,5,12,0:0:0:0:
392,284,90027,1,8,0:0:0:0:
120,284,90489,1,8,0:0:0:0:
120,284,90720,1,0,0:0:0:0:
392,284,90951,1,8,0:0:0:0:
392,284,91181,1,0,0:0:0:0:
424,152,91412,5,8,0:0:0:0:
424,152,91643,1,0,0:0:0:0:
328,56,91874,1,8,0:0:0:0:
328,56,92104,1,0,0:0:0:0:
184,56,92335,5,8,0:0:0:0:
184,56,92565,1,0,0:0:0:0:
88,152,92796,1,8,0:0:0:0:
88,152,93027,1,0,0:0:0:0:
184,328,93258,5,8,0:0:0:0:
409,186,93489,1,8,0:0:0:0:
174,61,93720,1,0,0:0:0:0:
337,322,93951,1,8,0:0:0:0:
328,56,94181,5,8,0:0:0:0:
102,197,94412,1,8,0:0:0:0:
337,322,94643,1,0,0:0:0:0:
174,61,94874,1,8,0:0:0:0:
232,136,95104,6,0,L|276:156,1,45,8|0,0:0|0:0,0:0:0:0:
236,180,95335,2,0,L|280:204,1,45,8|0,0:0|0:0,0:0:0:0:
244,232,95566,6,0,L|288:252,1,45,8|0,0:0|0:0,0:0:0:0:
248,276,95797,2,0,L|292:300,1,45,8|0,0:0|0:0,0:0:0:0:
328,316,96027,5,0,0:0:0:0:
364,320,96143,1,0,0:0:0:0:
400,324,96258,1,0,0:0:0:0:
436,328,96374,1,0,0:0:0:0:
416,288,96489,1,0,0:0:0:0:
396,248,96604,1,0,0:0:0:0:
372,212,96720,1,0,0:0:0:0:
348,176,96835,1,0,0:0:0:0:
348,176,96951,6,0,B|256:160|256:160|216:224|216:224|64:200,1,306.000005836487
184,88,97643,1,0,0:0:0:0:
432,256,97874,2,0,L|352:256,1,76.5000014591217
227,200,98104,2,0,L|304:200,1,76.5000014591217
180,260,98335,2,0,B|92:260|92:260|56:196,1,153.000002918243
104,140,98681,1,0,0:0:0:0:
180,132,98797,6,0,P|248:120|308:176,1,153.000002918243
408,288,99258,2,0,P|340:300|280:244,1,153.000002918243
304,176,99604,1,0,0:0:0:0:
376,148,99720,2,0,P|424:144|480:160,1,76.5000014591217
308,92,99951,2,0,P|350:69|400:64,1,76.5000014591217
136,148,100181,2,0,P|88:144|32:160,1,76.5000014591217
204,92,100412,2,0,P|161:69|112:64,1,76.5000014591217
256,144,100643,6,0,L|256:304,1,153.000002918243
108,292,101104,2,0,L|184:280,1,76.5000014591217
404,292,101335,2,0,L|328:280,1,76.5000014591217
116,264,101566,2,0,L|192:252,1,76.5000014591217
396,264,101797,2,0,L|320:252,1,76.5000014591217
124,232,102027,2,0,L|200:220,1,76.5000014591217
388,232,102258,2,0,L|312:220,1,76.5000014591217
312,144,102489,6,0,P|400:116|424:48,1,153.000002918243
256,88,102835,1,0,0:0:0:0:
200,144,102951,2,0,P|112:116|88:48,1,153.000002918243
256,204,103412,1,0,0:0:0:0:
256,244,103643,1,0,0:0:0:0:
256,284,103874,1,0,0:0:0:0:
256,328,104104,1,0,0:0:0:0:
256,368,104335,6,0,B|152:264|344:200|256:88,1,306.000005836487
104,92,105027,1,0,0:0:0:0:
132,244,105258,2,0,P|148:188|168:164,1,76.5000014591217
380,140,105489,2,0,P|364:196|344:220,1,76.5000014591217
296,260,105720,2,0,B|256:240|264:148|216:124,1,153.000002918243
204,56,106066,1,0,0:0:0:0:
280,72,106181,6,0,B|364:112|364:112|444:80,1,153.000002918243
468,236,106643,2,0,B|384:196|384:196|304:228,1,153.000002918243
260,252,106989,1,0,0:0:0:0:
184,240,107104,2,0,B|152:268|152:268|96:280,1,76.5000014591217
208,120,107335,2,0,B|180:88|180:88|168:32,1,76.5000014591217
328,144,107566,2,0,B|360:116|360:116|416:104,1,76.5000014591217
304,264,107797,2,0,B|332:296|332:296|344:352,1,76.5000014591217
256,192,108027,6,0,P|164:164|96:204,1,153.000002918243
87,49,108489,2,0,L|72:124,1,76.5000014591217
87,334,108720,2,0,L|72:260,1,76.5000014591217
128,64,108951,2,0,L|112:138,1,76.5000014591217
128,320,109181,2,0,L|112:245,1,76.5000014591217
168,76,109412,2,0,L|152:150,1,76.5000014591217
168,308,109643,2,0,L|152:233,1,76.5000014591217
228,232,109874,6,0,B|256:262|256:262|333:283|333:283|369:315,1,153.000002918243
384,192,110220,1,0,0:0:0:0:
228,152,110335,2,0,B|256:121|256:121|333:100|333:100|369:68,1,153.000002918243
256,192,110797,12,0,111489,0:0:0:0:
88,320,111720,5,0,0:0:0:0:
116,312,111835,1,0,0:0:0:0:
144,304,111951,1,0,0:0:0:0:
172,296,112066,1,0,0:0:0:0:
196,288,112181,2,0,B|272:268|272:268|372:284,1,175.499991966248
436,300,112643,2,0,B|448:236|448:236|392:204,1,116.999994644165
340,180,112989,1,0,0:0:0:0:
276,156,113104,2,0,B|230:130|230:130|242:66,1,116.999994644165
460,108,113566,6,0,P|436:172|392:220,1,116.999994644165
405,208,113912,1,0,0:0:0:0:
405,208,114027,2,0,P|328:252|292:292,1,116.999994644165
260,324,114374,1,0,0:0:0:0:
192,304,114489,2,0,P|196:364|212:392,1,58.4999973220826
144,252,114720,2,0,P|140:192|124:164,1,58.4999973220826
72,220,114951,2,0,P|44:148|100:80,1,135
196,76,115412,6,0,L|137:81,1,58.4999973220826
196,76,115643,2,0,L|172:152,1,58.4999973220826
196,76,115874,2,0,L|340:60,1,116.999994644165
404,168,116335,2,0,L|287:180,1,116.999994644165
212,300,116797,2,0,L|328:287,1,116.999994644165
468,280,117258,5,0,0:0:0:0:
440,244,117374,1,0,0:0:0:0:
396,228,117489,1,0,0:0:0:0:
348,224,117604,1,0,0:0:0:0:
304,240,117720,1,0,0:0:0:0:
48,104,118181,1,0,0:0:0:0:
108,76,118297,1,0,0:0:0:0:
172,72,118412,1,0,0:0:0:0:
228,104,118527,1,0,0:0:0:0:
272,152,118643,1,0,0:0:0:0:
288,212,118758,1,0,0:0:0:0:
272,276,118874,1,0,0:0:0:0:
144,216,119104,6,0,L|104:264,3,58.4999973220826
64,312,119566,2,0,B|160:304|160:304|184:344,1,116.999994644165
448,312,120027,2,0,B|352:304|352:304|328:344,1,116.999994644165
256,224,120489,6,0,L|256:148,1,67.5000025749208
380,188,120951,6,0,L|448:204,2,58.4999973220826
380,188,121297,1,0,0:0:0:0:
380,188,121412,2,0,P|352:132|292:108,1,116.999994644165
132,196,121874,2,0,P|160:252|220:276,1,116.999994644165
136,52,122335,6,0,L|60:108,1,67.5000025749208
200,148,122797,6,0,P|272:128|332:156,1,116.999994644165
310,140,123143,1,0,0:0:0:0:
310,140,123258,1,0,0:0:0:0:
388,244,123489,1,0,0:0:0:0:
280,312,123720,2,0,P|200:308|128:344,1,116.999994644165
84,220,124181,5,0,0:0:0:0:
84,192,124297,1,0,0:0:0:0:
84,164,124412,1,0,0:0:0:0:
84,136,124527,1,0,0:0:0:0:
84,108,124643,2,0,P|152:68|256:84,1,175.499991966248
428,276,125104,2,0,P|360:316|256:300,1,175.499991966248
188,208,125566,38,0,L|156:36,1,175.499991966248
324,176,126027,6,0,L|356:348,1,175.499991966248
384,104,126489,5,0,0:0:0:0:
288,220,126720,1,0,0:0:0:0:
236,76,126950,1,0,0:0:0:0:
392,232,127181,1,0,0:0:0:0:
272,324,127412,2,0,P|212:304|172:256,1,116.999994644165
64,64,127873,2,0,P|124:84|164:132,1,116.999994644165
448,64,128335,6,0,P|388:84|348:132,1,116.999994644165
332,176,128681,1,0,0:0:0:0:
332,236,128797,1,0,0:0:0:0:
120,300,129027,1,0,0:0:0:0:
176,284,129142,1,0,0:0:0:0:
216,240,129258,2,0,P|268:300|324:308,1,116.999994644165
436,192,129720,2,0,P|384:132|328:124,1,116.999994644165
80,136,130181,6,0,L|132:92,1,58.4999973220826
172,164,130412,2,0,L|224:116,1,58.4999973220826
260,192,130643,2,0,L|388:80,1,116.999994644165
400,68,130989,1,0,0:0:0:0:
444,124,131104,6,0,L|376:148,1,58.4999973220826
424,216,131335,2,0,L|344:240,1,58.4999973220826
404,312,131566,2,0,L|280:344,1,116.999994644165
172,268,132027,6,0,B|192:184|192:184|180:128,1,116.999994644165
164,104,132373,1,0,0:0:0:0:
112,88,132489,1,0,0:0:0:0:
216,80,132720,1,0,0:0:0:0:
268,72,132835,1,0,0:0:0:0:
312,100,132950,2,0,B|368:128|368:128|440:96,1,116.999994644165
172,268,133412,2,0,B|116:240|116:240|44:272,1,116.999994644165
288,312,133873,5,0,0:0:0:0:
388,196,134104,1,0,0:0:0:0:
432,340,134335,1,0,0:0:0:0:
272,156,134566,1,0,0:0:0:0:
372,40,134797,2,0,P|420:108|408:148,1,116.999994644165
156,168,135258,2,0,P|108:100|120:60,1,116.999994644165
224,280,135720,5,0,0:0:0:0:
276,256,135835,1,0,0:0:0:0:
336,252,135950,2,0,P|392:260|472:216,1,116.999994644165
348,68,136412,1,0,0:0:0:0:
324,120,136527,1,0,0:0:0:0:
328,180,136643,2,0,P|388:204|404:284,1,116.999994644165
164,348,137104,2,0,P|104:324|88:244,1,116.999994644165
140,176,137566,6,0,L|178:132,1,58.4999973220826
260,276,137797,2,0,L|223:321,1,58.4999973220826,0|0,0:0|0:0,0:0:0:0:
180,248,138027,2,0,L|288:124,1,116.999994644165
304,108,138373,1,0,0:0:0:0:
364,148,138489,6,0,L|420:168,1,58.4999973220826
314,296,138720,2,0,L|259:277,1,58.4999973220826,0|0,0:0|0:0,0:0:0:0:
312,212,138950,2,0,L|467:269,1,116.999994644165
256,192,139412,12,0,141027,0:0:0:0:
424,96,156027,5,8,0:0:0:0:
120,352,156489,1,8,0:0:0:0:
200,264,156720,1,0,0:0:0:0:
84,284,156951,1,8,0:0:0:0:
164,196,157181,1,0,0:0:0:0:
48,216,157412,1,8,0:0:0:0:
128,128,157643,1,0,0:0:0:0:
12,148,157874,5,8,0:0:0:0:
52,104,158104,1,0,0:0:0:0:
92,64,158335,1,8,0:0:0:0:
456,204,158797,5,8,0:0:0:0:
344,232,159027,1,0,0:0:0:0:
308,344,159258,1,8,0:0:0:0:
260,148,159489,1,0,0:0:0:0:
344,232,159720,1,8,0:0:0:0:
40,348,160181,5,8,0:0:0:0:
40,348,160412,1,0,0:0:0:0:
80,164,160643,5,8,0:0:0:0:
192,136,160873,1,0,0:0:0:0:
228,24,161104,1,8,0:0:0:0:
276,220,161335,1,0,0:0:0:0:
192,136,161566,1,8,0:0:0:0:
468,312,162027,5,8,0:0:0:0:
468,312,162258,1,0,0:0:0:0:
360,264,162489,1,8,0:0:0:0:
360,264,162604,1,0,0:0:0:0:
360,264,162720,1,0,0:0:0:0:
252,304,162951,1,8,0:0:0:0:
252,304,163181,1,0,0:0:0:0:
132,144,163412,5,8,0:0:0:0:
132,144,163643,1,0,0:0:0:0:
380,240,163874,1,8,0:0:0:0:
380,240,164105,1,0,0:0:0:0:
76,328,164336,1,8,0:0:0:0:
76,328,164566,1,0,0:0:0:0:
436,56,164797,1,8,0:0:0:0:
436,56,165027,1,0,0:0:0:0:
304,104,165258,5,8,0:0:0:0:
208,280,165489,1,0,0:0:0:0:
168,144,165720,1,8,0:0:0:0:
344,240,165951,1,0,0:0:0:0:
244,40,166181,1,8,0:0:0:0:
268,344,166412,1,0,0:0:0:0:
104,204,166643,1,8,0:0:0:0:
408,180,166874,1,0,0:0:0:0:
344,240,167104,5,8,0:0:0:0:
344,240,167220,1,0,0:0:0:0:
344,240,167335,1,0,0:0:0:0:
344,240,167451,1,0,0:0:0:0:
344,240,167566,1,8,0:0:0:0:
344,240,167681,1,0,0:0:0:0:
344,240,167797,1,0,0:0:0:0:
344,240,167912,1,0,0:0:0:0:
344,240,168027,5,8,0:0:0:0:
344,240,168143,1,0,0:0:0:0:
344,240,168258,1,0,0:0:0:0:
344,240,168374,1,0,0:0:0:0:
344,240,168489,1,8,0:0:0:0:
344,240,168604,1,0,0:0:0:0:
344,240,168720,1,0,0:0:0:0:
344,240,168835,1,0,0:0:0:0:
368,204,168951,6,0,L|408:180,3,29.2499986610413,8|0|0|0,0:0|0:0|0:0|0:0,0:0:0:0:
312,180,169181,2,0,L|320:148,3,29.2499986610413,8|0|0|0,0:0|0:0|0:0|0:0,0:0:0:0:
252,184,169412,2,0,L|241:152,3,29.2499986610413,8|0|0|0,0:0|0:0|0:0|0:0,0:0:0:0:
204,220,169643,2,0,L|176:201,3,29.2499986610413,8|0|0|0,0:0|0:0|0:0|0:0,0:0:0:0:
184,272,169874,5,0,0:0:0:0:
124,292,169989,1,0,0:0:0:0:
64,276,170104,1,0,0:0:0:0:
24,224,170220,1,0,0:0:0:0:
16,160,170335,1,0,0:0:0:0:
36,100,170451,1,0,0:0:0:0:
92,64,170566,1,0,0:0:0:0:
156,64,170681,1,0,0:0:0:0:
212,100,170797,6,0,B|300:100|300:100|224:192|224:192|328:192,1,306.000005836487,0|0,0:0|0:0,0:0:0:0:
428,324,171489,1,0,0:0:0:0:
396,160,171720,2,0,P|336:188|296:196,1,76.5000014591217
194,166,171951,2,0,P|227:147|263:135,1,76.5000014591217
256,220,172181,2,0,B|256:304|256:304|188:344,1,153.000002918243
116,312,172527,1,0,0:0:0:0:
36,280,172643,6,0,P|36:192|108:144,1,153.000002918243
144,208,172989,1,0,0:0:0:0:
212,256,173104,2,0,P|262:201|256:127,1,153.000002918243
256,128,173451,1,0,0:0:0:0:
204,72,173566,2,0,P|124:60|104:48,1,76.5000014591217
124,148,173797,2,0,P|80:176|32:188,1,76.5000014591217
308,72,174027,2,0,P|388:60|408:48,1,76.5000014591217
388,148,174258,2,0,P|432:176|480:188,1,76.5000014591217
320,292,174489,6,0,P|256:260|184:308,1,153.000002918243
184,192,174951,2,0,L|156:96,1,76.5000014591217
328,192,175181,2,0,L|356:96,1,76.5000014591217
144,220,175412,2,0,L|100:144,1,76.5000014591217
368,220,175643,2,0,L|412:144,1,76.5000014591217
104,256,175874,2,0,L|40:180,1,76.5000014591217
408,256,176104,2,0,L|472:180,1,76.5000014591217
452,112,176335,6,0,P|352:96|336:44,1,153.000002918243
256,88,176681,1,0,0:0:0:0:
60,112,176797,2,0,P|160:96|176:44,1,153.000002918243
160,224,177258,1,0,0:0:0:0:
352,224,177489,1,0,0:0:0:0:
96,288,177720,1,0,0:0:0:0:
416,288,177951,1,0,0:0:0:0:
404,120,178181,6,0,P|256:80|96:128,1,306.000005836487
140,284,178874,1,0,0:0:0:0:
256,160,179104,2,0,L|256:83,1,76.5000014591217
256,244,179335,2,0,L|256:332,1,76.5000014591217
372,284,179566,2,0,B|368:192|368:192|400:120,1,153.000002918243
444,68,179912,1,0,0:0:0:0:
360,72,180027,6,0,B|296:104|296:104|200:104,1,153.000002918243
148,156,180374,1,0,0:0:0:0:
84,212,180489,2,0,B|148:244|148:244|244:244,1,153.000002918243
229,244,180835,1,0,0:0:0:0:
300,196,180951,2,0,L|332:292,1,76.5000014591217
376,156,181181,2,0,L|400:84,1,76.5000014591217
212,196,181412,2,0,L|180:292,1,76.5000014591217
136,156,181642,2,0,L|112:84,1,76.5000014591217
184,36,181874,6,0,B|232:68|232:68|276:68|276:68|336:20,1,153.000002918243
364,104,182335,2,0,L|444:104,1,76.5000014591217
148,104,182566,2,0,L|68:104,1,76.5000014591217
352,160,182797,2,0,L|428:160,1,76.5000014591217
160,160,183027,2,0,L|84:160,1,76.5000014591217
336,216,183258,2,0,L|416:216,1,76.5000014591217
176,216,183489,2,0,L|96:216,1,76.5000014591217
256,352,183720,6,0,L|256:176,1,153.000002918243
128,308,184181,1,0,0:0:0:0:
384,308,184412,1,0,0:0:0:0:
464,160,184643,2,0,B|436:128|436:128|416:160|328:176,1,153.000002918243
48,160,185104,2,0,B|76:128|76:128|96:160|184:176,1,153.000002918243
308,80,185566,6,0,P|188:92|203:71,1,306.000005836487
252,120,186258,1,0,0:0:0:0:
180,272,186489,2,0,P|148:224|108:200,1,76.5000014591217
332,272,186720,2,0,P|364:224|404:200,1,76.5000014591217
256,224,186951,6,0,L|256:308,1,67.5000025749208
320,348,187297,5,0,0:0:0:0:
404,348,187412,2,0,P|444:272|404:232,1,153.000002918243
332,192,187758,1,0,0:0:0:0:
256,156,187874,2,0,P|214:97|257:40,1,153.000002918243
257,40,188220,1,0,0:0:0:0:
320,96,188335,2,0,L|359:176,1,76.5000014591217
278,244,188566,2,0,L|268:168,1,76.5000014591217
194,236,188797,2,0,L|183:329,1,76.5000014591217
77,325,189027,2,0,L|109:255,1,76.5000014591217
148,180,189258,6,0,P|176:104|256:104,1,153.000002918243
204,260,189720,2,0,L|164:356,1,76.5000014591217
316,156,189951,2,0,L|400:144,1,76.5000014591217
176,112,190181,2,0,L|120:52,1,76.5000014591217
292,244,190412,2,0,L|355:326,1,76.5000014591217
257,95,190643,2,0,L|288:16,1,76.5000014591217
149,194,190873,2,0,L|69:212,1,76.5000014591217
36,288,191104,6,0,P|120:308|164:356,1,153.000002918243
476,288,191566,2,0,P|392:308|348:356,1,153.000002918243
256,48,192027,1,0,0:0:0:0:
256,216,192258,1,0,0:0:0:0:
108,136,192489,1,0,0:0:0:0:
404,136,192720,1,0,0:0:0:0:
380,284,192951,6,0,B|304:304|304:304|288:336|288:336|256:348|256:348|224:336|224:336|204:304|204:304|120:284,1,306.000005836487
256,188,193643,1,0,0:0:0:0:
100,120,193874,2,0,L|192:144,1,76.5000014591217
412,264,194104,2,0,L|320:240,1,76.5000014591217
100,264,194335,6,0,L|188:240,1,67.5000025749208
196,80,194797,6,0,L|360:60,1,153.000002918243
432,52,195143,1,0,0:0:0:0:
412,132,195258,2,0,L|356:284,1,153.000002918243
328,356,195604,1,0,0:0:0:0:
264,300,195720,2,0,L|172:336,1,76.5000014591217
96,212,195951,2,0,L|164:248,1,76.5000014591217
160,156,196181,2,0,L|148:48,1,76.5000014591217
304,53,196412,2,0,L|236:88,1,76.5000014591217,0|0,0:0|0:0,0:0:0:0:
300,144,196643,6,0,P|368:216|332:296,1,153.000002918243
123,238,197104,2,0,L|200:232,1,76.5000014591217
444,213,197335,2,0,L|368:220,1,76.5000014591217
256,308,197566,2,0,L|324:380,1,76.5000014591217
316,148,197797,2,0,L|248:76,1,76.5000014591217
180,84,198027,1,0,0:0:0:0:
116,140,198143,1,0,0:0:0:0:
56,196,198258,1,0,0:0:0:0:
164,324,198489,6,0,P|256:280|332:304,1,153.000002918243
376,136,198951,1,0,0:0:0:0:
392,220,199066,1,0,0:0:0:0:
408,304,199181,1,0,0:0:0:0:
256,192,199412,12,0,200335,0:0:0:0:
