osu file format v14

[General]
AudioFilename: Timber.mp3
AudioLeadIn: 2000
PreviewTime: 86122
Countdown: 0
SampleSet: Soft
StackLeniency: 0.7
Mode: 0
LetterboxInBreaks: 0
WidescreenStoryboard: 0

[Editor]
DistanceSpacing: 0.6
BeatDivisor: 4
GridSize: 4
TimelineZoom: 0.8000001

[Metadata]
Title:Timber ft. Ke$ha (Speed Up Ver.)
TitleUnicode:Timber ft. Ke$ha (Speed Up Ver.)
Artist:Pitbull
ArtistUnicode:Pitbull
Creator:alacat
Version:Insane
Source:
Tags:Techno Trance Remix Ashasaki Asphyxia Gero Nightcore
BeatmapID:545092
BeatmapSetID:232451

[Difficulty]
HPDrainRate:6
CircleSize:4
OverallDifficulty:7
ApproachRate:8
SliderMultiplier:1.8
SliderTickRate:1

[Events]
//Background and Video events
0,0,"bikini.jpg",0,0
//Break Periods
2,61899,67103
//Storyboard Layer 0 (Background)
//Storyboard Layer 1 (Fail)
//Storyboard Layer 2 (Pass)
//Storyboard Layer 3 (Foreground)
//Storyboard Sound Samples

[TimingPoints]
161,384.615384615385,4,2,2,40,1,0
3237,-142.857142857143,4,2,2,40,0,0
11891,-142.857142857143,4,2,1,40,0,0
24776,-142.857142857143,4,2,1,50,0,0
37084,-100,4,1,1,60,0,0
61122,-100,4,2,1,50,0,0
67853,-142.857142857143,4,2,1,50,0,0
83045,-142.857142857143,4,2,1,60,0,0
84584,-142.857142857143,4,2,1,70,0,0
86314,-100,4,1,1,80,0,1
98622,-100,4,2,1,50,0,0

[Colours]
Combo1 : 255,147,201
Combo2 : 255,142,142
Combo3 : 147,255,255
Combo4 : 172,89,255

[HitObjects]
28,220,161,5,2,0:0:0:0:
124,248,545,1,2,0:0:0:0:
220,275,930,1,2,0:0:0:0:
315,302,1314,1,2,0:0:0:0:
486,214,1699,5,2,0:0:0:0:
388,236,2084,1,2,0:0:0:0:
412,334,2468,1,2,0:0:0:0:
509,311,2853,1,2,0:0:0:0:
256,240,3237,6,0,P|180:240|116:236,2,125.999996154785,2|2|2,0:0|0:0|0:0,0:0:0:0:
344,192,4391,1,2,0:0:0:0:
252,340,4776,5,2,0:0:0:0:
340,296,5161,1,2,0:0:0:0:
256,240,5545,1,2,0:0:0:0:
344,192,5930,1,2,0:0:0:0:
472,360,6314,6,0,P|484:292|480:220,1,125.999996154785,2|2,0:0|0:0,0:0:0:0:
424,176,6891,1,0,0:0:0:0:
344,192,7084,2,0,B|272:204|272:168|204:184,1,125.999996154785,2|2,0:0|0:0,0:0:0:0:
64,344,7853,6,0,P|104:348|136:344,1,62.9999980773926,2|0,0:0|0:0,0:0:0:0:
172,276,8237,2,0,P|203:273|234:278,1,62.9999980773926,2|0,0:0|0:0,0:0:0:0:
292,340,8622,2,0,L|273:202,1,125.999996154785,2|2,0:0|0:0,0:0:0:0:
60,96,9391,5,2,0:0:0:0:
256,192,9776,2,0,L|184:204,1,62.9999980773926,2|0,0:0|0:0,0:0:0:0:
132,260,10161,2,0,P|152:200|140:140,1,125.999996154785,2|2,0:0|0:0,0:0:0:0:
300,348,10930,6,0,P|280:280|288:224,1,125.999996154785,2|2,0:0|0:0,0:0:0:0:
340,168,11507,2,0,L|412:176,1,62.9999980773926,0|2,0:0|0:0,0:0:0:0:
372,76,11891,1,0,0:0:0:0:
372,76,11987,1,0,0:0:0:0:
372,76,12084,2,0,L|300:84,1,62.9999980773926,2|0,0:0|0:0,0:0:0:0:
136,204,12468,6,0,P|200:208|256:160,1,125.999996154785,4|8,0:0|0:0,0:0:0:0:
214,25,13045,2,0,L|208:88,1,62.9999980773926,2|8,0:0|0:0,0:0:0:0:
136,204,13430,1,0,0:0:0:0:
48,168,13622,1,8,0:0:0:0:
124,112,13814,1,0,0:0:0:0:
216,240,14007,6,0,P|288:236|360:240,1,125.999996154785,2|8,0:0|0:0,0:0:0:0:
448,144,14584,2,0,P|385:147|322:145,1,125.999996154785,2|0,0:0|0:0,0:0:0:0:
236,104,15161,1,8,0:0:0:0:
312,48,15353,1,0,0:0:0:0:
448,144,15545,6,0,P|456:180|456:212,1,62.9999980773926,2|0,0:0|0:0,0:0:0:0:
392,276,15930,1,8,0:0:0:0:
464,112,16122,2,0,P|472:148|472:180,1,62.9999980773926,2|8,0:0|0:0,0:0:0:0:
368,252,16507,1,2,0:0:0:0:
464,344,16699,1,8,0:0:0:0:
368,252,16891,1,2,0:0:0:0:
296,316,17084,6,0,P|256:316|224:312,1,62.9999980773926,2|0,0:0|0:0,0:0:0:0:
180,236,17468,1,8,0:0:0:0:
296,316,17661,1,2,0:0:0:0:
244,168,17853,1,8,0:0:0:0:
180,236,18045,1,2,0:0:0:0:
180,236,18141,1,0,0:0:0:0:
180,236,18237,2,0,P|140:236|108:232,1,62.9999980773926,8|2,0:0|0:0,0:0:0:0:
56,160,18622,6,0,P|20:216|28:272,1,125.999996154785,2|8,0:0|0:0,0:0:0:0:
80,352,19199,2,0,L|8:364,1,62.9999980773926,2|8,0:0|0:0,0:0:0:0:
180,236,19584,2,0,L|169:166,2,62.9999980773926,2|8|2,0:0|0:0|0:0,0:0:0:0:
292,345,20161,6,0,P|232:357|172:332,1,125.999996154785,2|8,0:0|0:0,0:0:0:0:
296,160,20737,2,0,P|337:206|344:268,1,125.999996154785,2|0,0:0|0:0,0:0:0:0:
180,236,21314,2,0,P|140:236|108:240,1,62.9999980773926,8|0,0:0|0:0,0:0:0:0:
8,304,21699,5,2,0:0:0:0:
8,304,22084,2,0,P|4:268|4:232,1,62.9999980773926,8|2,0:0|0:0,0:0:0:0:
28,152,22468,1,8,0:0:0:0:
111,37,22661,2,0,P|110:68|108:100,1,62.9999980773926,2|8,0:0|0:0,0:0:0:0:
28,152,23045,1,2,0:0:0:0:
200,72,23237,6,0,L|228:196,1,125.999996154785,2|8,0:0|0:0,0:0:0:0:
366,131,23814,2,0,P|335:132|304:136,1,62.9999980773926,2|8,0:0|0:0,0:0:0:0:
192,276,24199,2,0,P|157:279|122:280,1,62.9999980773926,2|8,0:0|0:0,0:0:0:0:
100,268,24487,1,0,0:0:0:0:
100,268,24584,1,0,0:0:0:0:
256,344,24776,6,0,P|316:336|384:336,1,125.999996154785,2|8,0:0|0:0,0:0:0:0:
452,272,25353,1,0,0:0:0:0:
312,220,25545,2,0,P|343:216|375:217,1,62.9999980773926,2|0,0:0|0:0,0:0:0:0:
172,172,25930,2,0,P|203:168|234:167,1,62.9999980773926,8|0,0:0|0:0,0:0:0:0:
132,256,26314,5,2,0:0:0:0:
172,172,26507,1,0,0:0:0:0:
44,228,26699,2,0,L|8:228,2,31.4999990386963,8|0|0,0:0|0:0|0:0,0:0:0:0:
152,48,27084,2,0,P|140:120|144:152,1,94.499997116089,2|0,0:0|0:0,0:0:0:0:
172,172,27468,2,0,P|206:168|241:168,1,62.9999980773926,8|0,0:0|0:0,0:0:0:0:
332,224,27853,5,2,0:0:0:0:
416,176,28045,1,0,0:0:0:0:
332,136,28237,1,8,0:0:0:0:
496,128,28430,1,0,0:0:0:0:
328,44,28622,1,2,0:0:0:0:
416,176,28814,1,0,0:0:0:0:
248,92,29007,1,8,0:0:0:0:
248,92,29103,1,0,0:0:0:0:
248,92,29199,1,0,0:0:0:0:
120,164,29391,6,0,P|151:164|182:161,1,62.9999980773926,2|0,0:0|0:0,0:0:0:0:
232,64,29776,1,8,0:0:0:0:
232,64,29872,1,0,0:0:0:0:
232,64,29968,1,0,0:0:0:0:
208,256,30161,1,2,0:0:0:0:
144,72,30353,1,0,0:0:0:0:
276,184,30545,1,8,0:0:0:0:
120,164,30737,5,0,0:0:0:0:
120,164,30834,1,0,0:0:0:0:
120,164,30930,2,0,P|80:164|48:168,1,62.9999980773926,2|0,0:0|0:0,0:0:0:0:
0,40,31314,2,0,P|40:40|72:36,1,62.9999980773926,8|0,0:0|0:0,0:0:0:0:
204,128,31699,1,2,0:0:0:0:
322,61,31891,1,0,0:0:0:0:
230,36,32084,1,8,0:0:0:0:
296,156,32276,1,0,0:0:0:0:
232,284,32468,6,0,P|224:248|224:216,1,62.9999980773926,2|0,0:0|0:0,0:0:0:0:
324,172,32853,1,8,0:0:0:0:
324,172,32949,1,0,0:0:0:0:
324,172,33045,1,0,0:0:0:0:
204,128,33237,2,0,L|128:136,1,62.9999980773926,2|0,0:0|0:0,0:0:0:0:
352,188,33622,2,0,L|428:180,1,62.9999980773926,8|0,0:0|0:0,0:0:0:0:
288,84,34007,5,2,0:0:0:0:
244,212,34199,1,0,0:0:0:0:
324,172,34391,1,8,0:0:0:0:
204,128,34584,1,0,0:0:0:0:
324,268,34776,2,0,L|332:340,1,62.9999980773926,2|0,0:0|0:0,0:0:0:0:
148,284,35161,1,8,0:0:0:0:
152,264,35257,1,0,0:0:0:0:
156,244,35353,1,0,0:0:0:0:
256,192,35545,12,0,36699,0:0:0:0:
296,324,37084,6,0,P|244:332|200:316,1,90,4|0,0:0|0:0,0:0:0:0:
144,284,37372,1,0,0:0:0:0:
144,284,37468,2,0,L|156:384,1,90,8|0,0:0|0:0,0:0:0:0:
256,236,37853,2,0,L|268:136,1,90
244,52,38237,1,8,0:0:0:0:
84,96,38430,5,0,0:0:0:0:
84,96,38526,1,0,0:0:0:0:
84,96,38622,2,0,P|124:116|169:117,1,90
336,80,39007,2,0,P|380:80|420:100,1,90,8|0,0:0|0:0,0:0:0:0:
464,176,39295,1,0,0:0:0:0:
464,176,39391,2,0,L|453:265,1,90
368,316,39776,1,8,0:0:0:0:
144,256,39968,6,0,L|192:244,1,45
256,292,40161,1,0,0:0:0:0:
260,312,40257,1,0,0:0:0:0:
264,332,40353,1,0,0:0:0:0:
64,320,40545,2,0,L|52:228,1,90,8|0,0:0|0:0,0:0:0:0:
144,256,40834,1,0,0:0:0:0:
144,256,40930,2,0,L|156:156,1,90
334,180,41314,2,0,P|289:180|248:196,1,90,8|0,0:0|0:0,0:0:0:0:
356,296,41699,6,0,L|406:303,2,45
260,312,42084,1,8,0:0:0:0:
408,224,42276,1,0,0:0:0:0:
428,228,42372,1,0,0:0:0:0:
448,232,42468,2,0,B|492:240|492:240|516:192|496:152,1,135
432,88,42853,1,2,0:0:0:0:
432,88,43237,5,0,0:0:0:0:
340,56,43430,1,0,0:0:0:0:
316,60,43526,1,0,0:0:0:0:
292,64,43622,1,8,0:0:0:0:
252,152,43814,1,0,0:0:0:0:
200,12,44007,1,0,0:0:0:0:
200,12,44103,2,0,P|148:12|108:36,1,90
84,116,44391,1,2,0:0:0:0:
84,116,44776,6,0,L|72:220,1,90
64,284,45064,1,0,0:0:0:0:
64,284,45161,2,0,P|116:268|164:268,1,90,8|0,0:0|0:0,0:0:0:0:
308,336,45545,2,0,P|256:368|220:316,1,135
256,232,45930,1,2,0:0:0:0:
256,232,46314,5,0,0:0:0:0:
272,200,46411,1,0,0:0:0:0:
276,164,46507,1,0,0:0:0:0:
268,128,46603,1,0,0:0:0:0:
248,100,46699,2,0,L|336:116,1,90,8|0,0:0|0:0,0:0:0:0:
64,144,47084,2,0,L|152:160,1,90
172,84,47372,2,0,L|157:41,1,45,0|8,0:0|0:0,0:0:0:0:
44,168,47661,5,0,0:0:0:0:
44,168,47757,1,0,0:0:0:0:
44,168,47853,2,0,P|32:216|36:256,1,90
64,332,48141,2,0,L|49:374,1,45,0|8,0:0|0:0,0:0:0:0:
160,272,48430,1,0,0:0:0:0:
160,272,48526,1,0,0:0:0:0:
160,272,48622,2,0,B|208:252|260:268|260:268|268:244|252:224,1,135
216,156,49007,1,2,0:0:0:0:
216,156,49391,5,0,0:0:0:0:
124,112,49584,1,0,0:0:0:0:
184,32,49776,2,0,P|236:40|276:64,1,90,8|0,0:0|0:0,0:0:0:0:
312,220,50161,2,0,P|262:213|228:192,1,90
380,40,50545,2,0,P|417:77|435:119,1,90,8|0,0:0|0:0,0:0:0:0:
408,208,50930,5,0,0:0:0:0:
216,156,51122,1,0,0:0:0:0:
216,156,51218,1,0,0:0:0:0:
216,156,51314,1,8,0:0:0:0:
352,24,51507,2,0,L|364:72,1,45
352,144,51699,1,0,0:0:0:0:
256,64,51891,1,0,0:0:0:0:
464,72,52084,2,0,L|488:164,1,90,8|0,0:0|0:0,0:0:0:0:
424,232,52468,5,0,0:0:0:0:
352,144,52661,1,0,0:0:0:0:
255,263,52853,2,0,P|210:262|168:248,1,90,8|0,0:0|0:0,0:0:0:0:
256,64,53237,2,0,P|278:108|286:158,1,90
256,264,53622,1,8,0:0:0:0:
196,132,53814,1,0,0:0:0:0:
368,240,54007,6,0,P|390:196|398:146,1,90
392,120,54295,1,0,0:0:0:0:
376,88,54391,1,8,0:0:0:0:
196,132,54584,2,0,L|244:144,1,45
296,80,54776,1,0,0:0:0:0:
131,31,54968,1,0,0:0:0:0:
164,168,55161,2,0,L|252:188,1,90,8|0,0:0|0:0,0:0:0:0:
84,120,55545,6,0,P|72:164|80:208,1,90
240,296,55930,2,0,P|205:265|162:253,1,90,8|0,0:0|0:0,0:0:0:0:
24,276,56314,1,0,0:0:0:0:
164,168,56507,1,0,0:0:0:0:
32,96,56699,2,0,L|120:80,1,90,8|0,0:0|0:0,0:0:0:0:
256,204,57084,5,0,0:0:0:0:
348,124,57276,2,0,L|304:116,2,45,0|0|8,0:0|0:0|0:0,0:0:0:0:
232,40,57661,1,0,0:0:0:0:
256,36,57757,1,0,0:0:0:0:
280,32,57853,1,0,0:0:0:0:
348,124,58045,1,0,0:0:0:0:
456,28,58237,2,0,B|476:132|476:132|500:96,1,135,8|0,0:0|0:0,0:0:0:0:
456,28,58622,6,0,L|364:44,1,90
256,120,59007,2,0,P|241:162|241:206,1,90,8|0,0:0|0:0,0:0:0:0:
408,244,59391,1,0,0:0:0:0:
336,176,59584,1,0,0:0:0:0:
256,296,59776,2,0,P|211:287|172:260,1,90,8|0,0:0|0:0,0:0:0:0:
256,120,60161,5,0,0:0:0:0:
408,244,60353,1,0,0:0:0:0:
412,260,60449,1,0,0:0:0:0:
416,276,60545,1,8,0:0:0:0:
336,176,60737,1,0,0:0:0:0:
344,148,60834,1,0,0:0:0:0:
352,120,60930,1,0,0:0:0:0:
236,52,61122,5,0,0:0:0:0:
245,86,61218,1,0,0:0:0:0:
256,120,61314,2,0,L|232:208,1,90,2|0,0:0|0:0,0:0:0:0:
256,296,61699,1,4,0:0:0:0:
24,352,67853,6,0,P|9:285|25:217,1,125.999996154785,2|8,0:0|0:0,0:0:0:0:
104,188,68430,2,0,P|139:192|174:188,1,62.9999980773926,0|8,0:0|0:0,0:0:0:0:
232,120,68814,1,0,0:0:0:0:
104,188,69007,1,8,0:0:0:0:
136,100,69199,1,0,0:0:0:0:
256,208,69391,6,0,P|260:248|260:280,2,62.9999980773926,10|0|8,0:0|0:0|0:0,0:0:0:0:
352,312,69968,2,0,P|349:278|348:243,1,62.9999980773926,0|8,0:0|0:0,0:0:0:0:
396,88,70353,1,0,0:0:0:0:
420,180,70545,1,8,0:0:0:0:
332,152,70737,1,0,0:0:0:0:
488,116,70930,6,0,P|512:180|492:236,1,125.999996154785,10|8,0:0|0:0,0:0:0:0:
352,312,71507,2,0,P|349:278|348:243,1,62.9999980773926,0|8,0:0|0:0,0:0:0:0:
287,117,71891,2,0,P|286:148|283:180,2,62.9999980773926,0|8|0,0:0|0:0|0:0,0:0:0:0:
216,56,72468,6,0,P|180:56|148:64,1,62.9999980773926,10|0,0:0|0:0,0:0:0:0:
96,140,72853,1,8,0:0:0:0:
14,21,73045,2,0,P|13:53|20:84,1,62.9999980773926,0|8,0:0|0:0,0:0:0:0:
156,216,73430,1,0,0:0:0:0:
156,216,73526,1,0,0:0:0:0:
156,216,73622,2,0,P|125:232|91:237,1,62.9999980773926,8|0,0:0|0:0,0:0:0:0:
192,128,74007,6,0,B|256:108|256:148|316:124,2,125.999996154785,12|8|8,0:3|0:0|0:0,0:0:0:0:
156,216,74968,1,0,0:0:0:0:
116,72,75161,1,8,0:0:0:0:
192,128,75353,1,0,0:0:0:0:
72,252,75545,6,0,P|64:216|64:188,1,62.9999980773926,10|0,0:0|0:0,0:0:0:0:
100,104,75930,1,8,0:0:0:0:
254,120,76122,2,0,L|192:128,1,62.9999980773926,0|8,0:0|0:0,0:0:0:0:
80,72,76507,1,0,0:0:0:0:
192,128,76699,1,8,0:0:0:0:
56,104,76891,1,0,0:0:0:0:
156,216,77084,5,10,0:0:0:0:
192,128,77276,1,0,0:0:0:0:
292,216,77468,2,0,P|290:184|283:153,1,62.9999980773926,8|0,0:0|0:0,0:0:0:0:
232,48,77853,2,0,L|360:60,1,125.999996154785,8|8,0:0|0:0,0:0:0:0:
432,120,78430,1,0,0:0:0:0:
416,228,78622,6,0,P|400:180|404:136,1,94.499997116089,10|0,0:0|0:0,0:0:0:0:
432,120,79007,2,0,L|494:126,1,62.9999980773926,8|0,0:0|0:0,0:0:0:0:
312,192,79391,1,8,0:0:0:0:
256,116,79584,1,0,0:0:0:0:
256,116,79776,2,0,L|194:122,1,62.9999980773926,8|0,0:0|0:0,0:0:0:0:
312,40,80161,5,10,0:0:0:0:
208,284,80545,1,8,0:0:0:0:
208,284,80737,2,0,L|278:277,1,62.9999980773926,0|8,0:0|0:0,0:0:0:0:
344,336,81122,1,0,0:0:0:0:
208,284,81314,1,8,0:0:0:0:
312,192,81507,1,0,0:0:0:0:
256,364,81699,5,10,0:0:0:0:
208,284,81891,1,0,0:0:0:0:
312,192,82084,2,0,L|242:199,1,62.9999980773926,8|0,0:0|0:0,0:0:0:0:
468,228,82468,2,0,L|398:235,1,62.9999980773926,8|0,0:0|0:0,0:0:0:0:
312,192,82853,1,8,0:0:0:0:
396,136,83045,5,0,0:0:0:0:
396,136,83141,1,0,0:0:0:0:
396,136,83237,2,0,P|396:100|392:68,2,62.9999980773926,8|8|8,0:0|0:0|0:0,0:0:0:0:
320,248,83814,1,0,0:0:0:0:
316,220,83911,1,0,0:0:0:0:
312,192,84007,1,8,0:0:0:0:
168,284,84199,2,0,L|158:321,2,31.4999990386963,0|0|8,0:0|0:0|0:0,0:0:0:0:
216,152,84584,5,0,0:0:0:0:
220,180,84680,1,0,0:0:0:0:
224,208,84776,1,8,0:0:0:0:
112,220,84968,1,0,0:0:0:0:
228,236,85161,1,8,0:0:0:0:
60,156,85353,1,0,0:0:0:0:
168,284,85545,1,8,0:0:0:0:
140,104,85737,1,0,0:0:0:0:
140,104,85834,1,0,0:0:0:0:
140,104,85930,1,8,0:0:0:0:
244,312,86122,5,0,0:0:0:0:
244,312,86218,1,0,0:0:0:0:
244,312,86314,2,0,P|312:332|388:316,1,135,4|0,0:0|0:0,0:0:0:0:
400,284,86699,2,0,L|384:184,1,90,8|0,0:0|0:0,0:0:0:0:
498,103,87084,2,0,L|484:192,1,90
328,104,87468,1,8,0:0:0:0:
244,172,87661,5,0,0:0:0:0:
244,172,87757,1,0,0:0:0:0:
244,172,87853,1,0,0:0:0:0:
216,64,88045,1,0,0:0:0:0:
128,196,88237,2,0,L|116:244,2,45,8|0|0,0:0|0:0|0:0,0:0:0:0:
216,64,88622,2,0,L|316:84,1,90
104,88,89007,2,0,L|4:68,1,90,8|0,0:0|0:0,0:0:0:0:
216,64,89391,5,0,0:0:0:0:
104,88,89584,1,0,0:0:0:0:
244,172,89776,1,8,0:0:0:0:
128,196,89968,1,0,0:0:0:0:
216,64,90161,1,0,0:0:0:0:
272,276,90353,1,0,0:0:0:0:
356,140,90545,1,8,0:0:0:0:
356,140,90641,1,0,0:0:0:0:
356,140,90737,1,0,0:0:0:0:
128,196,90930,6,0,L|108:295,1,90
200,344,91314,1,8,0:0:0:0:
200,344,91411,1,0,0:0:0:0:
200,344,91507,1,0,0:0:0:0:
358,266,91699,2,0,B|315:259|315:259|271:275,1,90
328,368,92084,1,8,0:0:0:0:
304,160,92276,1,0,0:0:0:0:
448,328,92468,6,0,B|464:284|464:284|457:241,1,90
304,160,92853,2,0,L|392:144,1,90,8|0,0:0|0:0,0:0:0:0:
292,254,93237,2,0,P|220:206|216:120,1,180,0|8,0:0|0:0,0:0:0:0:
296,44,93814,1,0,0:0:0:0:
216,120,94007,6,0,B|172:148|172:148|120:148,1,90
40,76,94391,2,0,L|40:24,2,45,8|0|0,0:0|0:0|0:0,0:0:0:0:
96,248,94776,1,0,0:0:0:0:
216,120,94968,1,0,0:0:0:0:
64,164,95161,1,8,0:0:0:0:
192,280,95353,1,0,0:0:0:0:
216,120,95545,5,0,0:0:0:0:
116,80,95737,1,0,0:0:0:0:
256,208,95930,1,8,0:0:0:0:
356,168,96122,1,0,0:0:0:0:
228,32,96314,2,0,B|216:72|216:72|216:120,1,90
348,272,96699,1,8,0:0:0:0:
348,272,96795,1,0,0:0:0:0:
348,272,96891,1,0,0:0:0:0:
444,180,97084,6,0,B|404:168|404:168|356:168,1,90
316,188,97372,1,0,0:0:0:0:
276,208,97468,2,0,L|185:207,1,90,8|0,0:0|0:0,0:0:0:0:
116,124,97853,1,0,0:0:0:0:
256,296,98045,2,0,L|256:341,2,45,0|0|8,0:0|0:0|0:0,0:0:0:0:
256,60,98622,5,4,0:0:0:0:
