osu file format v5

[General]
AudioFilename: !!!!!!! Wolves of the sea.mp3
AudioLeadIn: 0
PreviewTime: 78100
Countdown: 0
SampleSet: Normal
StackLeniency: 0.7
Mode: 0
LetterboxInBreaks: 1
EditorBookmarks: 13734,35113,65044,83251,109734
EditorDistanceSpacing: 0.800000011920929

[Metadata]
Title:Wolves of the Sea
Artist:Pirates of the Sea
Creator:Agent Spin Here
Version:Pirate
Source:
Tags:eurovision europe latvia

[Difficulty]
HPDrainRate:4
CircleSize:4
OverallDifficulty:3
SliderMultiplier:2.3
SliderTickRate:0.5

[Events]
//Background and Video events
0,0,"610x.jpg"
//Break Periods
2,60285,65265
//Storyboard Layer 0 (Background)
//Storyboard Layer 1 (Failing)
//Storyboard Layer 2 (Passing)
//Storyboard Layer 3 (Foreground)
//Storyboard Sound Samples
//Background Colour Transformations
3,100,30,71,238

[TimingPoints]
499,413.793103448276,4,1,0,71,1,0
35251,-100,4,1,0,71,0,1
60085,-100,4,1,0,72,0,0
83251,-100,4,1,0,70,0,1

[Colours]
Combo1 : 255,255,255
Combo2 : 255,0,0

[HitObjects]
360,128,10430,2,0,B|288:72|224:192|136:96,1,230,8|0
360,192,11257,6,0,B|272:144|224:256|136:160,1,230,8|0
360,256,12085,6,0,B|272:208|224:320|136:224,2,230,8|0|4
32,168,13740,6,0,B|104:64|192:176,1,191.666666666667
96,256,14361,2,4,B|152:312|224:264,1,115,0|4
392,72,15188,5,8
320,128,15395,2,0,B|200:200|336:264,1,191.666666666667
384,184,15947,2,0,B|528:232|408:288,1,153.333333333333,0|4
216,304,16636,6,0,B|96:304,1,115
160,232,17050,2,0,B|120:152|264:88|88:80|72:88|104:168|208:192|248:176|264:136|280:136|408:224|376:168|344:80,1,460,0|4
80,40,19947,6,0,B|24:112|96:168,1,115
144,88,20361,2,0,B|368:88,1,153.333333333333
208,32,20912,2,0,B|208:256,1,153.333333333333,0|4
408,312,21809,5,0
408,312,22016,2,0,B|328:384|272:304,1,153.333333333333
360,240,22567,2,0,B|284:170|212:242,1,153.333333333333,0|4
80,128,23257,6,0,B|120:224|192:184,1,115
232,136,23671,2,2,B|304:24|384:144,1,191.666666666667
440,232,24223,2,2,B|392:168|496:168|432:88,1,153.333333333333,2|2
320,240,24912,1,4
144,296,25326,1,4
48,40,26981,6,0,C|224:40,2,153.333333333333
48,160,27809,2,0,C|256:160,2,153.333333333333
48,280,28636,2,0,C|256:280,2,153.333333333333
152,352,29464,1,4
344,56,30292,6,0,B|240:136|432:112|360:176|304:200,2,153.333333333333
216,56,31119,2,0,B|112:136|304:112|232:176|168:256,2,230,0|0|4
256,192,32361,12,4,34430
256,256,35257,6,0,B|88:192|264:104,1,230,4|0
416,192,36085,1,0
256,256,36499,5,8
256,256,36705,1,8
256,256,36912,2,0,B|424:192|248:104,1,230,4|0
96,192,37740,1,4
440,64,38567,6,0,B|352:216|240:96,1,230
72,64,39395,2,0,B|160:216|272:96,1,230
440,64,40223,1,4
56,296,41878,6,2,B|336:296,1,230
456,232,42705,2,2,B|208:232,1,230
56,168,43533,2,2,B|312:168,1,230
432,56,44361,1,4
56,64,45188,6,0,B|56:312,1,230
120,232,45809,1,0
56,294,46016,2,0,B|336:296,1,230
288,200,46636,1,0
192,200,46843,1,4
376,152,48499,6,0,B|376:24,1,115
376,37,48912,2,0,B|240:120,1,115
208,152,49326,1,0
328,296,49740,5,8
144,288,50154,2,0,B|144:152,1,115
145,173,50567,2,0,B|296:256,1,115,0|0
328,184,50981,1,4
256,328,51809,6,2,B|152:280|192:88,1,230
256,328,52636,2,2,B|360:280|320:88,1,230
256,240,53464,1,4
64,160,54705,6,0,B|64:96|152:96,1,115
136,184,55119,2,0,B|264:128|208:80|160:16|304:80,1,230
272,160,55740,1,4
56,328,56361,5,8
240,328,56774,1,8
424,328,57188,1,8
328,168,57602,1,12
256,192,58430,12,4,60085
256,288,66705,6,2,B|136:208|384:160|208:48,1,230
256,288,67533,6,2,B|376:208|128:160|304:48,1,230
168,248,68361,6,0,C|256:368|360:224,1,306.666666666667
424,344,69188,1,4
344,136,70016,6,0,C|256:16|152:160,1,306.666666666667
88,40,70843,1,4
40,224,71671,6,0,B|0:384|264:192,1,306.666666666667
344,280,72499,2,0,B|368:336|248:368|232:288|264:160,1,230
352,40,73326,1,4
256,272,74981,6,0,B|176:232|136:272|152:136,2,153.333333333333
256,272,75809,2,0,B|336:232|376:272|360:136,2,153.333333333333
256,272,76636,2,0,B|224:168|280:168|248:88,2,153.333333333333
256,272,77464,1,4
408,80,78085,5,8
432,168,78292,1,4
408,288,78567,1,4
376,168,78843,1,4
408,288,79119,1,4
256,192,79533,12,4,82430
72,240,83257,6,2,B|216:48,1,230
256,128,83878,1,8
256,216,84085,1,2
72,240,84499,1,2
456,240,84912,6,2,B|312:48,1,230
256,128,85533,1,8
256,216,85740,1,2
456,240,86154,1,2
256,288,86567,6,2,B|168:392|112:376|64:296,1,230
256,288,87395,2,2,B|344:392|400:376|448:296,1,230
256,288,88223,1,12
256,104,89878,6,2,B|192:64|120:112,2,115
256,192,90499,1,8
256,280,90705,2,0,B|320:320|392:272,2,115
72,312,91533,5,12
256,320,91947,1,12
440,328,92361,1,12
136,120,93188,6,2,B|8:56|264:56,1,230
376,120,94016,2,2,B|512:56|240:56,1,230
256,240,94843,1,4
256,336,96499,6,0,B|152:368|168:176,2,115
320,272,97119,2,0,B|320:112,1,115
256,48,97740,5,8
256,48,97947,1,0
256,48,98154,2,0,B|360:16|344:208,2,115
192,112,98774,2,0,B|192:272,1,115,0|4
64,184,99809,6,2,B|40:280|128:248,1,115
184,192,100223,2,2,B|296:152|224:344,1,115
192,320,100636,2,2,B|456:312,1,230
352,144,101464,1,4
48,56,102705,5,8
224,104,103119,2,2,B|96:192|344:192|192:344,1,230
312,344,103740,2,2,B|416:288|344:224|344:208|256:144,1,230,2|2
352,104,104361,1,2
184,184,104774,6,8,B|120:312|56:168|32:104,1,230
80,304,105602,1,12
256,192,106430,12,4,108085
