osu file format v12

[General]
AudioFilename: Arifuretasekaiseifuku.mp3
AudioLeadIn: 0
PreviewTime: 51561
Countdown: 0
SampleSet: Soft
StackLeniency: 0.7
Mode: 0
LetterboxInBreaks: 1

[Editor]
Bookmarks: 13361,30961,37361,37561,37961,45161,45961,48561,74161,86961,125361
DistanceSpacing: 0.8
BeatDivisor: 2
GridSize: 8

[Metadata]
Title:Arifureta se kai sei fuku
TitleUnicode:ありふれたせかいせいふく
Artist:PinokioP feat.Hatsune Miku
ArtistUnicode:ピノキオP feat.初音ミク
Creator:sunshy
Version:7th End
Source:Vocaloid
Tags:Hatsune Miku
BeatmapID:227402
BeatmapSetID:61616

[Difficulty]
HPDrainRate:6
CircleSize:4
OverallDifficulty:6
ApproachRate:8
SliderMultiplier:1.6
SliderTickRate:1

[Events]
//Background and Video events
0,0,"ArifuBG.jpg",0,0
//Break Periods
2,64161,70211
2,115161,121411
2,148361,151411
//Storyboard Layer 0 (Background)
//Storyboard Layer 1 (Fail)
//Storyboard Layer 2 (Pass)
//Storyboard Layer 3 (Foreground)
//Storyboard Sound Samples
//Background Colour Transformations
3,100,163,162,255

[TimingPoints]
6961.18113525979,400,4,2,0,100,1,0
26161,-100,4,2,0,90,0,0
36361,-80,4,2,0,90,0,0
37361,-66.6666666666667,4,2,0,90,0,0
38361,-100,4,2,0,90,0,0
43761,-66.6666666666667,4,2,0,90,0,0
44361,-100,4,2,0,90,0,0
51761,-100,4,2,0,100,0,1
64561,-100,4,2,0,90,0,0
83761,-100,4,2,0,85,0,0
85361,-100,4,2,0,90,0,0
85761,-80,4,2,0,90,0,0
86161,-66.6666666666667,4,2,0,90,0,0
86361,-100,4,2,0,90,0,0
98961,-100,4,2,0,90,0,0
99761,-100,4,2,0,100,0,1
112561,-100,4,2,0,100,0,0
125361,-100,4,2,0,60,0,0
127961,-100,4,2,0,60,0,0
131761,-200,4,2,0,60,0,0
136561,-114.285714285714,4,2,0,90,0,0
147361,-88.8888888888889,4,2,0,90,0,0
147761,-76.9230769230769,4,2,0,90,0,0
148161,-66.6666666666667,4,2,0,90,0,0
148561,-100,4,2,0,85,0,0
153361,-66.6666666666667,4,2,0,85,0,0
154961,-100,4,2,0,30,0,0
155761,-100,4,2,0,65,0,0
156361,-100,4,2,0,100,0,1
156561,-100,4,2,0,100,0,0
158561,-100,4,2,0,100,0,1
164361,-100,4,2,0,60,0,1
165161,-100,4,2,0,70,0,0
165961,-100,4,2,0,80,0,0
166361,-66.6666666666667,4,2,0,90,0,0
167561,-100,4,2,0,100,0,0
173961,-66.6666666666667,4,2,0,100,0,1

[Colours]
Combo1 : 252,165,107
Combo2 : 255,0,0
Combo3 : 240,55,255
Combo4 : 74,219,255

[HitObjects]
256,192,11761,12,0,12961,0:0:0:0:
232,88,13361,6,0,L|144:192,1,120
128,208,13761,1,0,0:0:0:0:
272,288,14161,1,0,0:0:0:0:
272,288,14361,1,0,0:0:0:0:
272,288,14561,1,0,0:0:0:0:
224,168,14961,6,0,L|280:96,1,80
368,184,15361,2,0,L|312:256,1,80
368,184,15761,1,0,0:0:0:0:
368,152,15961,1,0,0:0:0:0:
368,112,16161,1,0,0:0:0:0:
368,80,16361,1,0,0:0:0:0:
264,160,16561,6,0,B|232:136|232:136|200:160|200:160|168:136|168:136|136:160,1,160
88,200,17161,1,0,0:0:0:0:
88,200,17361,2,0,L|88:304,2,80
424,152,18161,6,0,L|424:64,1,80
336,232,18561,2,0,L|336:152,1,80
240,304,18961,2,0,L|240:216,1,80
240,224,19361,1,0,0:0:0:0:
256,192,19761,12,0,20961,0:0:0:0:
256,192,21361,12,0,22561,0:0:0:0:
101,190,22961,5,0,0:0:0:0:
159,293,23161,1,0,0:0:0:0:
264,232,23361,1,0,0:0:0:0:
204,128,23561,1,0,0:0:0:0:
173,247,23761,5,0,0:0:0:0:
64,208,23961,1,0,0:0:0:0:
103,101,24161,1,0,0:0:0:0:
210,139,24361,1,0,0:0:0:0:
232,88,24561,6,0,L|312:64,1,80
304,152,24961,6,0,L|392:160,1,80
336,232,25361,6,0,L|400:288,1,80
296,312,25761,6,0,L|248:328,3,40
184,320,26161,6,0,B|160:288|128:208|120:160,1,160
200,192,26761,1,0,0:0:0:0:
280,192,26961,2,0,B|248:136|216:96|168:48,1,160
112,96,27561,1,0,0:0:0:0:
64,160,27761,2,0,B|88:200|112:224|144:248,2,120
64,160,28561,1,0,0:0:0:0:
408,160,28961,6,0,B|400:120|384:64|384:64,1,80
408,160,29361,1,0,0:0:0:0:
256,248,29761,2,0,B|256:160|256:160,1,80
336,80,30161,1,0,0:0:0:0:
336,168,30361,1,0,0:0:0:0:
336,256,30561,1,0,0:0:0:0:
336,336,30761,1,0,0:0:0:0:
256,192,30961,12,0,32161,0:0:0:0:
440,48,32561,2,0,L|368:144,1,120
368,144,32961,1,0,0:0:0:0:
272,88,33161,1,0,0:0:0:0:
216,184,33361,1,0,0:0:0:0:
216,184,33461,1,0,0:0:0:0:
216,184,33561,1,0,0:0:0:0:
216,184,33661,1,0,0:0:0:0:
216,184,33761,2,0,L|296:224,1,80
248,296,34161,6,0,L|192:240,1,80
184,232,34461,1,0,0:0:0:0:
176,224,34561,1,0,0:0:0:0:
64,256,34761,1,0,0:0:0:0:
104,144,34961,2,0,B|96:144|96:144|96:136|96:136|80:120|80:120|88:120|88:120|96:104|96:104|96:96|96:96|104:96,1,80
192,80,35361,2,0,L|272:80,1,80
384,80,35761,5,0,0:0:0:0:
384,80,35961,2,0,L|376:160,1,80
280,160,36361,1,0,0:0:0:0:
184,160,36561,1,0,0:0:0:0:
88,160,36761,2,0,L|64:272,1,100
160,288,37161,1,0,0:0:0:0:
69,312,37361,2,0,B|48:304|32:240|47:201,1,120.000004577637
136,80,37763,2,0,B|158:89|174:153|158:191,1,120.000004577637
256,40,38161,1,0,0:0:0:0:
256,176,38561,6,0,L|256:216,1,40
376,320,38961,6,0,B|400:280|408:256|416:192,1,120
416,192,39361,1,0,0:0:0:0:
336,168,39561,1,0,0:0:0:0:
328,152,39661,1,0,0:0:0:0:
320,168,39761,1,0,0:0:0:0:
312,184,39861,1,0,0:0:0:0:
304,168,39961,2,0,L|224:168,2,80
256,24,40561,6,0,B|232:64|224:88|216:152,1,120
216,152,40961,1,0,0:0:0:0:
312,88,41161,1,0,0:0:0:0:
328,240,41361,1,0,0:0:0:0:
176,256,41561,1,0,0:0:0:0:
160,104,41761,2,0,B|128:120|96:104|88:72,1,80
240,48,42161,6,0,B|304:48|360:64|400:104,1,160
320,176,42761,2,0,P|352:224|360:248,1,80
280,344,43161,1,0,0:0:0:0:
272,344,43261,1,0,0:0:0:0:
264,344,43361,1,0,0:0:0:0:
152,272,43561,1,0,0:0:0:0:
192,232,43761,6,0,B|202:201|202:153|168:112,1,120.000004577637
144,120,44161,2,0,B|104:152|104:192|112:232,1,120.000004577637
152,272,44561,2,0,B|152:264|152:272|152:272|152:272|154:268|154:268|146:268,10,15.0000005722046
136,168,45161,6,0,B|136:96|136:96|160:112,1,80
208,224,45961,2,0,B|280:224|280:224|264:248,1,80
136,296,46761,5,0,0:0:0:0:
64,240,46961,5,0,0:0:0:0:
64,240,47161,1,0,0:0:0:0:
136,176,47361,5,0,0:0:0:0:
136,176,47561,1,0,0:0:0:0:
64,112,47761,5,0,0:0:0:0:
64,112,47961,1,0,0:0:0:0:
136,56,48161,5,0,0:0:0:0:
136,56,48361,1,0,0:0:0:0:
248,64,48561,6,0,L|280:144,1,80
176,224,48961,2,0,L|208:128,1,80
256,192,49361,12,0,50161,0:0:0:0:
160,80,50361,5,8,0:0:0:0:
104,240,50661,1,8,0:0:0:0:
280,200,50961,1,8,0:0:0:0:
120,168,51561,5,0,0:0:0:0:
120,144,51661,1,0,0:0:0:0:
128,120,51761,2,0,B|136:88|168:64|192:64,2,80
167,248,52361,1,0,0:0:0:0:
176,224,52461,1,0,0:0:0:0:
192,208,52561,2,0,B|216:184|264:184|288:200,2,80
368,232,53161,5,0,0:0:0:0:
360,224,53261,1,0,0:0:0:0:
352,216,53361,1,0,0:0:0:0:
288,160,53561,1,0,0:0:0:0:
280,168,53661,1,0,0:0:0:0:
272,176,53761,1,0,0:0:0:0:
200,248,53961,1,0,0:0:0:0:
168,136,54161,1,0,0:0:0:0:
88,280,54361,1,0,0:0:0:0:
56,104,54561,1,0,0:0:0:0:
168,192,54761,6,0,L|112:192,2,40
256,136,55161,1,0,0:0:0:0:
256,240,55361,1,0,0:0:0:0:
344,192,55561,2,0,L|400:192,2,40
256,240,55961,1,0,0:0:0:0:
256,136,56161,1,0,0:0:0:0:
320,56,56361,2,0,L|416:104,1,80
432,144,56761,2,0,L|344:192,1,80
304,200,57161,2,0,L|304:96,1,80
360,128,57561,5,8,0:0:0:0:
240,200,57761,1,8,0:0:0:0:
120,128,57961,6,0,L|208:88,1,80
104,240,58361,2,0,L|192:200,1,80
280,184,58761,2,0,L|192:144,1,80
296,296,59161,2,0,L|208:256,1,80
280,192,59561,5,0,0:0:0:0:
312,192,59661,1,0,0:0:0:0:
344,192,59761,1,0,0:0:0:0:
376,288,59961,1,0,0:0:0:0:
416,192,60161,1,0,0:0:0:0:
376,96,60361,1,0,0:0:0:0:
344,192,60561,2,0,L|184:192,1,160
184,192,61161,5,0,0:0:0:0:
160,248,61361,2,0,P|112:192|184:136,1,160
224,136,61961,5,0,0:0:0:0:
248,192,62161,2,0,P|294:135|246:79,1,160
336,192,62961,5,0,0:0:0:0:
408,288,63361,5,0,0:0:0:0:
432,192,63661,1,0,0:0:0:0:
408,96,63961,1,0,0:0:0:0:
256,192,70961,12,0,72161,0:0:0:0:
256,192,72561,12,0,73761,0:0:0:0:
184,64,74161,6,0,B|160:96|128:176|120:224,1,160
200,192,74761,1,0,0:0:0:0:
280,192,74961,2,0,B|248:248|216:288|168:336,1,160
112,288,75561,1,0,0:0:0:0:
64,224,75761,2,0,B|112:168|160:128|264:96,1,240
328,144,76561,1,0,0:0:0:0:
328,176,76661,1,0,0:0:0:0:
328,208,76761,1,0,0:0:0:0:
408,224,76961,6,0,B|400:264|384:320|384:320,1,80
408,224,77361,1,0,0:0:0:0:
256,136,77761,2,0,B|256:96|264:64|288:40,1,80
352,72,78161,1,0,0:0:0:0:
400,168,78361,1,0,0:0:0:0:
376,272,78561,1,0,0:0:0:0:
272,304,78761,1,0,0:0:0:0:
256,192,78961,12,0,80161,0:0:0:0:
440,336,80561,2,0,L|368:240,1,120
368,240,80961,1,0,0:0:0:0:
288,304,81161,1,0,0:0:0:0:
368,240,81361,1,0,0:0:0:0:
232,224,81561,1,0,0:0:0:0:
208,216,81661,1,0,0:0:0:0:
216,200,81761,2,0,L|296:160,1,80
144,96,82161,6,0,B|192:80|248:72|312:80,1,160
400,144,82761,1,0,0:0:0:0:
480,232,82961,2,0,B|448:224|448:224|416:256|416:256|408:256|408:256,1,80
320,304,83361,2,0,L|256:248,1,80
128,304,83761,1,0,0:0:0:0:
128,304,83961,1,0,0:0:0:0:
128,304,84161,1,0,0:0:0:0:
208,224,84361,2,0,L|200:136,1,80
200,144,84761,1,0,0:0:0:0:
200,144,84961,1,0,0:0:0:0:
296,96,85161,1,0,0:0:0:0:
400,120,85361,6,0,L|416:200,1,80
352,232,85761,2,0,L|296:128,1,100
232,152,86161,2,0,L|256:280,1,120.000004577637
256,272,86561,6,0,L|256:232,1,40
256,48,86961,5,0,0:0:0:0:
352,112,87261,2,0,L|352:152,1,40
232,152,87561,1,0,0:0:0:0:
312,224,87761,1,0,0:0:0:0:
312,224,87861,1,0,0:0:0:0:
312,224,87961,1,0,0:0:0:0:
312,224,88061,1,0,0:0:0:0:
312,224,88161,2,0,L|344:312,1,80
208,344,88561,6,0,L|208:256,1,80
208,264,88861,1,0,0:0:0:0:
208,264,88961,1,0,0:0:0:0:
72,240,89161,2,0,L|72:320,2,80
168,144,89761,1,0,0:0:0:0:
208,264,89961,1,0,0:0:0:0:
320,336,90161,2,0,B|360:288|384:248|400:192,1,160
400,88,90761,1,0,0:0:0:0:
304,48,90961,6,0,L|224:48,1,80
256,128,91361,1,0,0:0:0:0:
256,160,91461,1,0,0:0:0:0:
256,192,91561,1,0,0:0:0:0:
128,184,91761,2,0,B|162:193|162:265|130:289,1,120.000004577637
96,264,92161,2,0,B|61:254|61:182|93:158,1,120.000004577637
112,120,92561,2,0,B|112:112|112:120|112:120|112:120|114:116|114:116|106:116,10,15.0000005722046
136,216,93161,6,0,B|136:288|136:288|160:272,1,80
208,160,93961,2,0,B|280:160|280:160|264:136,1,80
248,32,94761,5,0,0:0:0:0:
96,64,94961,6,0,L|184:64,1,80
176,216,95361,6,0,L|264:216,1,80
312,120,95761,6,0,L|400:120|400:120,1,80
280,304,96161,6,0,L|376:304,1,80
256,192,96561,5,0,0:0:0:0:
304,104,97561,6,0,L|344:104,1,40
176,264,98361,6,0,L|120:264,1,40
152,224,98661,6,0,L|104:224,1,40
128,184,98961,6,0,L|80:184,1,40
296,288,99561,5,0,0:0:0:0:
296,272,99661,1,0,0:0:0:0:
296,256,99761,2,0,B|296:216|296:216|320:160,2,80
216,224,100361,1,0,0:0:0:0:
216,208,100461,1,0,0:0:0:0:
216,192,100561,2,0,B|216:152|216:152|200:104,2,80
328,224,101161,6,0,L|328:264,2,40
176,224,101561,1,0,0:0:0:0:
328,224,101761,2,0,L|328:136,1,80
224,72,102161,1,0,0:0:0:0:
112,112,102361,1,0,0:0:0:0:
72,224,102561,1,0,0:0:0:0:
184,296,102761,5,0,0:0:0:0:
176,296,102861,1,0,0:0:0:0:
168,296,102961,1,0,0:0:0:0:
208,184,103161,2,0,L|296:184,1,80
136,152,103561,1,0,0:0:0:0:
128,152,103661,1,0,0:0:0:0:
120,152,103761,1,0,0:0:0:0:
184,248,103961,2,0,L|272:248,1,80
384,240,104361,5,0,0:0:0:0:
376,232,104561,5,0,0:0:0:0:
368,224,104761,5,0,0:0:0:0:
360,216,104961,5,0,0:0:0:0:
352,208,105161,5,0,0:0:0:0:
344,200,105361,6,0,L|328:184,7,20
256,224,105961,2,0,B|184:280|184:280,1,80
96,184,106361,2,0,B|168:128|168:128,1,80
256,72,106761,1,0,0:0:0:0:
258,74,106861,1,0,0:0:0:0:
258,74,106961,1,0,0:0:0:0:
152,120,107161,2,0,B|184:136|169:155|204:178,1,80
320,192,107561,2,0,L|320:240,2,40
248,128,107961,5,0,0:0:0:0:
320,56,108161,1,0,0:0:0:0:
392,128,108361,1,0,0:0:0:0:
320,192,108561,2,0,B|320:200|320:200|328:216|328:216|312:216|312:216|328:240|328:240|312:240|312:240|328:264|328:264|312:264|312:264|320:280|320:280|320:296,1,160
376,256,109161,2,0,P|320:152|272:264,1,280
320,288,109961,2,0,L|320:208,3,80
112,232,110961,6,0,L|160:232,1,40
304,160,111361,6,0,L|304:112,1,40
352,64,111661,6,0,L|352:112,1,40
400,160,111961,6,0,L|400:112,1,40
256,192,112561,12,0,114961,0:0:0:0:
256,192,122161,12,0,124961,0:0:0:0:
104,80,125361,5,0,0:0:0:0:
192,128,125561,2,0,L|192:296,1,160
288,336,126161,1,0,0:0:0:0:
288,240,126361,1,0,0:0:0:0:
376,288,126561,1,0,0:0:0:0:
376,184,126761,2,0,L|376:88,1,80
240,96,127361,1,0,0:0:0:0:
240,96,127461,2,0,L|240:48,3,40
120,168,127961,6,0,B|152:216|152:216|192:160,1,120
288,216,128561,5,0,0:0:0:0:
320,200,128661,1,0,0:0:0:0:
352,176,128761,1,0,0:0:0:0:
376,144,128861,1,0,0:0:0:0:
392,112,128961,2,0,L|400:72,2,40
264,64,129361,2,0,B|216:64|176:72|128:96,2,120
208,184,130161,1,0,0:0:0:0:
144,296,130361,1,0,0:0:0:0:
256,352,130561,2,0,B|296:320|328:264|336:200,2,160
208,264,131561,5,0,0:0:0:0:
296,224,131761,2,0,L|296:144,1,80
344,56,132361,1,0,0:0:0:0:
232,56,132561,1,0,0:0:0:0:
232,56,132661,1,0,0:0:0:0:
120,104,132961,1,0,0:0:0:0:
120,104,133161,1,0,0:0:0:0:
200,192,133361,2,0,L|200:272,1,80
312,216,133961,1,0,0:0:0:0:
424,216,134161,1,0,0:0:0:0:
424,216,134261,1,0,0:0:0:0:
384,112,134561,6,0,L|384:80,2,20
288,152,134961,1,0,0:0:0:0:
184,96,135161,1,0,0:0:0:0:
184,96,135261,1,0,0:0:0:0:
184,216,135461,1,0,0:0:0:0:
184,216,135561,1,0,0:0:0:0:
256,192,135761,12,0,138161,0:0:0:0:
112,192,138961,6,0,L|112:112,1,70.000000667572
176,192,139361,2,0,L|176:272,1,70.000000667572
264,264,139761,1,0,0:0:0:0:
264,96,139961,1,0,0:0:0:0:
264,208,140161,1,0,0:0:0:0:
264,152,140361,1,0,0:0:0:0:
376,184,140561,5,0,0:0:0:0:
376,176,140961,5,0,0:0:0:0:
376,168,141361,5,0,0:0:0:0:
376,160,141761,5,0,0:0:0:0:
210,205,142161,6,0,L|256:152,1,70.000000667572
272,240,142561,2,0,L|216:312,1,70.000000667572
320,336,142961,1,0,0:0:0:0:
328,320,143061,1,0,0:0:0:0:
336,304,143161,1,0,0:0:0:0:
344,288,143261,2,0,B|328:320|280:336|224:304,1,105.000001001358
112,304,143761,5,0,0:0:0:0:
112,304,143961,1,0,0:0:0:0:
112,248,144161,5,0,0:0:0:0:
112,248,144361,1,0,0:0:0:0:
112,192,144561,5,0,0:0:0:0:
112,192,144761,2,0,L|56:192,2,35.000000333786
112,136,145161,5,0,0:0:0:0:
208,96,145361,5,0,0:0:0:0:
208,96,145461,1,0,0:0:0:0:
208,96,145561,1,0,0:0:0:0:
208,96,145661,1,0,0:0:0:0:
208,96,145761,2,0,L|184:168,1,70.000000667572
256,256,146161,2,0,B|272:200|272:160|256:104,1,140.000001335144
344,192,146961,5,0,0:0:0:0:
152,192,147361,5,0,0:0:0:0:
392,192,147761,5,0,0:0:0:0:
112,192,148161,5,0,0:0:0:0:
256,40,152161,5,0,0:0:0:0:
256,344,152961,1,0,0:0:0:0:
256,192,153361,2,0,L|256:128,4,60.0000022888184
296,160,153861,2,0,L|296:80,5,60.0000022888184
336,72,154561,2,0,L|384:56,1,30.0000011444092
336,72,154761,2,0,L|312:32,1,30.0000011444092
328,72,154961,6,0,B|312:112|312:184|336:232,1,160
400,224,155561,1,0,0:0:0:0:
336,224,155761,2,0,B|288:248|232:248|176:224,1,160
184,168,156361,1,0,0:0:0:0:
216,120,156561,2,0,L|136:72,1,80
136,160,156961,2,0,L|48:144,1,80
32,240,157361,1,0,0:0:0:0:
96,312,157561,1,0,0:0:0:0:
192,312,157761,1,0,0:0:0:0:
280,232,157961,5,0,0:0:0:0:
312,232,158061,1,0,0:0:0:0:
344,232,158161,1,0,0:0:0:0:
392,320,158361,2,0,L|440:240,1,80
448,160,158761,1,0,0:0:0:0:
416,160,158861,1,0,0:0:0:0:
384,160,158961,1,0,0:0:0:0:
384,48,159161,2,0,L|328:112,1,80
240,144,159561,5,0,0:0:0:0:
192,136,159761,1,0,0:0:0:0:
104,208,159961,5,0,0:0:0:0:
104,256,160161,1,0,0:0:0:0:
224,304,160361,5,0,0:0:0:0:
256,272,160561,2,0,L|272:256,8,20
272,176,161161,6,0,L|176:176,1,80
256,64,161561,1,0,0:0:0:0:
360,128,161761,1,0,0:0:0:0:
416,232,161961,1,0,0:0:0:0:
408,224,162061,1,0,0:0:0:0:
400,216,162161,1,0,0:0:0:0:
392,208,162261,1,0,0:0:0:0:
384,200,162361,2,0,B|360:160|360:160|360:120,2,80
456,56,162961,2,0,L|456:152,1,80
304,152,163361,1,0,0:0:0:0:
304,152,163561,1,0,0:0:0:0:
304,56,163761,1,0,0:0:0:0:
216,208,163961,1,8,0:0:0:0:
392,208,164161,1,8,0:0:0:0:
400,64,164361,5,0,0:0:0:0:
400,96,164461,1,0,0:0:0:0:
400,128,164561,1,0,0:0:0:0:
264,88,165161,5,0,0:0:0:0:
264,136,165261,1,0,0:0:0:0:
264,176,165361,1,0,0:0:0:0:
56,56,165961,6,0,L|56:144,1,80
176,96,166361,6,0,L|176:216,1,120.000004577637
296,128,166761,6,0,L|296:304,2,150.000005722046
152,232,167561,38,0,L|152:176,1,40
120,192,167761,6,0,B|80:192|80:192|40:224|80:256|80:256|128:256,1,160
152,232,168361,38,0,L|152:176,1,40
184,192,168561,6,0,B|224:192|224:192|264:224|224:256|224:256|176:256,1,160
264,344,169161,5,0,0:0:0:0:
296,328,169261,1,0,0:0:0:0:
328,312,169361,1,0,0:0:0:0:
328,312,169561,1,0,0:0:0:0:
376,192,169761,1,0,0:0:0:0:
320,64,169961,1,0,0:0:0:0:
336,64,170161,1,0,0:0:0:0:
288,192,170361,1,0,0:0:0:0:
328,312,170561,1,0,0:0:0:0:
136,288,170761,6,0,L|136:336,2,40
72,136,171161,1,0,0:0:0:0:
200,136,171361,1,0,0:0:0:0:
312,280,171561,6,0,L|360:280,2,40
136,344,171961,1,0,0:0:0:0:
136,216,172161,1,0,0:0:0:0:
136,344,172361,1,0,0:0:0:0:
96,224,172561,2,0,L|96:144|96:144,1,80
176,280,172961,2,0,L|176:192|176:192,1,80
312,320,173361,5,0,0:0:0:0:
392,192,173561,1,8,0:0:0:0:
312,48,173761,1,8,0:0:0:0:
144,144,173961,6,0,L|144:272,1,120.000004577637
144,144,174361,1,0,0:0:0:0:
144,264,174561,1,0,0:0:0:0:
216,328,174761,2,0,P|232:288|216:208,1,120.000004577637
80,64,175161,2,0,B|45:91|45:169|87:206,1,120.000004577637
264,160,175561,5,0,0:0:0:0:
272,168,175661,1,0,0:0:0:0:
278,176,175761,1,0,0:0:0:0:
353,279,175961,5,0,0:0:0:0:
353,152,176161,5,0,0:0:0:0:
278,255,176361,5,0,0:0:0:0:
400,216,176561,5,0,0:0:0:0:
184,264,176761,5,8,0:0:0:0:
184,264,176961,1,8,0:0:0:0:
88,208,177161,6,0,L|72:136,1,60.0000022888184
88,208,177361,2,0,B|136:152|216:112|304:112,1,240.000009155274
424,176,177961,2,0,L|440:248,1,60.0000022888184
424,176,178161,2,0,B|376:232|296:272|208:272,1,240.000009155274
328,288,179161,6,0,B|312:248|280:208|254:189,2,120.000004577637
162,265,179761,1,0,0:0:0:0:
182,98,179961,1,0,0:0:0:0:
349,118,180161,1,0,0:0:0:0:
329,285,180361,1,0,0:0:0:0:
256,192,180561,12,0,182961,0:0:0:0:
