osu file format v12

[General]
AudioFilename: Hatsune Miku Kusare Gedou to Chocolate (Vostfr + Romaji).mp3
AudioLeadIn: 0
PreviewTime: 49097
Countdown: 0
SampleSet: Normal
StackLeniency: 0.7
Mode: 0
LetterboxInBreaks: 1
EpilepsyWarning: 1
WidescreenStoryboard: 0

[Editor]
Bookmarks: 4786,12158,18601,34244,49097,63817,71240,86003,100747,114640,130269,146947,161702
DistanceSpacing: 1.1
BeatDivisor: 2
GridSize: 4

[Metadata]
Title:Kusaregedou to Chocolate
TitleUnicode:腐れ外道とチョコレゐト
Artist:PinocchioP
ArtistUnicode:ピノキオP
Creator:Kenterz9
Version:Normal
Source:
Tags:初音ミク hatsune miku vocaloid sumaru100 naryuga
BeatmapID:333984
BeatmapSetID:79454

[Difficulty]
HPDrainRate:4
CircleSize:3
OverallDifficulty:4
ApproachRate:5
SliderMultiplier:0.80000000596046
SliderTickRate:1

[Events]
//Background and Video events
0,0,"BG.jpg",0,0
//Break Periods
2,19759,25743
2,34528,40513
2,64066,70051
2,100790,114359
2,130528,136513
//Storyboard Layer 0 (Background)
//Storyboard Layer 1 (Fail)
//Storyboard Layer 2 (Pass)
//Storyboard Layer 3 (Foreground)
//Storyboard Sound Samples
//Background Colour Transformations
3,100,163,162,255

[TimingPoints]
4790,230.769230769231,4,2,1,100,1,0
4790,-100,4,1,1,100,0,0
11251,-100,4,1,1,80,0,0
12174,-100,4,1,1,90,0,0
12866,-100,4,1,2,90,0,0
12924,-100,4,1,1,90,0,0
14251,-100,4,1,2,90,0,0
14309,-100,4,1,1,90,0,0
16559,-100,4,1,2,90,0,0
16790,-100,4,1,3,90,0,0
16847,-100,4,1,1,90,0,0
17943,-100,4,1,2,90,0,0
18174,-100,4,1,3,90,0,0
18290,-100,4,1,1,90,0,0
18636,-100,4,1,1,40,0,0
18693,-100,4,1,1,90,0,0
27174,-100,4,1,2,90,0,0
27232,-100,4,1,1,90,0,0
29482,-100,4,1,2,90,0,0
29540,-100,4,1,1,90,0,0
29713,-100,4,1,1,70,0,0
30636,-100,4,1,1,90,0,0
30866,-100,4,1,2,90,0,0
30924,-100,4,1,1,90,0,0
31097,-100,4,1,3,90,0,0
31155,-100,4,1,1,90,0,0
31790,-100,4,1,2,90,0,0
31847,-100,4,1,1,90,0,0
32020,-100,4,1,3,90,0,0
32078,-100,4,1,1,90,0,0
32713,-100,4,1,2,90,0,0
32943,-100,4,1,3,90,0,0
33001,-100,4,1,1,90,0,0
41943,-100,4,1,2,90,0,0
42001,-100,4,1,1,90,0,0
42866,-100,4,1,2,90,0,0
42924,-100,4,1,1,90,0,0
45636,-100,4,1,2,90,0,0
45693,-100,4,1,1,90,0,0
45866,-100,4,1,3,90,0,0
45924,-100,4,1,1,90,0,0
49097,-100,4,1,1,100,0,1
49790,-100,4,1,2,100,0,1
50020,-100,4,1,3,100,0,1
50078,-100,4,1,1,100,0,1
51636,-100,4,1,2,100,0,1
51866,-100,4,1,3,100,0,1
51924,-100,4,1,1,100,0,1
53020,-100,4,1,2,100,0,1
53136,-100,4,1,1,100,0,1
54866,-100,4,1,2,100,0,1
54924,-100,4,1,1,100,0,1
56424,-100,4,1,1,100,0,0
56482,-100,4,1,1,100,0,1
56713,-100,4,1,2,100,0,1
56943,-100,4,1,3,100,0,1
57001,-100,4,1,1,100,0,1
57866,-100,4,1,2,100,0,1
57924,-100,4,1,1,100,0,1
58559,-100,4,1,2,100,0,1
59078,-100,4,1,1,100,0,1
60405,-100,4,1,2,100,0,1
60636,-100,4,1,3,100,0,1
60693,-100,4,1,1,100,0,1
62943,-100,4,1,1,100,0,0
63405,-100,4,1,1,70,0,0
63866,-100,4,1,1,80,0,0
71251,-100,4,1,1,90,0,0
71943,-100,4,1,2,90,0,0
72174,-100,4,1,3,90,0,0
72232,-100,4,1,1,90,0,0
73328,-100,4,1,2,90,0,0
73559,-100,4,1,3,90,0,0
73790,-100,4,1,1,90,0,0
74020,-100,4,1,1,80,0,0
74943,-100,4,1,1,90,0,0
76097,-100,4,1,2,90,0,0
76155,-100,4,1,1,90,0,0
76790,-100,4,1,1,80,0,0
77020,-100,4,1,1,65,0,0
77713,-100,4,1,1,80,0,0
78866,-100,4,1,2,80,0,0
79097,-100,4,1,3,80,0,0
79155,-100,4,1,1,80,0,0
80713,-100,4,1,2,80,0,0
80770,-100,4,1,1,80,0,0
82559,-100,4,1,2,80,0,0
82790,-100,4,1,3,80,0,0
82847,-100,4,1,1,80,0,0
85559,-100,4,1,1,70,0,0
86020,-100,4,1,1,100,0,1
87174,-100,4,1,2,100,0,1
87405,-100,4,1,3,100,0,1
87463,-100,4,1,1,100,0,1
88097,-100,4,1,2,100,0,1
88155,-100,4,1,1,100,0,1
89943,-100,4,1,2,100,0,1
90174,-100,4,1,3,100,0,1
90232,-100,4,1,1,100,0,1
93347,-100,4,1,1,100,0,0
93405,-100,4,1,1,100,0,1
94559,-100,4,1,2,100,0,1
94790,-100,4,1,3,100,0,1
94905,-100,4,1,1,100,0,1
99866,-100,4,1,1,100,0,0
115559,-100,4,1,1,100,0,1
116713,-100,4,1,2,100,0,1
116770,-100,4,1,1,100,0,1
118501,-100,4,1,2,100,0,1
118790,-100,4,1,3,100,0,1
118847,-100,4,1,1,100,0,1
119482,-100,4,1,2,100,0,1
119713,-100,4,1,3,100,0,1
119770,-100,4,1,1,100,0,1
120405,-100,4,1,2,100,0,1
120463,-100,4,1,1,100,0,1
122251,-100,4,1,2,100,0,1
122770,-100,4,1,1,100,0,1
122886,-100,4,1,1,100,0,0
122943,-100,4,1,1,100,0,1
124097,-100,4,1,2,100,0,1
124155,-100,4,1,1,100,0,1
125482,-100,4,1,2,100,0,1
125540,-100,4,1,1,100,0,1
126866,-100,4,1,2,100,0,1
127097,-100,4,1,3,100,0,1
127328,-100,4,1,2,100,0,1
127559,-100,4,1,3,100,0,1
127674,-100,4,1,1,100,0,1
128482,-100,4,1,1,90,0,0
128943,-100,4,1,1,80,0,0
129405,-100,4,1,1,70,0,0
129866,-100,4,1,1,60,0,0
130328,-100,4,1,1,70,0,0
137713,-100,4,1,0,70,0,0
146943,-100,4,1,1,100,0,1
148097,-100,4,1,2,100,0,1
148328,-100,4,1,3,100,0,1
148386,-100,4,1,1,100,0,1
149943,-100,4,1,2,100,0,1
150001,-100,4,1,1,100,0,1
151790,-100,4,1,2,100,0,1
152020,-100,4,1,3,100,0,1
152078,-100,4,1,1,100,0,1
154270,-100,4,1,1,100,0,0
154328,-100,4,1,1,100,0,1
155482,-100,4,1,2,100,0,1
155713,-100,4,1,3,100,0,1
155770,-100,4,1,1,100,0,1
157328,-100,4,1,2,100,0,1
157386,-100,4,1,1,100,0,1
159174,-100,4,1,2,100,0,1
159232,-100,4,1,1,100,0,1
160559,-100,4,1,2,100,0,1
160790,-100,4,1,1,100,0,0
161713,-100,4,1,1,100,0,1
164713,-100,4,1,2,100,0,1
164770,-100,4,1,1,100,0,1
166155,-100,4,1,3,100,0,1
166386,-100,4,1,1,100,0,1
167251,-100,4,1,1,100,0,0
170020,-100,4,1,1,30,0,0
170943,-100,4,1,1,100,0,1
171001,-100,4,1,1,100,0,0
171636,-100,4,1,2,100,0,0
171866,-100,4,1,3,100,0,0
171924,-100,4,1,1,100,0,0
175328,-100,4,1,2,100,0,0
175559,-100,4,1,3,100,0,0
175616,-100,4,1,1,100,0,0
176713,-100,4,1,2,100,0,0
176943,-100,4,1,3,100,0,0
177001,-100,4,1,1,100,0,0
179020,-100,4,1,2,100,0,0
179251,-100,4,1,3,100,0,0
179309,-100,4,1,1,100,0,0
180405,-100,4,1,2,100,0,0
180463,-100,4,1,1,100,0,0
183405,-100,4,1,3,100,0,0
183636,-100,4,1,2,100,0,0
183693,-100,4,1,1,100,0,0

[Colours]
Combo1 : 128,64,0
Combo2 : 255,128,255
Combo3 : 222,173,99
Combo4 : 170,0,170

[HitObjects]
96,88,4789,2,0,P|80:128|104:208,2,120.000000894069,4|0|8,0:2|0:0|0:0,0:0:0:0:
164,144,5713,2,0,B|188:152|220:140|236:120|236:120|252:140|280:152|320:144,1,160.000001192092,0|0,0:0|0:0,0:0:0:0:
384,100,6405,1,8,0:0:0:0:
384,188,6636,6,0,B|376:240|376:240|396:256|400:276|400:276|400:296|392:312,2,120.000000894069,4|0|8,0:2|0:0|0:0,0:0:0:0:
384,100,7559,2,0,B|340:72|340:72|328:100|312:112|292:116|268:112|252:96|244:80|244:80|208:88|208:88|184:88|164:80|164:80,1,240.000001788138,0|8,0:0|0:0,0:0:0:0:
164,172,8482,6,0,P|97:120|92:80,2,120.000000894069,4|0|8,0:2|0:0|0:0,0:0:0:0:
252,188,9405,2,0,B|252:240|240:268|240:268|192:280,1,120.000000894069
80,324,10097,1,8,0:0:0:0:
28,252,10328,6,0,B|16:208|16:208|24:180|24:180|8:132,2,120.000000894069,4|0|8,0:2|0:0|0:0,0:0:0:0:
116,244,11251,2,0,P|168:232|200:160,1,120.000000894069,2|2,0:0|0:0,0:0:0:0:
144,60,11943,1,10,0:0:0:0:
224,24,12174,6,0,L|316:40,1,80.000000596046,4|8,0:2|0:0,0:0:0:0:
380,84,12636,2,0,B|364:116|364:136|380:160|380:160|360:192|360:192|376:216|376:244,1,160.000001192092,0|0,0:0|0:0,0:0:0:0:
288,244,13328,2,0,P|308:292|332:308,2,80.000000596046,8|0|8,0:0|0:0|0:0,0:0:0:0:
276,156,14020,6,0,B|248:152|220:160|200:184|200:184|176:180|144:184|120:204|120:204|120:204,1,160.000001192092,4|0,0:2|0:0,0:0:0:0:
37,186,14713,2,0,P|50:149|77:119,1,80.000000596046,8|4,0:0|0:2,0:0:0:0:
256,76,15405,1,4,0:2:0:0:
435,119,15866,6,0,P|461:149|475:188,1,80.000000596046,4|8,0:2|0:2,0:0:0:0:
396,232,16328,2,0,P|380:180|308:152,2,120.000000894069,0|0|8,0:0|0:0|0:0,0:0:0:0:
336,296,17251,2,0,L|244:284,1,80.000000596046,0|8,0:0|0:0,0:0:0:0:
168,272,17713,6,0,B|176:252|176:228|160:216|140:204|140:204|160:156|160:156|132:144|116:124|108:100|104:80|112:60|124:48|124:48,1,240.000001788138,4|8,0:2|0:0,0:0:0:0:
200,80,18636,6,0,B|208:84|236:92|260:88|280:76|280:76|284:96|296:116|312:124|348:128,2,160.000001192092,2|2|6,0:0|0:0|0:2,0:0:0:0:
120,52,26943,54,0,B|112:104|112:104|144:112|160:132|172:152|180:176|172:208|168:220,1,160.000001192092,4|0,0:2|0:0,0:0:0:0:
84,188,27636,1,8,0:0:0:0:
128,264,27866,2,0,P|168:276|224:256,1,80.000000596046,0|8,0:0|0:0,0:0:0:0:
264,200,28328,2,0,P|268:156|248:112,1,80.000000596046,0|8,0:0|0:0,0:0:0:0:
308,52,28790,5,4,0:2:0:0:
132,68,29251,2,0,P|88:88|84:188,1,160.000001192092
164,228,29943,2,0,L|256:232,2,80.000000596046,8|2|8,0:0|0:0|0:0,0:0:0:0:
88,268,30636,6,0,B|96:304|128:320|128:320|168:316|168:316|188:340|228:340|248:312|248:312|288:312,1,240.000001788138,4|8,0:2|0:0,0:0:0:0:
360,272,31559,2,0,B|352:232|352:232|372:200|368:172|368:172|348:156|340:116|352:80|404:64,1,240.000001788138,0|8,0:0|0:0,0:0:0:0:
332,8,32482,6,0,P|292:44|268:112,2,120.000000894069,4|0|8,0:2|0:0|0:0,0:0:0:0:
401,65,33405,2,0,B|420:99|420:119|412:135|412:135|392:148|380:167|384:191|392:204|400:216|400:216|408:232|408:232|408:232|408:232|389:233|389:233|369:237|345:249|325:289|357:333|385:341,1,320.000002384184,4|0,0:2|0:0,0:0:0:0:
356,264,41713,6,0,P|376:220|304:120,1,160.000001192092,4|0,0:2|0:0,0:0:0:0:
240,132,42405,1,8,0:0:0:0:
152,116,42636,2,0,B|144:140|148:168|164:188|164:188|148:200|128:220|116:244|124:276|124:276,1,160.000001192092,0|0,0:0|0:0,0:0:0:0:
176,328,43328,1,8,0:0:0:0:
260,300,43559,6,0,L|252:192,1,80.000000596046,4|8,0:2|0:0,0:0:0:0:
240,132,44020,2,0,P|288:136|328:168,1,80.000000596046,0|8,0:0|0:0,0:0:0:0:
348,236,44482,2,0,L|448:244,2,80.000000596046,0|8|0,0:0|0:0|0:0,0:0:0:0:
344,324,45174,1,8,0:0:0:0:
260,300,45405,6,0,B|220:312|220:312|196:280|148:276|112:312|112:312|68:292|68:256,1,240.000001788138,4|8,0:2|0:0,0:0:0:0:
104,176,46328,2,0,P|112:128|88:84,2,80.000000596046,0|8|0,0:0|0:0|0:0,0:0:0:0:
24,144,47020,1,8,0:0:0:0:
256,192,47251,12,4,48636,0:2:0:0:
124,240,49097,22,0,P|156:216|216:220,1,80.000000596046,4|8,0:2|0:0,0:0:0:0:
252,280,49559,2,0,P|280:308|376:296,2,120.000000894069,0|0|8,0:0|0:0|0:0,0:0:0:0:
324,228,50482,2,0,L|328:128,1,80.000000596046,0|8,0:0|0:0,0:0:0:0:
280,72,50943,6,0,P|244:56|192:68,1,80.000000596046,4|8,0:2|0:0,0:0:0:0:
132,112,51405,2,0,B|160:144|192:152|232:140|232:140|240:196,1,160.000001192092
160,228,52097,1,8,0:0:0:0:
236,272,52328,2,0,P|280:264|308:232,1,80.000000596046,0|8,0:0|0:0,0:0:0:0:
324,152,52790,6,0,L|480:184,1,160.000001192092,4|0,0:2|0:0,0:0:0:0:
436,260,53482,1,8,0:0:0:0:
472,340,53713,2,0,P|428:348|388:332,1,80.000000596046,0|8,0:0|0:0,0:0:0:0:
320,288,54174,2,0,P|280:276|244:284,1,80.000000596046,0|8,0:0|0:0,0:0:0:0:
252,368,54636,6,0,B|216:372|184:348|184:348|160:364|128:352|128:352|100:348|72:360,1,160.000001192092,4|0,0:2|0:0,0:0:0:0:
68,272,55328,2,0,L|80:176,1,80.000000596046,8|0,0:0|0:0,0:0:0:0:
104,108,55790,2,0,P|144:124|168:160,1,80.000000596046,8|0,0:0|0:0,0:0:0:0:
160,240,56251,1,8,0:0:0:0:
240,208,56482,6,0,B|320:224|320:224|368:200,2,120.000000894069,4|0|8,0:2|0:0|0:0,0:0:0:0:
160,240,57405,2,0,P|152:292|176:340,2,80.000000596046,0|8|0,0:0|0:0|0:0,0:0:0:0:
300,136,58328,6,0,B|252:124|252:124|256:104|248:80|232:64|208:56|180:64,2,160.000001192092,4|0|2,0:2|0:0|0:0,0:0:0:0:
196,276,59713,2,0,L|284:292,1,80.000000596046,2|8,0:0|0:0,0:0:0:0:
360,272,60174,6,0,P|352:316|416:376,2,120.000000894069,4|0|8,0:2|0:0|0:0,0:0:0:0:
400,192,61097,2,0,L|488:188,2,80.000000596046,0|8|0,0:0|0:0|0:0,0:0:0:0:
328,140,61790,1,8,0:0:0:0:
252,184,62020,6,0,B|240:164|240:144|240:144|216:140|188:120|176:100|180:72,2,120.000000894069,4|8|8,0:2|0:0|0:0,0:0:0:0:
332,224,62943,1,2,0:0:0:0:
256,64,63405,1,0,0:0:0:0:
160,212,63866,1,6,0:2:0:0:
128,96,71251,6,0,L|120:184,1,80.000000596046,4|8,0:2|0:0,0:0:0:0:
44,216,71713,2,0,P|80:256|168:244,2,120.000000894069,0|0|8,0:0|0:0|0:0,0:0:0:0:
44,128,72636,1,2,0:0:0:0:
212,84,73097,6,0,B|248:92|248:92|288:80|288:80|340:92,2,120.000000894069,4|0|0,0:2|0:0|0:0,0:0:0:0:
144,28,74020,2,0,P|120:88|180:164,1,160.000001192092,2|10,0:0|0:0,0:0:0:0:
344,180,74943,6,0,L|248:192,1,80.000000596046,4|8,0:2|0:0,0:0:0:0:
200,252,75405,2,0,P|240:276|296:268,1,80.000000596046,0|8,0:0|0:0,0:0:0:0:
360,276,75866,2,0,B|372:324|372:324|396:340|420:344|444:336|464:316|472:292|472:276,1,160.000001192092,0|0,0:0|0:0,0:0:0:0:
452,212,76559,6,0,P|440:168|456:116,1,80.000000596046,8|2,0:0|0:0,0:0:0:0:
256,112,77251,1,2,0:2:0:0:
65,134,77713,2,0,P|71:174|59:212,1,80.000000596046,8|2,0:0|0:0,0:0:0:0:
4,280,78174,2,0,P|52:300|104:288,1,80.000000596046,8|0,0:0|0:0,0:0:0:0:
148,244,78636,6,0,P|176:178|244:168,2,120.000000894069,4|0|8,0:2|0:0|0:2,0:0:0:0:
236,248,79559,2,0,P|272:280|320:280,1,80.000000596046,0|8,0:0|0:0,0:0:0:0:
380,244,80020,1,0,0:0:0:0:
412,72,80482,6,0,B|366:83|366:83|354:116|314:136|270:128|248:104,1,160.000001192092,4|0,0:2|0:0,0:0:0:0:
292,32,81174,1,8,0:0:0:0:
208,60,81405,2,0,P|188:104|192:148,1,80.000000596046,0|8,0:0|0:0,0:0:0:0:
248,200,81866,2,0,P|188:224|144:208,1,80.000000596046,0|8,0:0|0:0,0:0:0:0:
108,164,82328,6,0,L|72:312,2,120.000000894069,4|0|8,0:2|0:0|0:0,0:0:0:0:
160,96,83251,2,0,P|120:80|60:96,2,80.000000596046,0|8|0,0:0|0:0|0:0,0:0:0:0:
256,192,84174,12,4,85559,0:2:0:0:
348,128,86020,22,0,P|380:128|432:168,1,80.000000596046,4|8,0:2|0:0,0:0:0:0:
400,236,86482,2,0,L|300:240,1,80.000000596046,0|8,0:0|0:0,0:0:0:0:
240,204,86943,2,0,P|232:256|292:324,2,120.000000894069
156,184,87866,6,0,B|128:184|100:160|100:140|100:140|76:140|52:112|52:80,1,160.000001192092,4|0,0:2|0:0,0:0:0:0:
120,24,88559,1,8,0:0:0:0:
196,64,88790,2,0,L|292:72,1,80.000000596046,0|8,0:0|0:0,0:0:0:0:
360,40,89251,2,0,P|368:80|344:128,1,80.000000596046,0|8,0:0|0:0,0:0:0:0:
288,172,89713,6,0,P|272:216|328:296,2,120.000000894069,4|0|8,0:2|0:0|0:0,0:0:0:0:
356,116,90636,2,0,L|448:128,2,80.000000596046,0|8|0,0:0|0:0|0:0,0:0:0:0:
276,84,91328,1,0,0:0:0:0:
204,36,91559,6,0,P|188:84|204:132,1,80.000000596046,4|8,0:2|0:0,0:0:0:0:
264,172,92020,2,0,P|278:218|264:260,1,80.000000596046,0|8,0:0|0:0,0:0:0:0:
204,304,92482,2,0,L|104:288,2,80.000000596046,0|8|0,0:0|0:0|0:0,0:0:0:0:
380,296,93405,6,0,P|396:244|384:192,1,80.000000596046,4|8,0:2|0:0,0:0:0:0:
336,152,93866,2,0,L|244:164,1,80.000000596046,0|8,0:0|0:0,0:0:0:0:
208,236,94328,2,0,P|172:184|184:112,2,120.000000894069
288,272,95251,6,0,P|316:252|376:256,1,80.000000596046,0|8,0:0|0:0,0:0:0:0:
432,300,95713,2,0,P|448:256|420:196,1,80.000000596046,0|8,0:0|0:0,0:0:0:0:
376,164,96174,1,2,0:0:0:0:
224,76,96636,1,0,0:0:0:0:
160,240,97097,6,0,P|148:280|168:336,2,80.000000596046,4|8|0,0:2|0:0|0:0,0:0:0:0:
240,200,97790,1,8,0:0:0:0:
236,288,98020,2,0,L|328:292,1,80.000000596046,0|8,0:0|0:0,0:0:0:0:
400,268,98482,2,0,P|408:220|376:172,1,80.000000596046,0|8,0:0|0:0,0:0:0:0:
364,112,98943,6,0,B|312:120|312:120|292:100|268:88|240:88|220:100,2,120.000000894069,2|2|2,0:0|0:0|0:0,0:0:0:0:
452,120,99866,1,2,0:0:0:0:
80,116,115559,6,0,L|72:216,1,80.000000596046,4|8,0:2|0:0,0:0:0:0:
108,276,116020,2,0,P|148:292|196:276,1,80.000000596046,0|8,0:0|0:0,0:0:0:0:
244,220,116482,2,0,B|256:204|252:180|236:164|236:164|260:148|260:116|244:96|244:96|244:72|244:72,1,160.000001192092,0|0,0:0|0:0,0:0:0:0:
320,32,117174,1,8,0:0:0:0:
392,84,117405,22,0,P|376:120|392:180,1,80.000000596046,0|8,0:0|0:0,0:0:0:0:
384,248,117866,1,0,0:0:0:0:
304,284,118097,1,8,0:0:0:0:
244,220,118328,2,0,L|228:68,2,120.000000894069
304,284,119251,22,0,P|344:300|372:388,2,120.000000894069,4|0|0,0:2|0:0|0:0,0:0:0:0:
216,303,120174,2,0,P|140:292|109:222,1,160.000001192092
196,224,120866,1,8,0:0:0:0:
152,148,121097,22,0,P|192:136|240:144,2,80.000000596046,0|8|0,0:0|0:0|0:0,0:0:0:0:
110,223,121790,1,0,0:0:0:0:
28,256,122020,2,0,B|20:204|20:204|32:184|36:156|20:132|20:132|24:96|32:80|40:72,2,160.000001192092,4|0|4,0:2|0:0|0:2,0:2:0:0:
96,312,123174,21,8,0:0:0:0:
176,276,123405,2,0,L|180:216,2,40.000000298023,0|0|8,0:0|0:0|0:0,0:0:0:0:
256,316,123866,2,0,L|272:144,1,160.000001192092
328,92,124559,1,8,0:0:0:0:
412,124,124790,22,0,P|368:172|332:176,1,80.000000596046,0|8,0:0|0:0,0:0:0:0:
328,92,125251,2,0,P|289:68|228:72,1,80.000000596046
188,120,125713,2,0,L|176:216,1,80.000000596046,0|8,0:0|0:0,0:0:0:0:
112,260,126174,2,0,P|152:288|204:280,1,80.000000596046,0|8,0:0|0:0,0:0:0:0:
266,296,126636,22,0,B|289:315|313:327|349:323|373:303|385:287|389:259|389:259|385:239|373:219|345:211|329:211|317:211|317:211|305:203|289:179|281:147|281:119|305:91|328:92,1,400.000002384184,4|8,0:2|0:0,0:0:0:0:
408,128,128020,2,0,P|416:84|400:40,1,80.000000596046,0|8,0:0|0:0,0:0:0:0:
256,192,128482,12,6,130328,0:2:0:0:
108,192,137713,54,0,L|88:88,2,80.000000596046,4|0|8,0:2|0:0|0:0,0:0:0:0:
172,252,138405,2,0,P|136:276|76:268,2,80.000000596046
200,168,139097,1,8,0:0:0:0:
340,64,139559,6,0,L|332:168,1,80.000000596046,4|0,0:2|0:0,0:0:0:0:
416,172,140020,1,8,0:0:0:0:
348,228,140251,1,0,0:0:0:0:
264,196,140482,2,0,P|264:268|348:320,1,160.000001192092,0|8,0:0|0:0,0:0:0:0:
416,172,141405,6,0,L|426:66,2,80.000000596046,4|0|8,0:2|0:0|0:0,0:0:0:0:
348,228,142097,1,0,0:0:0:0:
264,196,142328,2,0,P|216:200|164:164,2,80.000000596046,0|0|8,0:0|0:0|0:0,0:0:0:0:
256,192,143251,12,4,145097,0:2:0:0:
132,76,146943,22,0,L|120:168,1,80.000000596046,4|8,0:2|0:0,0:0:0:0:
48,204,147405,2,0,P|84:240|140:236,1,80.000000596046,0|8,0:0|0:0,0:0:0:0:
192,208,147866,2,0,B|232:200|232:200|272:216|272:216|336:204,2,120.000000894069,0|0|8,0:0|0:0|0:0,0:0:0:0:
212,120,148790,6,0,L|220:40,1,80.000000596046,4|8,0:2|0:0,0:0:0:0:
308,48,149251,2,0,P|356:44|404:76,1,80.000000596046,0|8,0:0|0:0,0:0:0:0:
432,132,149713,2,0,P|408:172|436:264,1,120.000000894069
328,340,150405,1,8,0:0:0:0:
284,264,150636,6,0,P|252:296|244:336,1,80.000000596046,4|8,0:2|0:0,0:0:0:0:
164,292,151097,2,0,L|148:200,1,80.000000596046,0|8,0:0|0:0,0:0:0:0:
108,136,151559,2,0,L|228:124,2,120.000000894069,0|0|8,0:0|0:0|0:0,0:0:0:0:
151,214,152482,6,0,L|248:204,1,80.000000596046,4|8,0:2|0:0,0:0:0:0:
308,164,152943,2,0,P|320:200|304:256,1,80.000000596046,0|8,0:0|0:0,0:0:0:0:
240,288,153405,2,0,P|272:320|316:328,2,80.000000596046,0|8|4,0:0|0:0|0:2,0:0:0:0:
92,196,154328,6,0,P|92:156|132:112,1,80.000000596046,4|8,0:2|0:0,0:0:0:0:
192,84,154790,2,0,L|204:28,2,40.000000298023,0|0|8,0:0|0:0|0:0,0:0:0:0:
272,120,155251,2,0,B|320:136|320:136|336:112|364:100|396:104|408:112,2,120.000000894069,0|0|8,0:0|0:0|0:0,0:0:0:0:
264,208,156174,6,0,P|280:244|272:304,2,80.000000596046,4|8|0,0:2|0:0|0:0,0:0:0:0:
196,264,156866,1,8,0:0:0:0:
140,332,157097,2,0,B|108:292|108:292|100:252|112:196|164:184,1,160.000001192092
212,140,157790,1,8,0:0:0:0:
264,208,158020,6,0,L|284:292,2,80.000000596046,4|8|0,0:2|0:0|0:0,0:0:0:0:
332,152,158713,1,8,0:0:0:0:
356,236,158943,2,0,P|356:332|288:372,1,160.000001192092
224,348,159636,1,8,0:0:0:0:
192,268,159866,6,0,P|152:296|140:336,1,80.000000596046,4|8,0:2|0:0,0:0:0:0:
56,300,160328,2,0,P|76:240|160:188,1,160.000001192092
472,44,161713,6,0,P|480:80|464:128,2,80.000000596046,4|8|0,0:2|0:0|0:0,0:0:0:0:
392,80,162405,1,8,0:0:0:0:
400,168,162636,2,0,P|360:164|316:124,2,80.000000596046,8|8|0,0:0|0:0|0:0,0:0:0:0:
244,84,163559,6,0,L|232:176,1,80.000000596046,4|8,0:2|0:0,0:0:0:0:
288,232,164020,1,8,0:0:0:0:
200,244,164251,2,0,P|148:244|92:312,2,120.000000894069,8|0|0,0:0|0:0|0:0,0:0:0:0:
288,232,165174,1,0,0:0:0:0:
252,152,165405,6,0,B|220:152|220:152|192:136|152:136,1,80.000000596046,4|8,0:2|0:0,0:0:0:0:
104,84,165866,2,0,P|84:136|92:176,1,80.000000596046,0|8,0:0|0:0,0:0:0:0:
68,244,166328,1,0,0:0:0:0:
156,240,166559,2,0,L|240:240,2,80.000000596046,8|0|8,0:0|0:0|0:0,0:0:0:0:
256,192,167251,12,4,170251,0:2:0:0:
136,80,170943,22,0,L|128:176,1,80.000000596046,4|8,0:2|0:0,0:0:0:0:
212,192,171405,2,0,B|216:156|216:156|240:120|240:120|244:56,2,120.000000894069,0|0|8,0:0|0:0|0:0,0:0:0:0:
140,244,172328,2,0,P|176:276|220:276,1,80.000000596046,0|8,0:0|0:0,0:0:0:0:
284,240,172790,5,4,0:2:0:0:
352,296,173020,2,0,P|372:244|304:156,1,160.000001192092,8|8,0:0|0:0,0:0:0:0:
232,164,173713,2,0,P|228:116|244:80,2,80.000000596046,0|8|0,0:0|0:0|0:0,0:0:0:0:
64,116,174636,6,0,P|56:176|68:204,1,80.000000596046,4|8,0:2|0:0,0:0:0:0:
132,248,175097,2,0,B|124:292|124:292|136:312|164:320|196:320|208:312,2,120.000000894069,0|0|8,0:0|0:0|0:0,0:0:0:0:
200,192,176020,2,0,B|216:184|240:184|240:184|268:184|296:168,1,80.000000596046,0|8,0:0|0:0,0:0:0:0:
352,128,176482,6,0,P|364:208|332:248,2,120.000000894069,4|0|0,0:2|0:0|0:0,0:0:0:0:
280,76,177405,2,0,P|236:84|192:64,1,80.000000596046,0|8,0:0|0:0,0:0:0:0:
64,184,178097,1,8,0:0:0:0:
112,260,178328,6,0,L|204:256,1,80.000000596046,4|8,0:2|0:0,0:0:0:0:
276,228,178790,2,0,P|296:280|384:292,2,120.000000894069
364,220,179713,2,0,B|364:176|364:176|356:152|336:132,1,80.000000596046,0|8,0:0|0:0,0:0:0:0:
276,92,180174,6,0,B|240:112|240:112|216:96|188:96|164:104|144:128|140:160|164:184,1,160.000001192092,4|0,0:2|0:0,0:0:0:0:
112,228,180866,1,8,0:0:0:0:
196,236,181097,2,0,L|224:320,2,80.000000596046,0|8|0,0:0|0:0|0:0,0:0:0:0:
328,352,182020,6,0,P|372:340|400:284,1,80.000000596046,4|8,0:2|0:0,0:0:0:0:
360,232,182482,1,0,0:0:0:0:
408,160,182713,2,0,P|360:144|308:164,1,80.000000596046,8|0,0:0|0:0,0:0:0:0:
272,212,183174,2,0,B|192:232|192:232|140:208,2,120.000000894069,8|0|4,0:0|0:0|0:2,0:0:0:0:
360,216,184097,21,8,0:0:0:0:
312,292,184328,2,0,L|320:340,2,40.000000298023,0|0|8,0:0|0:0|0:0,0:0:0:0:
272,212,184790,6,0,P|284:164|332:124,1,80.000000596046,4|8,0:2|0:0,0:0:0:0:
392,132,185251,2,0,L|436:136,2,40.000000298023,0|0|8,0:0|0:0|0:0,0:0:0:0:
336,64,185713,6,0,L|248:52,1,80.000000596046,4|8,0:2|0:0,0:0:0:0:
200,120,186174,2,0,L|196:160,2,40.000000298023,0|0|8,0:0|0:0|0:0,0:0:0:0:
155,40,186636,6,0,P|125:66|112:104,1,80.000000596046,4|8,0:2|0:0,0:0:0:0:
112,188,187097,2,0,L|56:184,2,40.000000298023,0|0|8,0:0|0:0|0:0,0:0:0:0:
256,192,187559,12,12,191251,0:2:0:0:
