osu file format v12

[General]
AudioFilename: mushroom mother.mp3
AudioLeadIn: 0
PreviewTime: 47505
Countdown: 0
SampleSet: Normal
StackLeniency: 0.4
Mode: 1
LetterboxInBreaks: 0

[Editor]
Bookmarks: 14291,118932
DistanceSpacing: 1
BeatDivisor: 4
GridSize: 8

[Metadata]
Title:Mushroom Mother
TitleUnicode:Mushroom Mother
Artist:Pinocchio-P
ArtistUnicode:Pinocchio-P
Creator:MMzz
Version:Futsuu
Source:
Tags:Love Hatsune Miku Vocaloid
BeatmapID:241794
BeatmapSetID:88802

[Difficulty]
HPDrainRate:4
CircleSize:5
OverallDifficulty:4
ApproachRate:5
SliderMultiplier:1.4
SliderTickRate:1

[Events]
//Background and Video events
0,0,"bg.jpg",0,100
//Break Periods
//Storyboard Layer 0 (Background)
//Storyboard Layer 1 (Fail)
//Storyboard Layer 2 (Pass)
//Storyboard Layer 3 (Foreground)
//Storyboard Sound Samples
//Background Colour Transformations
3,100,163,162,255

[TimingPoints]
1077,357.142857142857,4,1,0,75,1,0
14648,357.142857142857,4,1,0,75,1,0
48219,357.142857142857,4,1,0,75,1,1
58219,-100,4,1,0,75,0,0
60004,-100,4,1,0,75,0,1
69647,-100,4,1,0,75,0,0
97504,357.142857142857,4,1,0,75,1,1
107504,-100,4,1,0,75,0,0
109289,-100,4,1,0,75,0,1
118932,-100,4,1,0,75,0,0

[Colours]
Combo1 : 51,153,255
Combo2 : 255,98,102
Combo3 : 230,230,230
Combo4 : 255,255,104

[HitObjects]
256,192,14291,1,0,0:0:0:0:
256,192,14648,1,4,0:0:0:0:
256,192,15005,1,8,0:0:0:0:
256,192,15362,1,0,0:0:0:0:
256,192,15540,1,0,0:0:0:0:
256,192,16076,1,0,0:0:0:0:
256,192,16433,1,8,0:0:0:0:
256,192,16790,1,0,0:0:0:0:
256,192,17148,1,8,0:0:0:0:
256,192,17505,1,4,0:0:0:0:
256,192,17862,1,8,0:0:0:0:
256,192,18219,1,0,0:0:0:0:
256,192,18398,1,0,0:0:0:0:
256,192,18933,1,0,0:0:0:0:
256,192,19290,1,8,0:0:0:0:
256,192,19648,1,0,0:0:0:0:
256,192,20005,1,8,0:0:0:0:
256,192,20719,1,12,0:0:0:0:
256,192,21076,1,0,0:0:0:0:
256,192,21255,1,0,0:0:0:0:
256,192,21790,1,0,0:0:0:0:
256,192,22147,1,8,0:0:0:0:
256,192,22505,1,0,0:0:0:0:
256,192,22862,1,8,0:0:0:0:
256,192,23219,1,0,0:0:0:0:
256,192,23576,1,8,0:0:0:0:
256,192,23933,1,0,0:0:0:0:
256,192,24112,1,0,0:0:0:0:
256,192,24290,1,8,0:0:0:0:
256,192,24647,1,0,0:0:0:0:
256,192,25362,1,8,0:0:0:0:
256,192,26076,1,0,0:0:0:0:
256,192,26612,1,8,0:0:0:0:
256,192,27505,1,0,0:0:0:0:
256,192,28219,1,8,0:0:0:0:
256,192,28933,1,0,0:0:0:0:
256,192,29469,1,0,0:0:0:0:
256,192,30362,1,0,0:0:0:0:
256,192,31076,1,8,0:0:0:0:
256,192,31790,1,0,0:0:0:0:
256,192,32326,1,8,0:0:0:0:
256,192,33219,1,0,0:0:0:0:
256,192,33933,1,8,0:0:0:0:
256,192,34647,1,0,0:0:0:0:
256,192,35183,1,0,0:0:0:0:
256,192,36076,1,4,0:0:0:0:
256,192,36612,1,0,0:0:0:0:
256,192,36790,1,0,0:0:0:0:
256,192,37147,1,8,0:0:0:0:
256,192,37505,1,0,0:0:0:0:
240,168,38040,1,0,0:0:0:0:
256,192,38219,1,0,0:0:0:0:
240,168,38576,1,8,0:0:0:0:
240,168,38933,1,0,0:0:0:0:
256,192,39290,1,8,0:0:0:0:
256,192,39469,1,0,0:0:0:0:
256,192,39647,1,0,0:0:0:0:
240,168,40005,1,8,0:0:0:0:
240,168,40183,1,0,0:0:0:0:
240,168,40362,1,0,0:0:0:0:
240,168,40719,1,8,0:0:0:0:
240,168,40897,1,0,0:0:0:0:
240,168,41433,1,8,0:0:0:0:
240,168,41790,1,0,0:0:0:0:
240,168,42147,1,0,0:0:0:0:
240,168,42505,1,8,0:0:0:0:
240,168,42862,1,0,0:0:0:0:
240,168,43219,1,0,0:0:0:0:
240,168,43397,1,0,0:0:0:0:
240,168,43576,1,0,0:0:0:0:
240,168,43933,1,8,0:0:0:0:
240,168,44647,1,0,0:0:0:0:
240,168,44826,1,0,0:0:0:0:
240,168,45183,1,0,0:0:0:0:
240,168,45362,1,0,0:0:0:0:
240,168,45719,1,8,0:0:0:0:
240,168,45897,1,8,0:0:0:0:
264,184,46255,1,8,0:0:0:0:
240,168,46433,1,8,0:0:0:0:
256,192,46612,12,0,47505,0:0:0:0:
248,192,48219,5,4,0:0:0:0:
248,192,48576,1,8,0:0:0:0:
248,192,48933,1,0,0:0:0:0:
248,192,49111,1,0,0:0:0:0:
248,192,49290,1,8,0:0:0:0:
248,192,49647,1,0,0:0:0:0:
248,192,50004,1,8,0:0:0:0:
248,192,50361,1,0,0:0:0:0:
248,192,50540,1,0,0:0:0:0:
248,192,50897,1,0,0:0:0:0:
248,192,51076,1,0,0:0:0:0:
248,192,51433,1,8,0:0:0:0:
248,192,51790,1,0,0:0:0:0:
248,192,52147,1,8,0:0:0:0:
248,192,52326,1,0,0:0:0:0:
248,192,52504,1,0,0:0:0:0:
248,192,53040,1,8,0:0:0:0:
248,192,53576,1,8,0:0:0:0:
248,192,53933,1,4,0:0:0:0:
248,192,54290,1,8,0:0:0:0:
248,192,54647,1,0,0:0:0:0:
248,192,54826,1,0,0:0:0:0:
248,192,55004,1,8,0:0:0:0:
248,192,55361,1,0,0:0:0:0:
248,192,55719,1,8,0:0:0:0:
248,192,56076,1,0,0:0:0:0:
248,192,56254,1,0,0:0:0:0:
248,192,56433,1,8,0:0:0:0:
248,192,56790,1,0,0:0:0:0:
248,192,57147,1,8,0:0:0:0:
248,192,57504,1,0,0:0:0:0:
248,192,57861,1,8,0:0:0:0:
248,192,58040,1,0,0:0:0:0:
248,192,58219,1,0,0:0:0:0:
248,192,58576,1,0,0:0:0:0:
248,192,58933,1,8,0:0:0:0:
248,192,59647,1,0,0:0:0:0:
248,192,60004,1,12,0:0:0:0:
216,200,60361,1,0,0:0:0:0:
216,200,60718,1,12,0:0:0:0:
216,200,61076,1,0,0:0:0:0:
216,200,61254,1,0,0:0:0:0:
216,200,61433,1,8,0:0:0:0:
216,200,61790,1,0,0:0:0:0:
240,168,62504,1,0,0:0:0:0:
240,168,62861,1,8,0:0:0:0:
240,168,63040,1,0,0:0:0:0:
240,168,63218,1,0,0:0:0:0:
240,168,63576,1,8,0:0:0:0:
240,168,63933,1,0,0:0:0:0:
240,168,64290,1,8,0:0:0:0:
240,168,64647,1,0,0:0:0:0:
240,168,64826,1,0,0:0:0:0:
248,192,65361,1,8,0:0:0:0:
248,192,65719,1,12,0:0:0:0:
216,200,66076,1,0,0:0:0:0:
216,200,66433,1,12,0:0:0:0:
216,200,66790,1,0,0:0:0:0:
216,200,66969,1,0,0:0:0:0:
216,200,67147,1,8,0:0:0:0:
216,200,67504,1,0,0:0:0:0:
240,168,68219,1,0,0:0:0:0:
240,168,68576,1,8,0:0:0:0:
240,168,68754,1,0,0:0:0:0:
240,168,68933,1,0,0:0:0:0:
240,168,69290,1,8,0:0:0:0:
240,168,69647,1,0,0:0:0:0:
240,168,70183,1,0,0:0:0:0:
240,168,70718,1,0,0:0:0:0:
240,168,71254,1,0,0:0:0:0:
240,168,71790,1,8,0:0:0:0:
240,168,72504,1,0,0:0:0:0:
240,168,72683,1,0,0:0:0:0:
240,168,72861,1,0,0:0:0:0:
256,192,73218,1,8,0:0:0:0:
256,192,73933,1,0,0:0:0:0:
256,192,74290,1,0,0:0:0:0:
256,192,74647,1,8,0:0:0:0:
256,192,75361,1,0,0:0:0:0:
256,192,75718,1,0,0:0:0:0:
256,192,76076,1,8,0:0:0:0:
256,192,76790,1,0,0:0:0:0:
256,192,77147,1,8,0:0:0:0:
256,192,77504,1,0,0:0:0:0:
256,192,78218,1,0,0:0:0:0:
256,192,78754,1,0,0:0:0:0:
256,192,79647,1,4,0:0:0:0:
256,192,80183,1,8,0:0:0:0:
256,192,80718,1,0,0:0:0:0:
176,160,81076,1,0,0:0:0:0:
256,192,81611,1,8,0:0:0:0:
256,192,82147,1,0,0:0:0:0:
256,192,82504,1,4,0:0:0:0:
256,192,83933,1,4,0:0:0:0:
256,192,84468,1,4,0:0:0:0:
256,192,85361,1,4,0:0:0:0:
256,192,85897,1,0,0:0:0:0:
256,192,86076,1,0,0:0:0:0:
256,192,86433,1,8,0:0:0:0:
256,192,86790,1,0,0:0:0:0:
240,168,87326,1,0,0:0:0:0:
256,192,87504,1,0,0:0:0:0:
240,168,87861,1,8,0:0:0:0:
240,168,88218,1,0,0:0:0:0:
256,192,88576,1,8,0:0:0:0:
256,192,88754,1,0,0:0:0:0:
256,192,88933,1,0,0:0:0:0:
240,168,89290,1,8,0:0:0:0:
240,168,89468,1,0,0:0:0:0:
240,168,89647,1,0,0:0:0:0:
240,168,90004,1,8,0:0:0:0:
240,168,90183,1,0,0:0:0:0:
32,128,90718,1,8,0:0:0:0:
240,168,91076,1,0,0:0:0:0:
240,168,91433,1,0,0:0:0:0:
240,168,91790,1,8,0:0:0:0:
240,168,92147,1,0,0:0:0:0:
240,168,92504,1,0,0:0:0:0:
240,168,92683,1,0,0:0:0:0:
240,168,92861,1,0,0:0:0:0:
240,168,93218,1,8,0:0:0:0:
240,168,93933,1,0,0:0:0:0:
240,168,94111,1,0,0:0:0:0:
240,168,94468,1,0,0:0:0:0:
240,168,94647,1,0,0:0:0:0:
240,168,95004,1,8,0:0:0:0:
240,168,95183,1,8,0:0:0:0:
264,184,95540,1,8,0:0:0:0:
240,168,95718,1,8,0:0:0:0:
248,192,96790,1,0,0:0:0:0:
248,192,97147,1,8,0:0:0:0:
248,192,97504,1,4,0:0:0:0:
248,192,97861,1,8,0:0:0:0:
248,192,98218,1,0,0:0:0:0:
248,192,98396,1,0,0:0:0:0:
248,192,98575,1,8,0:0:0:0:
248,192,98932,1,0,0:0:0:0:
248,192,99289,1,8,0:0:0:0:
248,192,99646,1,0,0:0:0:0:
248,192,99825,1,0,0:0:0:0:
248,192,100182,1,0,0:0:0:0:
248,192,100361,1,0,0:0:0:0:
248,192,100718,1,8,0:0:0:0:
248,192,101075,1,0,0:0:0:0:
248,192,101432,1,8,0:0:0:0:
248,192,101611,1,0,0:0:0:0:
248,192,101789,1,0,0:0:0:0:
248,192,102325,1,8,0:0:0:0:
248,192,102861,1,8,0:0:0:0:
248,192,103218,1,4,0:0:0:0:
248,192,103575,1,8,0:0:0:0:
248,192,103932,1,0,0:0:0:0:
248,192,104111,1,0,0:0:0:0:
248,192,104289,1,8,0:0:0:0:
248,192,104646,1,0,0:0:0:0:
248,192,105004,1,8,0:0:0:0:
248,192,105361,1,0,0:0:0:0:
248,192,105539,1,0,0:0:0:0:
176,176,105718,1,8,0:0:0:0:
248,192,106075,1,0,0:0:0:0:
248,192,106432,1,8,0:0:0:0:
248,192,106789,1,0,0:0:0:0:
248,192,107146,1,8,0:0:0:0:
248,192,107325,1,0,0:0:0:0:
248,192,107504,1,0,0:0:0:0:
248,192,107861,1,0,0:0:0:0:
248,192,108218,1,8,0:0:0:0:
248,192,108932,1,8,0:0:0:0:
248,192,109289,1,12,0:0:0:0:
216,200,109646,1,0,0:0:0:0:
216,200,110004,1,12,0:0:0:0:
216,200,110361,1,0,0:0:0:0:
216,200,110539,1,0,0:0:0:0:
216,200,110718,1,8,0:0:0:0:
216,200,111075,1,0,0:0:0:0:
240,168,111789,1,0,0:0:0:0:
240,168,112146,1,8,0:0:0:0:
240,168,112325,1,0,0:0:0:0:
240,168,112504,1,0,0:0:0:0:
240,168,112861,1,8,0:0:0:0:
240,168,113218,1,0,0:0:0:0:
240,168,113575,1,8,0:0:0:0:
240,168,113932,1,0,0:0:0:0:
240,168,114111,1,0,0:0:0:0:
248,192,114646,1,8,0:0:0:0:
248,192,115004,1,12,0:0:0:0:
216,200,115361,1,0,0:0:0:0:
216,200,115718,1,12,0:0:0:0:
216,200,116075,1,0,0:0:0:0:
216,200,116254,1,0,0:0:0:0:
216,200,116432,1,8,0:0:0:0:
216,200,116789,1,0,0:0:0:0:
240,168,117504,1,0,0:0:0:0:
240,168,117861,1,8,0:0:0:0:
240,168,118039,1,0,0:0:0:0:
240,168,118218,1,0,0:0:0:0:
240,168,118575,1,8,0:0:0:0:
240,168,118932,1,4,0:0:0:0:
