osu file format v12

[General]
AudioFilename: PinkiePieSwear - Sunshine and Celery Stalks.mp3
AudioLeadIn: 0
PreviewTime: 122748
Countdown: 0
SampleSet: None
StackLeniency: 0.3
Mode: 0
LetterboxInBreaks: 0
WidescreenStoryboard: 1

[Editor]
Bookmarks: 33671,41055,55825,210902
DistanceSpacing: 1.2
BeatDivisor: 4
GridSize: 4

[Metadata]
Title:Sunshine and Celery Stalks
TitleUnicode:Sunshine and Celery Stalks
Artist:PinkiePieSwear
ArtistUnicode:PinkiePieSwear
Creator:S0nic whooshx
Version:Colorful Flowers
Source:My Little Pony: Friendship is Magic
Tags:mlp applejack best pony silverboxer wa_
BeatmapID:376417
BeatmapSetID:153061

[Difficulty]
HPDrainRate:7
CircleSize:4
OverallDifficulty:8
ApproachRate:8
SliderMultiplier:2
SliderTickRate:2

[Events]
//Background and Video events
0,0,"applejack_apples.png",0,0
Video,0,"PinkiePieSwear - Sunshine and Celery Stalks.avi"
//Break Periods
2,92936,95678
2,114858,119678
2,152013,165832
//Storyboard Layer 0 (Background)
//Storyboard Layer 1 (Fail)
//Storyboard Layer 2 (Pass)
//Storyboard Layer 3 (Foreground)
//Storyboard Sound Samples
//Background Colour Transformations
3,100,163,162,255

[TimingPoints]
4121,461.538461538462,4,2,0,45,1,0
33659,-100,4,2,0,70,0,0
63197,-100,4,2,0,60,0,1
69659,-133.333333333333,4,2,0,60,0,1
70582,-100,4,2,0,60,0,1
77043,-133.333333333333,4,2,0,60,0,1
77966,-100,4,2,0,60,0,1
84428,-133.333333333333,4,2,0,60,0,1
85351,-100,4,2,0,60,0,1
91813,-133.333333333333,4,2,0,60,0,1
92274,-100,4,2,0,60,0,0
96428,-100,4,3,0,70,0,0
120428,-100,4,2,0,60,0,0
166582,-100,4,2,0,60,0,0
173043,-133.333333333333,4,2,0,60,0,0
173966,-100,4,2,0,60,0,0
180428,-133.333333333333,4,2,0,60,0,0
181351,-100,4,2,0,60,0,1
210890,-100,4,2,0,60,0,0

[Colours]
Combo1 : 190,142,230
Combo2 : 213,158,57
Combo3 : 103,198,83
Combo4 : 230,139,100

[HitObjects]
40,184,4121,1,4,0:0:0:0:
88,108,4351,1,0,0:0:0:0:
160,56,4582,2,0,P|224:40|280:44,1,100,8|0,0:0|0:0,0:0:0:0:
232,120,5044,1,0,0:0:0:0:
288,188,5274,1,0,0:0:0:0:
360,244,5505,2,0,P|436:208|464:160,1,100,8|0,0:0|0:0,0:0:0:0:
444,108,5967,5,0,0:0:0:0:
356,92,6197,1,0,0:0:0:0:
288,152,6428,1,8,0:0:0:0:
228,220,6659,1,0,0:0:0:0:
204,240,6774,1,0,0:0:0:0:
180,248,6890,1,0,0:0:0:0:
96,216,7121,1,8,0:0:0:0:
88,128,7351,2,0,P|128:92|188:80,1,100,8|0,0:0|0:0,0:0:0:0:
264,80,7813,5,4,0:0:0:0:
340,128,8044,1,0,0:0:0:0:
404,192,8274,2,0,P|424:248|408:288,1,100,8|0,0:0|0:0,0:0:0:0:
396,292,8621,1,0,0:0:0:0:
380,296,8736,1,0,0:0:0:0:
296,328,8967,1,0,0:0:0:0:
208,320,9197,1,8,0:0:0:0:
140,260,9428,1,0,0:0:0:0:
88,184,9659,5,0,0:0:0:0:
132,104,9890,2,0,P|172:92|240:112,1,100,0|8,0:0|0:0,0:0:0:0:
188,184,10351,2,0,P|228:196|296:176,1,100,0|0,0:0|0:0,0:0:0:0:
316,268,10813,1,8,0:0:0:0:
372,196,11044,1,8,0:0:0:0:
372,108,11274,1,0,0:0:0:0:
312,40,11505,5,4,0:0:0:0:
220,40,11736,1,0,0:0:0:0:
132,56,11967,2,0,P|96:92|80:156,1,100,8|0,0:0|0:0,0:0:0:0:
172,132,12428,1,0,0:0:0:0:
264,132,12659,1,0,0:0:0:0:
328,196,12890,2,0,B|364:184|376:180|376:180|416:140,1,100,8|0,0:0|0:0,0:0:0:0:
436,68,13351,5,0,0:0:0:0:
352,96,13582,1,0,0:0:0:0:
272,140,13813,1,8,0:0:0:0:
212,192,14044,1,0,0:0:0:0:
212,192,14159,1,0,0:0:0:0:
212,192,14274,2,0,P|168:192|92:244,1,100,0|8,0:0|0:0,0:0:0:0:
184,264,14736,2,0,P|120:292|72:288,1,100,8|0,0:0|0:0,0:0:0:0:
36,232,15197,5,4,0:0:0:0:
124,208,15428,1,0,0:0:0:0:
184,144,15659,1,8,0:0:0:0:
248,80,15890,1,0,0:0:0:0:
272,56,16005,1,0,0:0:0:0:
304,44,16121,1,0,0:0:0:0:
392,84,16351,2,0,P|420:124|428:176,1,100,0|8,0:0|0:0,0:0:0:0:
400,260,16813,1,0,0:0:0:0:
320,304,17044,5,0,0:0:0:0:
232,320,17274,1,0,0:0:0:0:
144,308,17505,1,8,0:0:0:0:
76,248,17736,1,0,0:0:0:0:
76,224,17851,1,0,0:0:0:0:
56,216,17966,1,0,0:0:0:0:
72,200,18082,1,0,0:0:0:0:
48,184,18197,1,8,0:0:0:0:
48,92,18428,1,8,0:0:0:0:
116,32,18659,1,0,0:0:0:0:
184,92,18890,5,4,0:0:0:0:
248,156,19121,1,0,0:0:0:0:
176,208,19351,1,8,0:0:0:0:
248,156,19582,2,0,P|284:156|308:140,2,50,0|0|0,0:0|0:0|0:0,0:0:0:0:
264,88,19928,2,0,P|296:80|328:92,1,50,0|0,0:0|0:0,0:0:0:0:
388,136,20274,1,8,0:0:0:0:
420,220,20505,1,0,0:0:0:0:
404,308,20736,6,0,L|304:308,1,100,0|0,0:0|0:0,0:0:0:0:
240,244,21197,1,8,0:0:0:0:
184,176,21428,2,0,P|156:192|144:216,1,50,0|0,0:0|0:0,0:0:0:0:
120,276,21659,2,0,P|88:252|76:216,1,50,0|0,0:0|0:0,0:0:0:0:
84,168,21890,1,8,0:0:0:0:
128,88,22121,2,0,B|168:64|168:64|244:64,1,100,8|0,0:0|0:0,0:0:0:0:
312,64,22582,5,4,0:0:0:0:
400,88,22813,2,0,P|440:120|448:172,1,100,0|8,0:0|0:0,0:0:0:0:
372,212,23274,2,0,L|320:196,1,50,0|0,0:0|0:0,0:0:0:0:
292,192,23505,2,0,L|244:228,1,50,0|0,0:0|0:0,0:0:0:0:
216,248,23736,1,0,0:0:0:0:
140,300,23967,2,0,P|120:312|84:316,2,50,8|0|0,0:0|0:0|0:0,0:0:0:0:
88,228,24428,5,0,0:0:0:0:
112,140,24659,2,0,B|200:88|284:84|328:96,1,200,0|0,0:0|0:0,0:0:0:0:
388,116,25351,1,0,0:0:0:0:
456,176,25582,2,0,P|480:240|468:268,1,100,8|8,0:0|0:0,0:0:0:0:
380,228,26044,2,0,P|352:164|376:120,1,100,0|4,0:0|0:0,0:0:0:0:
304,68,26505,5,0,0:0:0:0:
228,116,26736,1,8,0:0:0:0:
152,68,26967,1,0,0:0:0:0:
124,80,27082,1,0,0:0:0:0:
104,104,27197,1,0,0:0:0:0:
88,136,27313,1,0,0:0:0:0:
84,168,27428,1,0,0:0:0:0:
104,256,27659,2,0,P|116:280|144:300,2,50,0|0|0,0:0|0:0|0:0,0:0:0:0:
200,320,28121,5,0,0:0:0:0:
288,320,28351,1,0,0:0:0:0:
376,296,28582,1,0,0:0:0:0:
448,240,28813,2,0,B|496:196|384:168|472:124,1,100,0|0,0:0|0:0,0:0:0:0:
408,64,29274,2,0,P|364:92|348:164,2,100,0|0|0,0:0|0:0|0:0,0:0:0:0:
432,144,29967,6,0,P|420:192|368:220,1,100,0|0,0:0|0:0,0:0:0:0:
288,220,30428,1,0,0:0:0:0:
196,220,30659,1,0,0:0:0:0:
120,268,30890,2,0,P|100:200|108:164,1,100,0|0,0:0|0:0,0:0:0:0:
152,96,31351,1,0,0:0:0:0:
236,64,31582,1,0,0:0:0:0:
324,88,31813,6,0,L|428:124,1,100,0|0,0:0|0:0,0:0:0:0:
420,212,32274,2,0,L|324:248,1,100,0|0,0:0|0:0,0:0:0:0:
288,164,32736,1,0,0:0:0:0:
220,220,32967,1,0,0:0:0:0:
220,308,33197,1,0,0:0:0:0:
300,352,33428,1,0,0:0:0:0:
368,292,33659,6,0,B|420:240|432:192|432:136|424:84,1,200,4|0,0:0|0:0,0:0:0:0:
360,48,34351,1,0,0:0:0:0:
272,44,34582,2,0,B|248:72|248:72|208:72|196:124,1,100,0|0,0:0|0:0,0:0:0:0:
196,120,34928,1,0,0:0:0:0:
192,132,35044,1,0,0:0:0:0:
280,156,35274,1,0,0:0:0:0:
364,184,35505,6,0,P|332:232|288:240,1,100,0|2,0:0|0:0,0:0:0:0:
196,120,35967,1,2,0:0:0:0:
100,240,36197,1,2,0:0:0:0:
44,304,36428,2,0,P|12:256|12:212,1,100,0|2,0:0|0:0,0:0:0:0:
104,84,36890,1,2,0:0:0:0:
260,48,37121,1,2,0:0:0:0:
348,60,37351,6,0,B|396:72|396:72|444:128,1,100,0|0,0:0|0:0,0:0:0:0:
464,196,37813,1,0,0:0:0:0:
432,280,38044,1,0,0:0:0:0:
388,216,38274,2,0,B|292:232|348:324|184:320,1,200,0|8,0:0|0:0,0:0:0:0:
136,320,38967,1,0,0:0:0:0:
68,168,39197,6,0,B|168:160|140:248|252:240,1,200,0|8,0:0|0:0,0:0:0:0:
336,240,39890,1,0,0:0:0:0:
380,224,40005,1,0,0:0:0:0:
416,196,40121,2,0,P|460:144|412:32,1,200,0|8,0:0|0:0,0:0:0:0:
368,112,40813,1,8,0:0:0:0:
340,80,40928,1,0,0:0:0:0:
296,68,41044,1,0,0:0:0:0:
208,68,41274,5,0,0:0:0:0:
212,160,41505,1,0,0:0:0:0:
208,252,41736,2,0,B|196:264|180:264|160:280|112:248,1,100,0|0,0:0|0:0,0:0:0:0:
48,188,42197,1,0,0:0:0:0:
48,188,42313,1,0,0:0:0:0:
48,188,42428,1,0,0:0:0:0:
0,92,42659,6,0,P|32:72|156:144,1,200
48,188,43351,1,2,0:0:0:0:
208,216,43582,2,0,P|276:216|316:208,1,100,2|0,0:0|0:0,0:0:0:0:
368,96,44044,1,2,0:0:0:0:
460,212,44274,1,2,0:0:0:0:
308,212,44505,1,2,0:0:0:0:
308,212,44736,5,0,0:0:0:0:
232,260,44967,2,0,P|188:304|184:344,2,100,0|0|0,0:0|0:0|0:0,0:0:0:0:
288,192,45659,2,0,B|312:144|300:88|300:88|248:96|204:80,1,200,0|8,0:0|0:0,0:0:0:0:
132,132,46351,1,0,0:0:0:0:
72,200,46582,2,0,P|156:264|272:268,1,200,0|8,0:0|0:0,0:0:0:0:
316,216,47274,1,0,0:0:0:0:
332,128,47505,6,0,P|260:56|256:36,1,100,0|0,0:0|0:0,0:0:0:0:
352,60,47967,2,0,P|416:112|428:136,1,100,0|0,0:0|0:0,0:0:0:0:
424,216,48428,2,0,B|400:256|416:312|416:312|352:300|288:320,1,200,0|0,0:0|0:0,0:0:0:0:
228,328,49121,1,0,0:0:0:0:
148,292,49351,1,0,0:0:0:0:
96,220,49582,2,0,P|80:212|44:212,2,50,0|0|0,0:0|0:0|0:0,0:0:0:0:
180,192,50044,6,0,P|172:140|136:92,1,100,0|0,0:0|0:0,0:0:0:0:
220,48,50505,1,2,0:0:0:0:
284,184,50736,1,2,0:0:0:0:
196,212,50967,1,2,0:0:0:0:
140,140,51197,2,0,P|160:104|216:80,1,100,0|2,0:0|0:0,0:0:0:0:
364,80,51659,1,2,0:0:0:0:
364,232,51890,1,2,0:0:0:0:
296,292,52121,6,0,P|228:300|204:328,1,100,0|0,0:0|0:0,0:0:0:0:
120,332,52582,2,0,P|84:252|92:212,1,100,0|0,0:0|0:0,0:0:0:0:
108,156,53044,2,0,B|152:84|236:72|296:132,1,200,0|8,0:0|0:0,0:0:0:0:
212,180,53736,1,0,0:0:0:0:
92,72,53967,6,0,P|40:152|72:256,1,200,0|8,0:0|0:0,0:0:0:0:
128,312,54659,1,0,0:0:0:0:
152,320,54774,1,0,0:0:0:0:
172,320,54890,1,0,0:0:0:0:
260,300,55121,1,0,0:0:0:0:
344,272,55351,2,0,B|376:232|376:232|376:160,1,100,8|8,0:0|0:0,0:0:0:0:
376,168,55697,1,0,0:0:0:0:
376,156,55813,1,0,0:0:0:0:
296,116,56044,6,0,B|288:60|288:60|256:24,1,100,0|0,0:0|0:0,0:0:0:0:
204,100,56505,1,0,0:0:0:0:
128,148,56736,2,0,B|128:164|136:176|128:192|140:192|144:204|144:204|168:236,1,100,0|0,0:0|0:0,0:0:0:0:
176,244,57082,1,0,0:0:0:0:
184,252,57197,1,0,0:0:0:0:
256,288,57428,6,0,P|360:260|392:172,1,200,0|2,0:0|0:0,0:0:0:0:
280,80,58121,1,2,0:0:0:0:
168,176,58351,1,2,0:0:0:0:
80,188,58582,2,0,P|96:240|152:264,1,100,0|2,0:0|0:0,0:0:0:0:
144,112,59044,1,2,0:0:0:0:
292,84,59274,1,2,0:0:0:0:
376,112,59505,6,0,P|400:160|404:212,3,100,0|0|0|0,0:0|0:0|0:0|0:0,0:0:0:0:
388,292,60428,2,0,B|320:340|304:332|304:332|304:288|268:244|232:244,1,200,0|8,0:0|0:0,0:0:0:0:
204,336,61121,1,0,0:0:0:0:
116,328,61351,2,0,B|40:320|36:248|36:248|36:200|36:144,1,200,0|8,0:0|0:0,0:0:0:0:
96,104,62044,1,0,0:0:0:0:
124,188,62274,2,0,P|168:228|236:208,1,100,2|0,0:0|0:0,0:0:0:0:
196,136,62736,2,0,P|260:116|308:152,1,100,2|0,0:0|0:0,0:0:0:0:
276,216,63197,6,0,B|320:192|360:244|340:328|464:304,1,200,4|4,0:0|0:0,0:0:0:0:
420,220,63890,1,0,0:0:0:0:
360,152,64121,1,0,0:0:0:0:
320,72,64351,1,0,0:0:0:0:
308,64,64467,1,0,0:0:0:0:
296,64,64582,1,0,0:0:0:0:
208,56,64813,6,0,P|128:96|160:204,1,200,0|0,0:0|0:0,0:0:0:0:
204,136,65505,1,0,0:0:0:0:
260,204,65736,2,0,P|284:248|272:296,1,100,0|0,0:0|0:0,0:0:0:0:
188,328,66197,1,2,0:0:0:0:
184,284,66428,1,2,0:0:0:0:
84,200,66659,1,2,0:0:0:0:
84,108,66890,5,0,0:0:0:0:
160,64,67121,2,0,P|248:60|288:76,2,100,0|0|0,0:0|0:0|0:0,0:0:0:0:
180,152,67813,2,0,P|280:200|220:288,1,200,0|8,0:0|0:0,0:0:0:0:
192,228,68505,1,0,0:0:0:0:
368,268,68736,6,0,B|396:216|384:128|300:88,1,200,0|8,0:0|0:0,0:0:0:0:
232,60,69428,1,0,0:0:0:0:
232,60,69544,1,0,0:0:0:0:
232,60,69659,2,0,B|186:62|179:106|179:106|148:74|110:99,1,150.000005722046,2|2,0:0|0:0,0:0:0:0:
24,132,70351,1,0,0:0:0:0:
0,220,70582,1,0,0:0:0:0:
24,308,70813,6,0,B|60:288|92:336|144:308,1,100,0|0,0:0|0:0,0:0:0:0:
212,316,71274,1,0,0:0:0:0:
296,288,71505,1,0,0:0:0:0:
380,256,71736,2,0,P|420:292|448:304,2,50,0|0|0,0:0|0:0|0:0,0:0:0:0:
452,200,72197,6,0,B|404:168|404:168|424:76|336:52,1,200,0|0,0:0|0:0,0:0:0:0:
324,136,72890,1,0,0:0:0:0:
260,72,73121,1,0,0:0:0:0:
212,148,73351,6,0,P|176:108|168:64,1,100,0|2,0:0|0:0,0:0:0:0:
284,212,73813,1,2,0:0:0:0:
136,188,74044,2,0,P|112:216|112:280,1,100,2|0,0:0|0:0,0:0:0:0:
200,260,74505,2,0,P|256:276|280:312,2,100,2|2|2,0:0|0:0|0:0,0:0:0:0:
124,304,75197,6,0,P|60:268|64:140,1,200,0|8,0:0|0:0,0:0:0:0:
124,212,75890,1,0,0:0:0:0:
208,244,76121,2,0,P|260:228|272:180,1,100,0|0,0:0|0:0,0:0:0:0:
272,160,76467,1,0,0:0:0:0:
260,136,76582,1,8,0:0:0:0:
208,68,76813,1,0,0:0:0:0:
152,136,77044,6,0,P|96:148|80:168,1,75.0000028610231,2|0,0:0|0:0,0:0:0:0:
68,184,77390,1,0,0:0:0:0:
64,216,77505,1,2,0:0:0:0:
112,288,77736,1,0,0:0:0:0:
184,340,77967,6,0,B|292:336|292:336|408:272,1,200,0|0,0:0|0:0,0:0:0:0:
436,228,78659,1,0,0:0:0:0:
352,200,78890,2,0,P|352:148|328:104,1,100,0|0,0:0|0:0,0:0:0:0:
300,72,79236,1,0,0:0:0:0:
260,56,79351,1,0,0:0:0:0:
204,128,79582,6,0,B|188:184|128:184|128:184|152:292,1,200,0|2,0:0|0:0,0:0:0:0:
220,336,80274,1,2,0:0:0:0:
288,184,80505,1,2,0:0:0:0:
328,264,80736,2,0,B|376:240|376:240|396:192,1,100,0|2,0:0|0:0,0:0:0:0:
300,68,81197,1,2,0:0:0:0:
196,188,81428,1,2,0:0:0:0:
180,276,81659,6,0,B|120:276|120:276|76:316,1,100,0|0,0:0|0:0,0:0:0:0:
44,228,82121,2,0,P|24:168|32:112,1,100,0|0,0:0|0:0,0:0:0:0:
92,72,82582,2,0,B|168:48|224:132|300:76,1,200,0|8,0:0|0:0,0:0:0:0:
336,160,83274,1,0,0:0:0:0:
472,224,83505,6,0,P|392:308|288:288,1,200,0|8,0:0|0:0,0:0:0:0:
232,272,84197,1,0,0:0:0:0:
208,240,84313,1,0,0:0:0:0:
196,204,84428,2,0,B|192:184|192:184|176:124|176:124|148:96|100:100,1,150.000005722046,2|2,0:0|0:0,0:0:0:0:
84,184,85121,1,0,0:0:0:0:
20,120,85351,2,0,P|32:64|80:32,2,100,0|0|0,0:0|0:0|0:0,0:0:0:0:
40,208,86044,1,0,0:0:0:0:
100,276,86274,1,0,0:0:0:0:
188,300,86505,5,0,0:0:0:0:
188,300,86621,1,0,0:0:0:0:
188,300,86736,2,0,P|240:244|284:260,1,100,0|0,0:0|0:0,0:0:0:0:
344,256,87197,2,0,P|329:302|287:327,1,100,0|2,0:0|0:0,0:0:0:0:
164,200,87659,1,2,0:0:0:0:
220,60,87890,1,2,0:0:0:0:
312,60,88121,6,0,P|352:76|376:140,1,100,0|2,0:0|0:0,0:0:0:0:
252,212,88582,1,2,0:0:0:0:
376,296,88813,2,0,P|320:340|272:336,1,100,2|2,0:0|0:0,0:0:0:0:
204,324,89274,1,0,0:0:0:0:
172,240,89505,2,0,P|128:256|100:312,1,100,0|0,0:0|0:0,0:0:0:0:
20,260,89967,2,0,P|56:136|116:96,1,200,0|8,0:0|0:0,0:0:0:0:
200,80,90659,5,0,0:0:0:0:
132,216,90890,2,0,P|176:176|216:168,1,100,0|0,0:0|0:0,0:0:0:0:
232,172,91236,1,0,0:0:0:0:
248,176,91351,1,8,0:0:0:0:
256,260,91582,1,0,0:0:0:0:
320,328,91813,2,0,B|368:288|352:232|352:232|396:228,1,150.000005722046,0|4,0:0|0:0,0:0:0:0:
448,156,92505,1,0,0:0:0:0:
396,84,92736,1,4,0:0:0:0:
36,160,96428,6,0,P|80:116|124:112,1,100,0|0,0:0|0:0,0:0:0:0:
180,176,96890,1,0,0:0:0:0:
256,224,97121,2,0,P|312:196|332:160,1,100,0|0,0:0|0:0,0:0:0:0:
360,80,97582,1,0,0:0:0:0:
432,24,97813,2,0,P|452:44|468:64,2,50,0|0|0,0:0|0:0|0:0,0:0:0:0:
404,108,98274,1,0,0:0:0:0:
392,196,98505,2,0,P|384:240|344:288,1,100,0|0,0:0|0:0,0:0:0:0:
264,304,98967,5,0,0:0:0:0:
192,208,99197,2,0,P|152:184|136:188,2,50,0|0|0,0:0|0:0|0:0,0:0:0:0:
296,148,99659,2,0,P|324:112|352:108,2,50,0|0|0,0:0|0:0|0:0,0:0:0:0:
208,72,100121,2,0,P|172:48|124:52,2,50,0|0|0,0:0|0:0|0:0,0:0:0:0:
152,144,100582,5,0,0:0:0:0:
96,216,100813,1,0,0:0:0:0:
88,260,100928,1,0,0:0:0:0:
100,304,101044,1,0,0:0:0:0:
176,256,101274,1,0,0:0:0:0:
248,200,101505,1,0,0:0:0:0:
264,244,101621,1,0,0:0:0:0:
260,288,101736,1,0,0:0:0:0:
180,328,101967,5,0,0:0:0:0:
260,288,102197,1,0,0:0:0:0:
284,252,102313,1,0,0:0:0:0:
300,212,102428,1,0,0:0:0:0:
312,124,102659,1,0,0:0:0:0:
224,104,102890,2,0,P|184:52|124:52,1,100,0|0,0:0|0:0,0:0:0:0:
136,136,103351,2,0,P|136:200|88:232,1,100,0|0,0:0|0:0,0:0:0:0:
68,164,103813,2,0,P|52:116|56:100,2,50
136,136,104274,5,0,0:0:0:0:
216,88,104505,1,0,0:0:0:0:
216,88,104621,2,0,P|240:116|272:128,1,50,0|0,0:0|0:0,0:0:0:0:
336,148,104967,1,0,0:0:0:0:
388,220,105197,1,0,0:0:0:0:
388,220,105313,2,0,P|404:240|408:268,1,50,0|0,0:0|0:0,0:0:0:0:
336,340,105659,5,0,0:0:0:0:
272,276,105890,2,0,L|312:244,2,50,0|0|0,0:0|0:0|0:0,0:0:0:0:
212,208,106351,1,0,0:0:0:0:
128,172,106582,2,0,L|144:120,2,50,0|0|0,0:0|0:0|0:0,0:0:0:0:
80,96,107044,2,0,L|60:152,2,50,0|0|0,0:0|0:0|0:0,0:0:0:0:
144,36,107505,6,0,B|176:36|176:36|216:56|216:56|252:56,1,100,0|0,0:0|0:0,0:0:0:0:
320,96,107967,1,0,0:0:0:0:
388,156,108197,2,0,P|364:208|320:232,1,100,0|0,0:0|0:0,0:0:0:0:
272,300,108659,1,0,0:0:0:0:
216,232,108890,2,0,P|175:204|156:158,1,100,0|0,0:0|0:0,0:0:0:0:
80,112,109351,1,0,0:0:0:0:
160,68,109582,5,0,0:0:0:0:
204,80,109697,1,0,0:0:0:0:
228,116,109813,1,0,0:0:0:0:
284,184,110044,1,0,0:0:0:0:
368,200,110274,2,0,B|352:268|284:272|284:272|304:360,2,200,0|0|0,0:0|0:0|0:0,0:0:0:0:
372,172,111313,1,0,0:0:0:0:
372,144,111428,1,0,0:0:0:0:
312,76,111659,5,0,0:0:0:0:
232,36,111890,1,0,0:0:0:0:
216,48,112005,1,0,0:0:0:0:
200,60,112121,1,0,0:0:0:0:
156,140,112351,1,0,0:0:0:0:
100,212,112582,1,0,0:0:0:0:
116,224,112697,1,0,0:0:0:0:
132,236,112813,1,0,0:0:0:0:
204,288,113044,5,0,0:0:0:0:
284,248,113274,2,0,P|368:208|376:172,1,100,0|0,0:0|0:0,0:0:0:0:
296,156,113736,1,0,0:0:0:0:
240,84,113967,2,0,P|164:88|140:116,1,100,0|0,0:0|0:0,0:0:0:0:
72,144,114428,2,0,P|128:184|184:176,1,100,0|0,0:0|0:0,0:0:0:0:
256,192,120428,12,0,121813,0:0:0:0:
68,192,122274,1,4,0:0:0:0:
120,120,122505,2,0,P|160:152|172:212,1,100,0|0,0:0|0:0,0:0:0:0:
220,276,122967,1,0,0:0:0:0:
308,276,123197,1,0,0:0:0:0:
338,197,123428,2,0,P|353:150|392:120,1,100,0|0,0:0|0:0,0:0:0:0:
428,204,123890,2,0,P|424:256|392:288,1,100,0|0,0:0|0:0,0:0:0:0:
320,340,124351,5,0,0:0:0:0:
228,336,124582,2,0,P|128:300|120:200,1,200,0|2,0:0|0:0,0:0:0:0:
116,208,125159,1,2,0:0:0:0:
120,200,125274,1,2,0:0:0:0:
168,124,125505,1,2,0:0:0:0:
196,208,125736,1,2,0:0:0:0:
268,272,125967,5,0,0:0:0:0:
296,188,126197,2,0,P|344:216|356:260,1,100,2|0,0:0|0:0,0:0:0:0:
416,188,126659,1,0,0:0:0:0:
400,100,126890,2,0,B|308:64|308:64|196:64,1,200,2|0,0:0|0:0,0:0:0:0:
124,32,127582,1,0,0:0:0:0:
64,100,127813,2,0,P|76:188|148:272,1,200,0|0,0:0|0:0,0:0:0:0:
168,148,128505,2,0,P|236:232|340:264,1,200,0|0,0:0|0:0,0:0:0:0:
412,260,129197,6,0,P|460:228|480:188,1,100,0|0,0:0|0:0,0:0:0:0:
412,132,129659,1,0,0:0:0:0:
328,104,129890,2,0,P|352:52|396:20,1,100,0|0,0:0|0:0,0:0:0:0:
412,132,130351,2,0,P|360:200|344:208,1,100,0|0,0:0|0:0,0:0:0:0:
272,156,130813,2,0,P|200:168|168:192,2,100,0|0|0,0:0|0:0|0:0,0:0:0:0:
328,228,131505,5,0,0:0:0:0:
260,284,131736,2,0,P|196:288|168:232,1,100,0|0,0:0|0:0,0:0:0:0:
232,196,132197,2,0,L|124:164,1,100,0|2,0:0|0:0,0:0:0:0:
120,164,132544,1,2,0:0:0:0:
104,160,132659,1,2,0:0:0:0:
132,72,132890,2,0,B|180:44|180:44|228:40,1,100,2|2,0:0|0:0,0:0:0:0:
288,104,133351,5,0,0:0:0:0:
368,148,133582,2,0,P|416:196|448:200,1,100,0|0,0:0|0:0,0:0:0:0:
452,108,134044,1,0,0:0:0:0:
392,44,134274,2,0,P|336:60|304:96,1,100,0|0,0:0|0:0,0:0:0:0:
304,180,134736,2,0,P|256:232|188:256,1,100,0|0,0:0|0:0,0:0:0:0:
148,212,135197,5,0,0:0:0:0:
100,136,135428,1,0,0:0:0:0:
152,60,135659,2,0,B|188:112|188:112|256:84|324:112,1,200,0|2,0:0|0:0,0:0:0:0:
340,88,136236,1,2,0:0:0:0:
360,60,136351,1,2,0:0:0:0:
420,128,136582,1,2,0:0:0:0:
440,216,136813,6,0,P|424:280|396:308,1,100,0|0,0:0|0:0,0:0:0:0:
344,236,137274,2,0,P|288:296|272:340,1,100,0|0,0:0|0:0,0:0:0:0:
372,320,137736,1,0,0:0:0:0:
344,236,137967,2,0,P|303:207|255:195,1,100,0|0,0:0|0:0,0:0:0:0:
220,288,138428,1,0,0:0:0:0:
172,212,138659,2,0,P|108:192|80:168,1,100,0|0,0:0|0:0,0:0:0:0:
164,128,139121,5,0,0:0:0:0:
232,68,139351,2,0,B|320:68|320:68|384:72|404:148,1,200,0|2,0:0|0:0,0:0:0:0:
404,180,139928,1,2,0:0:0:0:
404,224,140044,1,2,0:0:0:0:
336,284,140274,2,0,B|280:320|280:320|224:336,1,100,2|2,0:0|0:0,0:0:0:0:
244,236,140736,6,0,B|211:245|211:245|155:281,1,100,2|2,0:0|0:0,0:0:0:0:
60,332,141197,1,0,0:0:0:0:
76,244,141428,1,2,0:0:0:0:
84,156,141659,2,0,P|176:76|252:100,1,200,0|2,0:0|0:0,0:0:0:0:
312,152,142351,1,0,0:0:0:0:
404,156,142582,2,0,P|456:240|404:324,1,200,0|0,0:0|0:0,0:0:0:0:
356,240,143274,2,0,B|276:204|224:268|160:240,1,200,0|0,0:0|0:0,0:0:0:0:
72,232,143967,6,0,L|72:120,1,100,0|0,0:0|0:0,0:0:0:0:
140,72,144428,1,0,0:0:0:0:
228,88,144659,1,0,0:0:0:0:
300,144,144890,2,0,P|340:180|392:184,1,100,0|0,0:0|0:0,0:0:0:0:
376,96,145351,1,0,0:0:0:0:
468,92,145582,2,0,P|456:148|404:184,1,100,0|0,0:0|0:0,0:0:0:0:
336,196,146044,5,0,0:0:0:0:
288,272,146274,2,0,P|216:304|172:308,1,100,0|0,0:0|0:0,0:0:0:0:
104,308,146736,2,0,P|55:296|11:272,1,100,0|0,0:0|0:0,0:0:0:0:
32,184,147197,1,2,0:0:0:0:
56,148,147313,1,2,0:0:0:0:
96,128,147428,1,2,0:0:0:0:
140,204,147659,6,0,P|176:248|220:264,1,100,2|2,0:0|0:0,0:0:0:0:
304,280,148121,1,0,0:0:0:0:
388,252,148351,2,0,P|432:208|428:160,1,100,0|0,0:0|0:0,0:0:0:0:
344,176,148813,2,0,L|236:212,1,100,0|0,0:0|0:0,0:0:0:0:
200,132,149274,2,0,L|300:96,1,100,0|0,0:0|0:0,0:0:0:0:
236,28,149736,1,0,0:0:0:0:
152,56,149967,1,0,0:0:0:0:
200,132,150197,5,0,0:0:0:0:
208,280,150428,2,0,P|316:236|328:160,1,200,0|2,0:0|0:0,0:0:0:0:
328,163,151005,1,2,0:0:0:0:
328,163,151121,1,2,0:0:0:0:
376,300,151351,1,2,0:0:0:0:
424,224,151582,1,0,0:0:0:0:
420,132,151813,1,0,0:0:0:0:
120,60,166582,6,0,P|204:56|256:156,1,200,0|0,0:0|0:0,0:0:0:0:
168,140,167274,1,0,0:0:0:0:
100,196,167505,2,0,P|160:232|208:220,1,100,0|0,0:0|0:0,0:0:0:0:
264,276,167967,2,0,P|328:256|372:280,1,100,0|0,0:0|0:0,0:0:0:0:
416,200,168428,1,0,0:0:0:0:
384,116,168659,1,0,0:0:0:0:
340,40,168890,6,0,B|288:64|288:64|216:80,1,100,0|0,0:0|0:0,0:0:0:0:
280,156,169351,1,0,0:0:0:0:
232,232,169582,2,0,P|204:292|152:308,2,100,2|2|2,0:0|0:0|0:0,0:0:0:0:
200,148,170274,1,0,0:0:0:0:
188,60,170505,2,0,P|124:80|104:120,2,100,0|0|0,0:0|0:0|0:0,0:0:0:0:
276,76,171197,2,0,P|348:124|368:240,1,200,0|8,0:0|0:0,0:0:0:0:
300,284,171890,1,0,0:0:0:0:
188,152,172121,6,0,P|218:233|166:338,1,200,0|8,0:0|0:0,0:0:0:0:
104,272,172813,1,0,0:0:0:0:
60,184,173044,2,0,B|72:120|72:120|120:152|184:136,1,150.000005722046,0|0,0:0|0:0,0:0:0:0:
136,60,173736,1,0,0:0:0:0:
224,84,173967,1,0,0:0:0:0:
284,148,174197,6,0,L|284:252,1,100,0|0,0:0|0:0,0:0:0:0:
204,292,174659,1,0,0:0:0:0:
116,268,174890,2,0,P|168:208|228:220,1,100,0|0,0:0|0:0,0:0:0:0:
272,204,175351,1,0,0:0:0:0:
360,200,175582,2,0,P|436:176|400:64,1,200,0|0,0:0|0:0,0:0:0:0:
332,64,176274,5,0,0:0:0:0:
244,84,176505,2,0,P|220:128|168:156,1,100,0|0,0:0|0:0,0:0:0:0:
100,200,176967,1,2,0:0:0:0:
124,52,177197,1,2,0:0:0:0:
236,152,177428,1,2,0:0:0:0:
252,240,177659,2,0,P|288:296|320:308,1,100,0|0,0:0|0:0,0:0:0:0:
408,296,178121,6,0,P|456:256|460:208,1,100,0|0,0:0|0:0,0:0:0:0:
448,136,178582,2,0,B|392:88|340:128|340:128|296:160|248:136,1,200,0|8,0:0|0:0,0:0:0:0:
284,60,179274,1,0,0:0:0:0:
200,64,179505,2,0,P|148:148|200:224,1,200,0|8,0:0|0:0,0:0:0:0:
240,144,180197,1,0,0:0:0:0:
316,200,180428,2,0,P|352:228|344:328,1,150.000005722046,2|2,0:0|0:0,0:0:0:0:
264,296,181121,5,0,0:0:0:0:
180,324,181351,2,0,B|116:336|80:312|80:308,1,100,4|0,0:0|0:0,0:0:0:0:
36,236,181813,1,0,0:0:0:0:
40,144,182044,2,0,P|68:88|108:64,1,100,0|0,0:0|0:0,0:0:0:0:
188,76,182505,1,0,0:0:0:0:
128,144,182736,2,0,B|172:176|172:176|228:180,1,100,0|0,0:0|0:0,0:0:0:0:
188,264,183197,5,0,0:0:0:0:
268,304,183428,1,0,0:0:0:0:
360,300,183659,2,0,P|448:252|456:160,1,200,0|2,0:0|0:0,0:0:0:0:
456,160,184236,1,2,0:0:0:0:
456,160,184351,1,2,0:0:0:0:
384,108,184582,2,0,P|336:120|304:184,1,100,2|2,0:0|0:0,0:0:0:0:
232,212,185044,5,0,0:0:0:0:
148,244,185274,1,0,0:0:0:0:
164,156,185505,1,0,0:0:0:0:
232,212,185736,1,0,0:0:0:0:
236,124,185967,2,0,B|344:124|344:124|436:176,1,200,2|2,0:0|0:0,0:0:0:0:
436,80,186659,1,0,0:0:0:0:
352,48,186890,6,0,B|252:48|252:48|132:80,1,200,0|0,0:0|0:0,0:0:0:0:
64,124,187582,2,0,P|80:224|200:236,1,200,0|0,0:0|0:0,0:0:0:0:
272,252,188274,1,0,0:0:0:0:
367,282,188505,1,0,0:0:0:0:
425,202,188736,1,0,0:0:0:0:
367,121,188967,1,0,0:0:0:0:
272,152,189197,1,0,0:0:0:0:
272,252,189428,6,0,P|232:312|188:324,1,100,0|0,0:0|0:0,0:0:0:0:
116,320,189890,1,0,0:0:0:0:
48,264,190121,1,0,0:0:0:0:
132,232,190351,2,0,P|184:216|204:84,1,200,0|0,0:0|0:0,0:0:0:0:
136,132,191044,2,0,P|164:178|297:166,1,200,0|2,0:0|0:0,0:0:0:0:
304,156,191621,1,2,0:0:0:0:
308,144,191736,1,2,0:0:0:0:
396,124,191967,6,0,L|400:228,1,100,2|2,0:0|0:0,0:0:0:0:
328,280,192428,1,0,0:0:0:0:
244,308,192659,1,0,0:0:0:0:
228,220,192890,2,0,P|164:196|124:216,1,100,0|0,0:0|0:0,0:0:0:0:
164,292,193351,2,0,P|104:308|64:284,1,100,0|0,0:0|0:0,0:0:0:0:
64,204,193813,1,0,0:0:0:0:
124,136,194044,1,0,0:0:0:0:
152,220,194274,6,0,L|280:220,1,100,0|0,0:0|0:0,0:0:0:0:
276,132,194736,2,0,B|376:132|316:248|460:248,1,200,0|2,0:0|0:0,0:0:0:0:
472,232,195313,2,0,L|472:168,1,50,2|2,0:0|0:0,0:0:0:0:
432,100,195659,1,2,0:0:0:0:
260,44,195890,2,0,L|360:44,1,100,0|0,0:0|0:0,0:0:0:0:
176,76,196351,5,0,0:0:0:0:
240,140,196582,1,0,0:0:0:0:
196,220,196813,1,0,0:0:0:0:
112,200,197044,2,0,P|156:140|264:176,1,200,0|0,0:0|0:0,0:0:0:0:
284,260,197736,2,0,P|304:296|360:316,1,100,0|0,0:0|0:0,0:0:0:0:
364,228,198197,1,0,0:0:0:0:
436,284,198428,6,0,B|480:200|424:136|356:140,1,200,0|2,0:0|0:0,0:0:0:0:
316,140,199005,1,2,0:0:0:0:
272,144,199121,1,2,0:0:0:0:
184,160,199351,2,0,P|144:216|144:256,1,100,2|2,0:0|0:0,0:0:0:0:
56,224,199813,2,0,P|84:168|68:116,1,100,0|0,0:0|0:0,0:0:0:0:
132,88,200274,2,0,P|172:128|224:140,1,100,0|0,0:0|0:0,0:0:0:0:
204,48,200736,2,0,P|352:104|352:148,1,200,2|2,0:0|0:0,0:0:0:0:
360,208,201428,1,0,0:0:0:0:
352,296,201659,6,0,P|256:320|160:296,1,200,0|0,0:0|0:0,0:0:0:0:
160,204,202351,2,0,P|256:180|352:204,1,200,0|0,0:0|0:0,0:0:0:0:
392,124,203044,1,0,0:0:0:0:
320,72,203274,1,0,0:0:0:0:
260,140,203505,1,0,0:0:0:0:
332,192,203736,1,0,0:0:0:0:
332,284,203967,6,0,P|264:308|216:304,1,100,0|0,0:0|0:0,0:0:0:0:
176,244,204428,2,0,P|112:248|72:268,2,100,0|0|0,0:0|0:0|0:0,0:0:0:0:
128,168,205121,2,0,B|204:108|204:108|320:88,1,200,0|0,0:0|0:0,0:0:0:0:
372,152,205813,1,0,0:0:0:0:
304,212,206044,1,0,0:0:0:0:
388,240,206274,2,0,P|408:240|444:256,2,50,2|2|2,0:0|0:0|0:0,0:0:0:0:
324,304,206736,6,0,P|256:296|232:268,1,100,2|2,0:0|0:0,0:0:0:0:
188,200,207197,1,0,0:0:0:0:
100,188,207428,2,0,P|228:60|356:188,1,400,0|0,0:0|0:0,0:0:0:0:
268,204,208582,5,0,0:0:0:0:
176,208,208813,2,0,P|152:148|112:128,1,100,0|0,0:0|0:0,0:0:0:0:
84,212,209274,2,0,P|108:272|148:292,1,100,0|0,0:0|0:0,0:0:0:0:
176,208,209736,2,0,L|276:208,1,100,0|2,0:0|0:0,0:0:0:0:
276,208,210082,1,2,0:0:0:0:
276,208,210197,1,2,0:0:0:0:
324,132,210428,2,0,P|380:208|324:284,1,200,2|0,0:0|0:0,0:0:0:0:
