osu file format v12

[General]
AudioFilename: PinkiePieSwear - Sunshine and Celery Stalks.mp3
AudioLeadIn: 0
PreviewTime: 36923
Countdown: 1
SampleSet: None
StackLeniency: 0.7
Mode: 0
LetterboxInBreaks: 1

[Editor]
DistanceSpacing: 0.8
BeatDivisor: 4
GridSize: 32

[Metadata]
Title:Sunshine and Celery Stalks
TitleUnicode:Sunshine and Celery Stalks
Artist:PinkiePieSwear
ArtistUnicode:PinkiePieSwear
Creator:Aibyouka
Version:Normal
Source:My Little Pony
Tags:mlp fan music trance house
BeatmapID:276851
BeatmapSetID:105477

[Difficulty]
HPDrainRate:4
CircleSize:5
OverallDifficulty:5
ApproachRate:5
SliderMultiplier:1.4
SliderTickRate:1

[Events]
//Background and Video events
0,0,"_vector__i_didn_t_learn_anything_by_luckydonald-d5sowor.jpg",0,0
//Break Periods
2,96200,124338
//Storyboard Layer 0 (Background)
//Storyboard Layer 1 (Fail)
//Storyboard Layer 2 (Pass)
//Storyboard Layer 3 (Foreground)
//Storyboard Sound Samples
//Background Colour Transformations
3,100,0,0,0

[TimingPoints]
0,461.538461538462,4,1,0,100,1,0

[Colours]
Combo1 : 255,128,128
Combo2 : 255,128,0
Combo3 : 0,128,64
Combo4 : 255,0,0

[HitObjects]
128,96,36923,1,0,0:0:0:0:
128,192,37384,1,0,0:0:0:0:
224,192,37846,2,0,L|384:192,1,140
384,192,38538,1,0,0:0:0:0:
352,320,39000,5,0,0:0:0:0:
320,288,39230,1,0,0:0:0:0:
288,256,39461,1,0,0:0:0:0:
96,64,39923,1,0,0:0:0:0:
128,96,40153,1,0,0:0:0:0:
160,128,40384,1,0,0:0:0:0:
160,256,40846,5,0,0:0:0:0:
224,256,41076,1,0,0:0:0:0:
288,256,41307,1,0,0:0:0:0:
288,256,41538,2,0,L|448:256,1,140
416,192,42461,2,0,L|256:192,1,140
288,128,43384,5,0,0:0:0:0:
192,128,43846,1,0,0:0:0:0:
160,128,44076,1,0,0:0:0:0:
160,224,44538,1,0,0:0:0:0:
192,224,44769,1,0,0:0:0:0:
288,192,45230,1,0,0:0:0:0:
288,96,45692,5,0,0:0:0:0:
192,96,45923,1,0,0:0:0:0:
192,192,46384,1,0,0:0:0:0:
192,224,46615,1,0,0:0:0:0:
192,256,46846,1,0,0:0:0:0:
320,256,47307,1,0,0:0:0:0:
320,224,47538,1,0,0:0:0:0:
320,192,47769,1,0,0:0:0:0:
320,96,48230,5,0,0:0:0:0:
224,96,48461,1,0,0:0:0:0:
128,96,48692,1,0,0:0:0:0:
224,192,48923,2,0,L|224:352,1,140
256,192,49846,12,0,51230,0:0:0:0:
320,192,51692,5,0,0:0:0:0:
256,192,52153,1,0,0:0:0:0:
192,192,53076,1,0,0:0:0:0:
128,192,53307,1,0,0:0:0:0:
128,96,53769,5,0,0:0:0:0:
160,96,54000,1,0,0:0:0:0:
192,96,54230,1,0,0:0:0:0:
192,160,54692,1,0,0:0:0:0:
192,192,54923,1,0,0:0:0:0:
192,224,55153,1,0,0:0:0:0:
288,224,55615,5,0,0:0:0:0:
320,192,55846,1,0,0:0:0:0:
352,160,56076,1,0,0:0:0:0:
352,160,56307,2,0,P|352:64|320:64,1,140
256,64,57230,2,0,P|160:64|160:32,1,140
96,96,58153,2,0,P|96:192|128:192,1,140
192,192,58846,1,0,0:0:0:0:
320,96,59307,5,0,0:0:0:0:
320,160,59538,1,0,0:0:0:0:
320,224,60000,1,0,0:0:0:0:
320,288,60461,1,0,0:0:0:0:
320,352,60692,1,0,0:0:0:0:
256,320,61153,5,0,0:0:0:0:
224,288,61384,1,0,0:0:0:0:
192,256,61615,1,0,0:0:0:0:
224,192,62076,1,0,0:0:0:0:
256,160,62307,1,0,0:0:0:0:
288,128,62538,1,0,0:0:0:0:
352,128,63000,5,0,0:0:0:0:
384,160,63230,1,0,0:0:0:0:
416,192,63461,1,0,0:0:0:0:
384,224,63692,2,0,L|224:224,3,140
192,224,65538,1,0,0:0:0:0:
128,224,66000,1,0,0:0:0:0:
128,128,66461,5,4,0:0:0:0:
192,128,66923,1,0,0:0:0:0:
256,128,67384,1,0,0:0:0:0:
320,128,67846,1,0,0:0:0:0:
320,192,68307,6,0,L|320:352,1,140,0|8,0:0|0:0,0:0:0:0:
224,320,69230,2,0,L|64:320,1,140,0|8,0:0|0:0,0:0:0:0:
64,224,70384,1,0,0:0:0:0:
64,192,70615,1,0,0:0:0:0:
64,160,70846,1,0,0:0:0:0:
128,96,71076,2,0,P|192:160|160:192,3,140
160,256,72923,1,2,0:0:0:0:
160,320,73384,1,2,0:0:0:0:
352,160,74076,5,0,0:0:0:0:
320,160,74307,1,0,0:0:0:0:
256,160,74769,1,0,0:0:0:0:
192,160,75230,1,0,0:0:0:0:
160,160,75461,1,0,0:0:0:0:
160,256,75923,1,0,0:0:0:0:
320,288,76846,5,0,0:0:0:0:
320,256,77076,1,0,0:0:0:0:
320,224,77307,1,0,0:0:0:0:
320,128,77769,1,0,0:0:0:0:
288,128,78000,1,0,0:0:0:0:
256,128,78230,1,0,0:0:0:0:
256,192,78692,12,2,80307,0:0:0:0:
256,192,80769,5,2,0:0:0:0:
192,128,81230,1,0,0:0:0:0:
128,128,81692,1,0,0:0:0:0:
320,128,82153,1,0,0:0:0:0:
384,128,82615,1,0,0:0:0:0:
256,128,83076,6,0,L|160:128,2,70
256,224,84000,2,0,L|256:320,2,70
256,160,85153,1,0,0:0:0:0:
256,128,85384,1,0,0:0:0:0:
256,96,85615,1,0,0:0:0:0:
160,256,85846,6,0,L|320:256,1,140
320,320,86769,2,0,L|160:320,1,140
160,320,87692,1,2,0:0:0:0:
96,320,88153,1,2,0:0:0:0:
160,160,88846,5,0,0:0:0:0:
192,160,89076,1,0,0:0:0:0:
256,160,89538,1,0,0:0:0:0:
320,160,90000,1,0,0:0:0:0:
352,160,90230,1,0,0:0:0:0:
352,256,90692,5,0,0:0:0:0:
352,288,90923,1,0,0:0:0:0:
352,320,91153,1,0,0:0:0:0:
256,320,91615,1,0,0:0:0:0:
256,288,91846,1,0,0:0:0:0:
256,256,92076,1,0,0:0:0:0:
256,160,92538,1,0,0:0:0:0:
256,128,92769,1,0,0:0:0:0:
256,96,93000,1,0,0:0:0:0:
256,192,93230,12,2,95076,0:0:0:0:
256,224,95538,5,2,0:0:0:0:
256,160,96000,1,4,0:0:0:0:
256,192,125538,5,0,0:0:0:0:
160,192,126000,1,0,0:0:0:0:
128,192,126230,1,0,0:0:0:0:
96,192,126461,1,0,0:0:0:0:
352,192,126923,1,0,0:0:0:0:
256,64,127615,5,0,0:0:0:0:
256,96,127846,1,0,0:0:0:0:
224,160,128307,1,0,0:0:0:0:
256,192,128538,1,0,0:0:0:0:
224,224,128769,1,0,0:0:0:0:
256,256,129000,1,0,0:0:0:0:
352,320,129461,5,0,0:0:0:0:
384,288,129692,1,0,0:0:0:0:
352,256,129923,1,0,0:0:0:0:
384,224,130153,1,0,0:0:0:0:
256,192,130615,1,0,0:0:0:0:
256,192,131076,12,0,132461,0:0:0:0:
128,192,133384,5,0,0:0:0:0:
384,192,134076,1,0,0:0:0:0:
256,128,134307,2,0,L|256:288,3,140
256,288,136153,1,0,0:0:0:0:
128,288,136846,5,0,0:0:0:0:
128,192,137769,1,0,0:0:0:0:
128,160,138000,1,0,0:0:0:0:
128,64,138692,1,0,0:0:0:0:
128,32,138923,1,0,0:0:0:0:
256,192,139384,12,0,139846,0:0:0:0:
352,64,140769,5,0,0:0:0:0:
352,96,141000,1,0,0:0:0:0:
352,128,141230,1,0,0:0:0:0:
352,192,141692,1,0,0:0:0:0:
256,192,142384,5,0,0:0:0:0:
224,192,142615,1,0,0:0:0:0:
160,192,143076,1,0,0:0:0:0:
128,224,143307,1,0,0:0:0:0:
160,256,143538,1,0,0:0:0:0:
128,288,143769,1,0,0:0:0:0:
160,352,144230,5,0,0:0:0:0:
192,352,144461,1,0,0:0:0:0:
224,352,144692,1,0,0:0:0:0:
256,352,144923,1,0,0:0:0:0:
320,352,145384,1,0,0:0:0:0:
256,192,145846,12,0,147230,0:0:0:0:
256,192,148153,5,0,0:0:0:0:
352,192,148846,1,0,0:0:0:0:
384,160,149076,1,0,0:0:0:0:
416,128,149307,1,0,0:0:0:0:
416,64,149769,1,0,0:0:0:0:
416,0,150000,1,0,0:0:0:0:
352,32,150461,5,0,0:0:0:0:
320,64,150692,1,0,0:0:0:0:
288,96,150923,1,0,0:0:0:0:
320,128,151153,1,0,0:0:0:0:
288,192,151615,1,0,0:0:0:0:
224,192,152538,1,0,0:0:0:0:
192,192,152769,1,0,0:0:0:0:
256,192,153230,12,4,155076,0:0:0:0:
