osu file format v12

[General]
AudioFilename: PinkiePieSwear - Sunshine and Celery Stalks.mp3
AudioLeadIn: 0
PreviewTime: 36923
Countdown: 1
SampleSet: None
StackLeniency: 0.7
Mode: 0
LetterboxInBreaks: 1

[Editor]
DistanceSpacing: 0.8
BeatDivisor: 2
GridSize: 32

[Metadata]
Title:Sunshine and Celery Stalks
TitleUnicode:Sunshine and Celery Stalks
Artist:PinkiePieSwear
ArtistUnicode:PinkiePieSwear
Creator:Aibyouka
Version:Easy
Source:My Little Pony
Tags:mlp fan music trance house
BeatmapID:276850
BeatmapSetID:105477

[Difficulty]
HPDrainRate:3
CircleSize:4
OverallDifficulty:5
ApproachRate:5
SliderMultiplier:1.4
SliderTickRate:1

[Events]
//Background and Video events
0,0,"_vector__i_didn_t_learn_anything_by_luckydonald-d5sowor.jpg",0,0
//Break Periods
//Storyboard Layer 0 (Background)
//Storyboard Layer 1 (Fail)
//Storyboard Layer 2 (Pass)
//Storyboard Layer 3 (Foreground)
//Storyboard Sound Samples
//Background Colour Transformations
3,100,0,0,0

[TimingPoints]
0,461.538461538462,4,1,0,100,1,0

[Colours]
Combo1 : 255,128,128
Combo2 : 255,128,0
Combo3 : 0,128,64
Combo4 : 255,0,0

[HitObjects]
64,96,36923,1,0,0:0:0:0:
64,192,37384,1,0,0:0:0:0:
160,192,37846,2,0,P|192:128|160:64,1,140
160,64,38538,1,0,0:0:0:0:
288,64,39000,2,0,L|384:64,2,70
352,160,39923,2,0,L|352:256,2,70
256,224,40846,6,0,L|160:224,2,70,0|0|0,0:0|0:0|0:0,0:0:0:0:
192,160,41538,1,0,0:0:0:0:
192,96,42000,1,0,0:0:0:0:
288,32,42461,1,0,0:0:0:0:
288,96,42923,1,0,0:0:0:0:
288,160,43384,1,0,0:0:0:0:
288,224,43846,2,0,L|192:224,1,70
192,224,44538,5,0,0:0:0:0:
192,288,44769,1,0,0:0:0:0:
192,352,45230,1,0,0:0:0:0:
192,352,45692,2,0,L|288:352,1,70
320,320,46384,2,0,P|352:288|320:256,2,70
288,224,47307,2,0,L|256:160,2,70
192,160,48230,5,0,0:0:0:0:
128,160,48461,1,0,0:0:0:0:
64,160,48692,1,0,0:0:0:0:
64,224,48923,2,0,L|64:384,1,140
256,192,49846,12,0,51230,0:0:0:0:
192,192,51692,5,0,0:0:0:0:
288,192,52153,1,0,0:0:0:0:
288,96,52615,2,0,P|192:96|192:64,1,140
192,64,53307,1,0,0:0:0:0:
128,96,53769,2,0,L|128:160|128:192,2,70
160,224,54692,2,0,L|224:288,2,70
288,288,55615,5,0,0:0:0:0:
320,224,55846,1,0,0:0:0:0:
352,160,56076,1,0,0:0:0:0:
288,128,56307,2,0,P|224:96|160:128,1,140
160,192,57230,2,0,P|160:288|128:288,1,140
64,288,58153,2,0,L|64:128,1,140
64,148,58846,1,0,0:0:0:0:
128,192,59307,5,0,0:0:0:0:
192,192,59538,1,0,0:0:0:0:
288,192,60000,1,0,0:0:0:0:
384,192,60461,1,0,0:0:0:0:
448,192,60692,1,0,0:0:0:0:
448,96,61153,2,0,L|352:96,2,70
288,96,62076,2,0,L|192:96,2,70
128,96,63000,5,0,0:0:0:0:
64,96,63230,1,0,0:0:0:0:
0,96,63461,1,0,0:0:0:0:
0,160,63692,1,0,0:0:0:0:
0,224,64153,1,0,0:0:0:0:
256,192,64615,12,4,66461,0:0:0:0:
64,64,67384,6,0,L|64:224,2,140
96,64,69461,1,0,0:0:0:0:
160,64,69692,1,0,0:0:0:0:
224,64,69923,1,0,0:0:0:0:
320,64,70384,5,0,0:0:0:0:
384,64,70615,1,0,0:0:0:0:
448,64,70846,1,0,0:0:0:0:
448,160,71076,2,0,P|448:256|416:256,1,140
384,288,72000,2,0,P|288:288|288:256,1,140
256,224,72923,2,2,L|160:96,1,140,2|2,0:0|0:0,0:0:0:0:
64,64,74076,5,0,0:0:0:0:
128,64,74307,1,0,0:0:0:0:
224,64,74769,1,0,0:0:0:0:
320,64,75230,1,0,0:0:0:0:
384,64,75461,1,0,0:0:0:0:
352,160,75923,1,0,0:0:0:0:
96,160,76846,1,0,0:0:0:0:
96,224,77076,1,0,0:0:0:0:
96,288,77307,1,0,0:0:0:0:
192,288,77769,5,0,0:0:0:0:
256,288,78000,1,0,0:0:0:0:
320,288,78230,1,0,0:0:0:0:
320,224,78461,2,0,L|320:64,1,140
256,64,79384,2,0,P|160:64|128:96,1,140
128,192,80307,1,2,0:0:0:0:
128,288,80769,1,2,0:0:0:0:
224,256,81230,5,0,0:0:0:0:
320,256,81692,1,0,0:0:0:0:
416,256,82615,1,0,0:0:0:0:
480,256,82846,1,0,0:0:0:0:
480,160,83307,1,0,0:0:0:0:
416,160,83538,1,0,0:0:0:0:
352,160,83769,1,0,0:0:0:0:
256,160,84230,1,0,0:0:0:0:
192,160,84461,1,0,0:0:0:0:
128,160,84692,1,0,0:0:0:0:
32,160,85153,6,0,L|32:224,2,70
96,288,85846,2,0,P|128:320|224:288,1,140
224,224,86769,2,0,P|224:160|288:96,1,140
352,128,87692,1,2,0:0:0:0:
448,128,88153,1,2,0:0:0:0:
448,224,88615,6,0,L|352:224,2,70
288,224,89538,1,0,0:0:0:0:
192,224,90000,1,0,0:0:0:0:
128,224,90230,1,0,0:0:0:0:
32,224,90692,1,0,0:0:0:0:
32,160,90923,1,0,0:0:0:0:
32,96,91153,1,0,0:0:0:0:
128,96,91615,1,0,0:0:0:0:
192,96,91846,1,0,0:0:0:0:
256,96,92076,1,0,0:0:0:0:
320,192,92538,6,0,L|352:256,2,70
224,192,93230,1,0,0:0:0:0:
128,192,93692,1,0,0:0:0:0:
256,192,94153,12,4,96000,0:0:0:0:
