osu file format v5

[General]
AudioFilename: Pink - So What.mp3
AudioLeadIn: 0
PreviewTime: -1
Countdown: 1
SampleSet: Normal
StackLeniency: 0.7
Mode: 0
LetterboxInBreaks: 1

[Metadata]
Title:So What
Artist:Pink
Creator:steveaustin515
Version:Normal
Source:
Tags:

[Difficulty]
HPDrainRate:7
CircleSize:2
OverallDifficulty:3
SliderMultiplier:1
SliderTickRate:3

[Events]
//Background and Video events
//Break Periods
2,26387,32965
2,65464,74901
//Storyboard Layer 0 (Background)
//Storyboard Layer 1 (Failing)
//Storyboard Layer 2 (Passing)
//Storyboard Layer 3 (Foreground)
//Storyboard Sound Samples
//Background Colour Transformations
3,100,163,162,255

[TimingPoints]
11932,476.190476190476,4,1,0,100,1

[Colours]
Combo1 : 255,173,0
Combo2 : 0,248,37
Combo3 : 51,93,255
Combo4 : 248,40,0

[HitObjects]
64,192,11890,1,0
128,96,12405,1,0
224,96,12878,1,0
152,192,13825,2,0,B|352:192,1,200
448,192,15718,5,0
384,96,16191,1,0
288,96,16664,1,0
352,192,17611,2,0,B|128:192,1,200
32,0,19504,5,0
32,96,19978,1,0
32,192,20451,1,0
32,288,20924,1,0
128,256,21397,2,2,B|224:224,2,100
480,32,23350,5,0
480,128,23823,1,0
480,224,24296,1,0
480,320,24770,1,0
384,288,25243,2,2,B|320:192,2,100
32,192,34295,5,0
96,128,34768,1,0
96,256,35242,1,0
128,192,35715,1,0
128,192,36188,2,0,B|352:192,1,200
320,96,37608,1,0
384,192,38081,2,0,B|160:192,1,200
64,224,39501,5,0
64,128,39975,1,0
128,224,40448,2,4,B|160:128|192:96|224:64|288:64|352:128|352:256,1,400
288,288,42814,1,4
352,192,43347,5,0
416,160,43820,1,0
280,151,44293,2,0,B|160:160,1,100
96,160,45240,5,0
128,256,45713,1,0
192,192,46246,2,0,B|299:192,1,100
384,288,47192,5,0
480,256,47666,1,0
384,192,48139,2,4,B|197:67,1,200
157,56,49559,5,0
44,60,49795,2,0,B|45:101|54:125|81:135|106:141|126:143|142:145|158:146|173:142|205:144|227:139|231:136|252:111|252:96|249:64|246:33|248:30|264:21|298:21|339:32|372:36|405:36|435:43|448:45|458:53|472:81|477:110|477:130|473:161|466:184|465:194|452:206|433:224|411:240|391:250|374:258|351:265|336:268|320:275|302:279|269:280|240:278|204:278|151:277|107:272|53:264|33:264|12:259,1,1050
101,175,55238,1,0
192,224,55712,2,0,B|403:227,1,200
192,320,57132,1,0
192,224,57605,5,0
192,128,58137,1,0
288,128,58611,1,0
288,224,59084,1,4
384,128,59557,5,0
480,128,60031,1,0
480,224,60504,1,0
384,224,60977,1,4
480,320,61451,5,0
384,320,61924,1,0
288,320,62397,1,0
288,224,62870,1,4
192,256,63344,6,4,B|192:32,2,200
32,192,76655,5,0
96,96,77129,1,0
192,32,77602,1,0
288,0,78075,1,0
384,0,78548,2,0,B|384:224,1,200
480,352,80442,5,0
384,352,80915,1,0
288,352,81388,1,0
192,352,81862,1,0
96,352,82394,2,0,B|96:128,1,200
160,88,84287,6,0,B|368:88,2,200
184,200,86713,1,0
184,296,87186,1,2
32,184,88133,6,0,B|248:184,2,200
40,288,90499,1,0
144,344,90973,1,4
256,192,91446,5,0
256,192,91919,1,0
248,192,92392,2,2,B|72:72,1,200
56,192,93812,1,0
56,296,94345,1,4
152,264,94818,5,0
240,216,95291,1,0
304,152,95765,2,0,B|400:96,1,100
288,48,96711,5,0
184,80,97185,1,0
96,152,97658,2,4,B|80:192|112:296|176:328|224:336|392:352,1,400
384,256,100024,1,4
384,168,100498,5,0
312,144,100971,1,0
232,112,101444,2,0,B|104:128,1,100
80,216,102391,5,0
96,312,102864,1,0
192,272,103338,2,0,B|296:224,1,100
136,168,104284,5,0
112,240,104757,1,0
200,296,105231,2,0,B|192:72,1,200
104,320,106710,5,0
168,272,107006,2,0,B|120:3|392:232|440:264,3,400
464,168,112863,2,0,B|328:120,3,100
392,232,114756,1,4
392,232,115229,1,4
304,280,115703,5,0
256,200,116176,1,0
216,128,116649,2,0,B|144:48,1,100
72,136,117596,5,0
80,232,118069,1,0
136,304,118601,2,0,B|240:272,1,100
264,192,119548,5,0
344,120,120021,1,0
440,216,120495,2,4,B|432:-16,1,200
336,32,121915,1,4
456,24,122388,2,4,B|456:96|448:136|408:136|344:136|280:128|272:128|256:104|248:72|248:8|200:8|168:32|168:32|128:40|104:72|88:80|40:128|0:192|88:208|184:192|200:200,1,700
40,40,126470,5,0
104,104,126943,1,0
168,32,127417,1,0
232,104,127890,1,4
304,32,128363,5,0
368,104,128837,1,0
432,32,129310,1,0
488,104,129783,1,4
440,192,130316,5,0
368,136,130789,1,0
304,200,131262,1,0
248,136,131736,1,4
200,192,132209,6,2,B|336:192,3,100
24,192,134102,5,0
64,272,134575,1,0
112,192,135049,1,0
144,272,135522,1,4
208,192,135995,5,0
240,272,136469,1,0
288,192,136942,1,0
336,272,137415,1,4
368,192,137888,5,0
432,128,138362,1,0
352,112,138835,1,0
416,48,139308,1,4
336,32,139782,5,0
256,64,140255,1,0
176,112,140728,1,0
112,48,141202,2,0,B|80:64|32:128|16:208|16:256|32:368|224:336|256:288,1,466.666666666667
256,192,144810,5,0
256,192,145284,1,0
256,192,145757,1,0
336,128,146230,1,0
240,112,146704,2,0,B|128:144,2,100
176,224,148124,5,0
96,288,148597,1,0
112,208,149070,2,0,B|96:96,1,100
176,80,150017,5,0
272,80,150490,1,0
224,160,150963,2,4,B|368:304,2,200
176,80,153330,1,4
96,128,153803,5,0
80,224,154276,1,0
144,288,154809,2,0,B|224:224,1,100
272,160,155756,5,0
336,96,156229,1,0
416,48,156702,2,0,B|416:160,1,100
416,240,157649,5,0
416,320,158122,1,0
336,272,158595,2,0,B|128:272,1,200
112,192,160015,5,0
32,112,160311,2,0,B|448:112,3,400
432,192,166168,2,0,B|320:224,3,100
352,128,168120,1,4
352,128,168594,1,4
304,64,169067,5,0
224,48,169540,1,0
160,96,170014,2,0,B|80:160,1,100
80,240,170960,5,0
160,304,171434,1,0
240,240,171907,2,0,B|304:160,1,100
288,80,172853,5,0
208,80,173327,1,0
128,80,173800,2,4,B|128:288,2,200
