osu file format v13

[General]
AudioFilename: Fuckin Perfect.mp3
AudioLeadIn: 0
PreviewTime: 108523
Countdown: 0
SampleSet: Soft
StackLeniency: 0.2
Mode: 0
LetterboxInBreaks: 1
WidescreenStoryboard: 0

[Editor]
DistanceSpacing: 2
BeatDivisor: 4
GridSize: 8
TimelineZoom: 1

[Metadata]
Title:Fuckin Perfect
TitleUnicode:Fuckin Perfect
Artist:Pink
ArtistUnicode:Pink
Creator:Dolot
Version:Hard
Source:
Tags:pink fkin perfect
BeatmapID:616643
BeatmapSetID:271199

[Difficulty]
HPDrainRate:6
CircleSize:4
OverallDifficulty:8
ApproachRate:7
SliderMultiplier:1.8
SliderTickRate:1

[Events]
//Background and Video events
0,0,"pinkk.jpg",0,0
//Break Periods
//Storyboard Layer 0 (Background)
//Storyboard Layer 1 (Fail)
//Storyboard Layer 2 (Pass)
//Storyboard Layer 3 (Foreground)
//Storyboard Sound Samples

[TimingPoints]
22432,652.207298001738,4,2,1,35,1,0
43302,-66.6666666666667,4,1,1,50,0,1
63521,-100,4,2,1,50,0,0
66782,-100,4,2,1,35,0,0
108523,-66.6666666666667,4,1,1,50,0,1
128741,-66.6666666666667,4,2,1,50,0,0
129393,-66.6666666666667,4,2,1,35,0,0
152221,-66.6666666666667,4,1,1,35,0,0
152873,-66.6666666666667,4,1,1,50,0,1
163145,-66.6666666666667,4,2,1,35,0,0
163308,-66.6666666666667,4,1,1,50,0,1
184016,-66.6666666666667,4,1,1,35,0,0
184179,-66.6666666666667,4,1,1,50,0,1
204397,-66.6666666666667,4,2,1,50,0,1
205050,-66.6666666666667,4,2,1,35,0,0

[Colours]
Combo1 : 168,191,253
Combo2 : 232,141,241
Combo3 : 82,113,237
Combo4 : 174,50,205

[HitObjects]
176,336,22432,6,0,P|264:328|264:224,1,180,0|8,0:0|0:0,0:0:0:0:
216,272,23410,1,0,0:0:0:0:
128,248,23736,1,0,0:0:0:0:
200,192,24062,1,2,0:0:0:0:
112,160,24388,1,8,0:0:0:0:
112,160,24714,1,0,0:0:0:0:
48,96,25040,6,0,B|88:88|112:40|112:40|160:72|208:64,1,180,0|8,0:0|0:0,0:0:0:0:
198,65,26019,1,0,0:0:0:0:
288,56,26345,2,0,P|344:80|368:144,1,90,0|2,0:0|0:0,0:0:0:0:
280,144,26997,2,0,P|320:192|368:192,1,90,8|0,0:0|0:0,0:0:0:0:
496,200,27649,6,0,B|408:240|512:304|328:312,1,180,0|8,0:0|0:0,0:0:0:0:
288,264,28627,1,0,0:0:0:0:
288,264,28954,2,0,B|261:285|261:285|232:272|160:320,1,90,0|2,0:0|0:0,0:0:0:0:
120,320,29606,1,8,0:0:0:0:
56,104,30095,1,0,0:0:0:0:
56,104,30258,2,0,B|88:160|80:192|80:192|112:192|184:248,2,180,0|8|0,0:0|0:0|0:0,0:0:0:0:
256,136,32215,5,8,0:0:0:0:
176,176,32541,1,0,0:0:0:0:
232,248,32867,2,0,P|296:280|432:208,2,180,0|8|0,0:0|0:0|0:0,0:0:0:0:
312,208,34497,1,2,0:0:0:0:
400,184,34823,1,8,0:0:0:0:
400,184,35150,1,0,0:0:0:0:
360,104,35476,2,0,P|304:56|120:56,2,180,0|8|0,0:0|0:0|0:0,0:0:0:0:
272,136,37106,5,2,0:0:0:0:
192,176,37432,1,8,0:0:0:0:
120,232,37758,1,0,0:0:0:0:
48,288,38084,2,0,P|112:312|248:384,1,180,0|8,0:0|0:0,0:0:0:0:
256,192,39389,12,0,40693,0:0:0:0:
256,192,42650,5,2,0:0:0:0:
367,261,43302,6,0,P|328:223|231:189,1,135.000005149842,4|0,0:0|0:0,0:0:0:0:
145,123,43954,2,0,P|184:161|281:195,1,135.000005149842,4|0,0:0|0:0,0:0:0:0:
145,261,44607,2,0,P|184:223|281:189,1,135.000005149842,4|0,0:0|0:0,0:0:0:0:
367,123,45259,2,0,P|328:161|231:195,1,135.000005149842,4|0,0:0|0:0,0:0:0:0:
256,56,45911,5,4,0:0:0:0:
256,120,46074,1,0,0:0:0:0:
200,160,46237,1,0,0:0:0:0:
256,192,46400,1,0,0:0:0:0:
312,160,46563,1,4,0:0:0:0:
216,256,46889,2,0,L|120:208,1,67.5000025749208,0|0,0:0|0:0,0:0:0:0:
296,256,47378,2,0,L|392:208,1,67.5000025749208,0|0,0:0|0:0,0:0:0:0:
256,320,47868,1,4,0:0:0:0:
256,320,48031,1,0,0:0:0:0:
256,320,48194,1,0,0:0:0:0:
32,72,48520,6,0,P|120:96|120:160,1,135.000005149842,4|0,0:0|0:0,0:0:0:0:
56,144,49172,1,4,0:0:0:0:
104,192,49335,1,0,0:0:0:0:
168,184,49498,1,0,0:0:0:0:
200,128,49661,1,0,0:0:0:0:
480,72,49824,2,0,P|392:96|392:160,1,135.000005149842,4|0,0:0|0:0,0:0:0:0:
456,144,50476,1,4,0:0:0:0:
408,192,50639,1,0,0:0:0:0:
344,184,50802,1,0,0:0:0:0:
312,128,50965,1,0,0:0:0:0:
256,80,51129,6,0,B|192:152|192:152|376:232|232:344|104:224,1,405.000015449525,4|0,0:0|0:0,0:0:0:0:
112,88,53085,1,8,0:0:0:0:
344,304,53737,5,4,0:0:0:0:
456,224,54064,1,0,0:0:0:0:
352,264,54390,1,4,0:0:0:0:
416,216,54716,1,0,0:0:0:0:
360,232,55042,1,4,0:0:0:0:
384,216,55368,1,0,0:0:0:0:
440,96,55694,6,0,P|384:56|272:64,1,135.000005149842,4|0,0:0|0:0,0:0:0:0:
184,48,56346,2,0,P|112:64|72:96,1,67.5000025749208,4|0,0:0|0:0,0:0:0:0:
144,120,56672,2,0,P|88:160|80:192,1,67.5000025749208,0|0,0:0|0:0,0:0:0:0:
144,200,56998,2,0,P|112:240|128:320,1,135.000005149842,4|0,0:0|0:0,0:0:0:0:
184,264,57488,2,0,P|216:200|144:128,1,135.000005149842,0|0,0:0|0:0,0:0:0:0:
144,200,57977,1,0,0:0:0:0:
240,104,58303,1,4,0:0:0:0:
304,88,58466,1,0,0:0:0:0:
368,80,58629,1,0,0:0:0:0:
472,168,58955,5,4,0:0:0:0:
472,168,59118,1,0,0:0:0:0:
408,192,59281,1,0,0:0:0:0:
408,192,59444,1,0,0:0:0:0:
360,240,59607,1,4,0:0:0:0:
360,240,59770,1,0,0:0:0:0:
312,288,59933,2,0,P|192:312|160:344,2,135.000005149842,0|4|0,0:0|0:0|0:0,0:0:0:0:
312,288,60749,1,0,0:0:0:0:
312,288,60912,1,4,0:0:0:0:
216,192,61238,5,0,0:0:0:0:
216,192,61401,1,0,0:0:0:0:
216,192,61564,2,0,B|88:224|8:32|240:32|344:152,1,405.000015449525,4|0,0:0|0:0,0:0:0:0:
256,304,63521,1,2,0:0:0:0:
256,320,63684,1,2,0:0:0:0:
256,336,63847,1,2,0:0:0:0:
424,64,66129,5,0,0:0:0:0:
424,64,66455,1,0,0:0:0:0:
424,64,66619,1,0,0:0:0:0:
424,64,66782,2,0,P|400:128|344:136,1,90,4|2,0:0|0:0,0:0:0:0:
336,64,67434,1,8,0:0:0:0:
280,128,67760,1,0,0:0:0:0:
328,200,68086,1,0,0:0:0:0:
328,200,68412,1,2,0:0:0:0:
400,248,68738,6,0,B|352:296|256:280|296:280|296:280|224:312,1,180,8|0,0:0|0:0,0:0:0:0:
112,248,70043,2,0,B|160:296|256:280|216:280|216:280|288:312,1,180,8|0,0:0|0:0,0:0:0:0:
256,120,71347,5,8,0:0:0:0:
176,152,71673,1,0,0:0:0:0:
256,192,71999,1,0,0:0:0:0:
256,192,72325,1,2,0:0:0:0:
256,192,72651,1,8,0:0:0:0:
336,152,72978,1,0,0:0:0:0:
40,88,73956,6,0,B|96:48|152:168|256:32,1,180,8|0,0:0|0:0,0:0:0:0:
256,144,74934,1,2,0:0:0:0:
472,88,75260,2,0,B|416:48|360:168|256:32,1,180,8|0,0:0|0:0,0:0:0:0:
144,264,76565,5,8,0:0:0:0:
216,320,76891,1,0,0:0:0:0:
304,320,77217,1,0,0:0:0:0:
376,264,77543,1,2,0:0:0:0:
440,200,77869,2,0,L|368:80,1,90,8|0,0:0|0:0,0:0:0:0:
440,120,78358,1,0,0:0:0:0:
480,112,78521,2,0,L|408:-8,1,90,0|2,0:0|0:0,0:0:0:0:
344,64,79174,6,0,B|296:96|304:144|304:144|264:144|224:216,1,180,8|0,0:0|0:0,0:0:0:0:
216,104,80152,1,2,0:0:0:0:
312,216,80478,2,0,B|264:248|272:296|272:296|232:296|192:368,1,180,8|0,0:0|0:0,0:0:0:0:
184,264,81456,1,2,0:0:0:0:
40,72,81782,5,8,0:0:0:0:
80,152,82108,1,0,0:0:0:0:
168,176,82435,2,0,B|200:144|200:144|232:176|232:176|264:144|264:144|296:176|296:176|328:144|328:144|360:176|360:176|384:144,2,270,0|0|8,0:0|0:0|0:0,0:0:0:0:
360,176,85043,1,0,0:0:0:0:
408,248,85370,1,2,0:0:0:0:
320,248,85696,1,8,0:0:0:0:
152,320,86348,5,0,0:0:0:0:
152,320,86674,1,2,0:0:0:0:
72,288,87000,1,8,0:0:0:0:
128,216,87326,1,0,0:0:0:0:
40,200,87652,2,0,L|40:88,1,90,0|2,0:0|0:0,0:0:0:0:
128,136,88304,2,0,L|128:24,1,90,8|0,0:0|0:0,0:0:0:0:
216,48,88957,6,0,P|240:64|320:40,1,90,0|2,0:0|0:0,0:0:0:0:
344,136,89609,2,0,P|320:120|240:144,1,90,8|0,0:0|0:0,0:0:0:0:
344,88,90261,1,0,0:0:0:0:
432,120,90587,1,2,0:0:0:0:
464,208,90913,1,8,0:0:0:0:
464,208,91239,1,0,0:0:0:0:
376,176,91565,6,0,B|352:208|336:200|336:200|304:248,1,90,0|2,0:0|0:0,0:0:0:0:
312,320,92218,2,0,B|336:288|352:296|352:296|384:248,1,90,8|0,0:0|0:0,0:0:0:0:
312,320,92870,1,0,0:0:0:0:
224,328,93196,1,2,0:0:0:0:
136,336,93522,1,8,0:0:0:0:
48,344,93848,1,0,0:0:0:0:
48,256,94174,6,0,L|160:224,2,90,0|2|8,0:0|0:0|0:0,0:0:0:0:
400,80,95316,1,0,0:0:0:0:
400,80,95479,2,0,B|368:136|376:168|376:168|344:168|272:224,2,180,0|8|0,0:0|0:0|0:0,0:0:0:0:
224,80,97435,5,8,0:0:0:0:
152,136,97761,1,0,0:0:0:0:
80,192,98088,1,2,0:0:0:0:
80,192,98414,1,0,0:0:0:0:
112,272,98740,1,10,0:0:0:0:
112,272,99066,1,0,0:0:0:0:
192,312,99392,1,2,0:0:0:0:
192,312,99718,1,0,0:0:0:0:
280,320,100044,1,10,0:0:0:0:
280,320,100370,1,0,0:0:0:0:
360,280,100696,6,0,L|440:208,1,90,2|0,0:0|0:0,0:0:0:0:
336,216,101349,2,0,L|416:144,1,90,10|0,0:0|0:0,0:0:0:0:
312,152,102001,1,2,0:0:0:0:
384,96,102327,1,0,0:0:0:0:
464,48,102653,1,10,0:0:0:0:
304,64,102979,1,0,0:0:0:0:
232,112,103305,1,2,0:0:0:0:
160,160,103631,1,0,0:0:0:0:
88,208,103957,1,10,0:0:0:0:
88,208,104284,1,0,0:0:0:0:
400,144,104610,6,0,B|352:208|472:272|352:312,1,180,2|8,0:0|0:0,0:0:0:0:
304,96,105751,1,0,0:0:0:0:
272,64,105914,1,4,0:0:0:0:
256,192,106892,12,2,108197,0:0:0:0:
88,152,108523,6,0,P|200:80|224:104,1,135.000005149842,4|0,0:0|0:0,0:0:0:0:
160,136,109012,1,0,0:0:0:0:
224,128,109175,2,0,P|112:200|88:176,1,135.000005149842,4|0,0:0|0:0,0:0:0:0:
72,224,109664,1,0,0:0:0:0:
120,272,109827,2,0,P|224:256|288:160,1,202.500007724762,4|0,0:0|0:0,0:0:0:0:
296,120,110479,1,4,0:0:0:0:
296,120,110806,1,0,0:0:0:0:
360,88,110969,1,0,0:0:0:0:
312,32,111132,6,0,P|368:16|432:96,1,135.000005149842,4|0,0:0|0:0,0:0:0:0:
424,128,111621,1,0,0:0:0:0:
360,160,111784,2,0,B|328:184|312:216|312:216|264:216|216:264,1,135.000005149842,4|0,0:0|0:0,0:0:0:0:
216,176,112273,1,0,0:0:0:0:
216,176,112436,2,0,B|248:152|264:120|264:120|312:120|360:72,1,135.000005149842,4|0,0:0|0:0,0:0:0:0:
376,64,112925,1,0,0:0:0:0:
312,40,113088,1,4,0:0:0:0:
248,56,113251,1,0,0:0:0:0:
200,104,113414,1,0,0:0:0:0:
136,136,113577,1,0,0:0:0:0:
144,72,113741,6,0,P|80:96|120:192,1,135.000005149842,4|0,0:0|0:0,0:0:0:0:
112,208,114230,1,0,0:0:0:0:
48,208,114393,2,0,P|80:264|176:232,1,135.000005149842,4|0,0:0|0:0,0:0:0:0:
184,216,114882,1,0,0:0:0:0:
216,272,115045,1,4,0:0:0:0:
168,320,115208,1,0,0:0:0:0:
168,320,115371,1,0,0:0:0:0:
304,336,115697,1,4,0:0:0:0:
368,320,115860,1,0,0:0:0:0:
424,280,116023,1,0,0:0:0:0:
496,168,116349,6,0,B|256:344|296:32|88:240,1,405.000015449525,4|0,0:0|0:0,0:0:0:0:
128,203,118306,1,8,0:0:0:0:
48,48,118958,6,0,P|136:80|200:160,1,135.000005149842,4|0,0:0|0:0,0:0:0:0:
464,48,119610,2,0,P|376:80|312:160,1,135.000005149842,4|0,0:0|0:0,0:0:0:0:
104,200,120263,2,0,P|192:232|256:312,1,135.000005149842,4|0,0:0|0:0,0:0:0:0:
408,200,120915,2,0,P|320:232|256:312,1,135.000005149842,4|0,0:0|0:0,0:0:0:0:
256,336,121567,1,4,0:0:0:0:
256,336,121730,1,0,0:0:0:0:
256,336,121893,1,0,0:0:0:0:
256,336,122056,1,0,0:0:0:0:
256,336,122219,1,4,0:0:0:0:
144,64,122545,5,0,0:0:0:0:
96,111,122708,1,0,0:0:0:0:
48,158,122871,1,4,0:0:0:0:
368,64,123198,1,0,0:0:0:0:
416,111,123361,1,0,0:0:0:0:
464,158,123524,1,4,0:0:0:0:
256,32,123850,5,0,0:0:0:0:
232,96,124013,1,0,0:0:0:0:
280,144,124176,1,4,0:0:0:0:
232,192,124339,1,0,0:0:0:0:
280,240,124502,1,0,0:0:0:0:
232,288,124665,1,0,0:0:0:0:
232,288,124828,1,4,0:0:0:0:
136,192,125154,6,0,P|72:208|16:192,2,67.5000025749208,0|0|4,0:0|0:0|0:0,0:0:0:0:
376,192,125806,2,0,P|440:208|496:192,2,67.5000025749208,0|0|4,0:0|0:0|0:0,0:0:0:0:
256,192,126459,1,0,0:0:0:0:
256,192,126785,6,0,B|152:128|136:312|272:328|344:288|424:160|312:88|224:120,1,405.000015449525,4|0,0:0|0:0,0:0:0:0:
256,40,128741,1,2,0:0:0:0:
256,56,128904,1,2,0:0:0:0:
256,72,129067,1,2,0:0:0:0:
456,216,129393,5,0,0:0:0:0:
416,272,129557,1,0,0:0:0:0:
360,312,129720,1,0,0:0:0:0:
296,336,129883,1,0,0:0:0:0:
232,344,130046,2,0,P|136:336|96:272,1,135.000005149842,8|0,0:0|0:0,0:0:0:0:
168,272,130535,1,0,0:0:0:0:
168,272,130698,2,0,P|80:224|8:240,1,135.000005149842,0|2,0:0|0:0,0:0:0:0:
24,160,131187,2,0,B|56:112|40:96|48:40|152:88,1,135.000005149842,0|0,0:0|0:0,0:0:0:0:
112,136,131676,5,0,0:0:0:0:
168,104,131839,1,0,0:0:0:0:
160,40,132002,1,2,0:0:0:0:
224,32,132165,1,0,0:0:0:0:
288,40,132328,1,0,0:0:0:0:
328,96,132491,1,0,0:0:0:0:
272,136,132655,1,8,0:0:0:0:
232,192,132818,1,0,0:0:0:0:
168,208,132981,1,0,0:0:0:0:
120,256,133144,1,0,0:0:0:0:
80,312,133307,2,0,P|32:240|16:160,2,135.000005149842,0|2|8,0:0|0:0|0:0,0:0:0:0:
440,216,134448,6,0,P|464:192|488:120,1,67.5000025749208,0|2,0:0|0:0,0:0:0:0:
72,216,134937,2,0,P|48:192|24:120,1,67.5000025749208,0|0,0:0|0:0,0:0:0:0:
256,344,135426,5,0,0:0:0:0:
256,280,135589,1,0,0:0:0:0:
256,216,135753,1,0,0:0:0:0:
256,152,135916,2,0,P|272:80|256:0,2,135.000005149842,0|2|8,0:0|0:0|0:0,0:0:0:0:
256,216,136731,5,0,0:0:0:0:
256,280,136894,1,0,0:0:0:0:
256,344,137057,1,0,0:0:0:0:
256,152,137220,2,0,P|240:80|256:0,2,135.000005149842,0|2|8,0:0|0:0|0:0,0:0:0:0:
256,216,138035,5,0,0:0:0:0:
256,280,138198,1,0,0:0:0:0:
256,344,138361,1,0,0:0:0:0:
256,152,138524,2,0,L|256:0,2,135.000005149842,0|2|8,0:0|0:0|0:0,0:0:0:0:
40,344,139503,5,0,0:0:0:0:
87,296,139666,1,0,0:0:0:0:
134,343,139829,1,2,0:0:0:0:
181,295,139992,1,0,0:0:0:0:
228,342,140155,1,0,0:0:0:0:
275,294,140318,1,0,0:0:0:0:
322,341,140481,1,8,0:0:0:0:
369,293,140644,1,0,0:0:0:0:
416,340,140807,1,0,0:0:0:0:
463,292,140970,1,0,0:0:0:0:
256,192,141133,12,0,141948,0:0:0:0:
256,192,142112,5,0,0:0:0:0:
144,112,142438,2,0,P|96:56|24:16,2,135.000005149842,2|0|8,0:0|0:0|0:0,0:0:0:0:
256,192,143253,1,0,0:0:0:0:
256,192,143416,1,0,0:0:0:0:
256,192,143579,1,0,0:0:0:0:
368,272,143742,2,0,P|416:328|488:368,2,135.000005149842,0|2|0,0:0|0:0|0:0,0:0:0:0:
144,304,144883,6,0,L|64:216,1,67.5000025749208,0|2,0:0|0:0,0:0:0:0:
368,80,145373,2,0,L|448:168,1,67.5000025749208
32,40,145862,1,0,0:0:0:0:
96,56,146025,1,0,0:0:0:0:
160,80,146188,1,0,0:0:0:0:
184,144,146351,1,0,0:0:0:0:
160,208,146514,1,0,0:0:0:0:
208,256,146677,1,2,0:0:0:0:
256,208,146840,1,0,0:0:0:0:
256,208,147003,1,8,0:0:0:0:
256,208,147655,5,2,0:0:0:0:
256,208,150264,5,2,0:0:0:0:
256,40,152221,5,0,0:0:0:0:
312,80,152384,1,0,0:0:0:0:
368,120,152547,1,0,0:0:0:0:
424,160,152710,1,0,0:0:0:0:
472,208,152873,6,0,P|432:264|328:288,1,135.000005149842,4|0,0:0|0:0,0:0:0:0:
320,240,153362,1,0,0:0:0:0:
320,240,153525,2,0,P|280:184|176:160,1,135.000005149842,4|0,0:0|0:0,0:0:0:0:
200,224,154014,1,0,0:0:0:0:
200,224,154177,2,0,P|248:272|272:368,1,135.000005149842,4|0,0:0|0:0,0:0:0:0:
200,344,154667,1,0,0:0:0:0:
136,328,154830,1,4,0:0:0:0:
72,296,154993,1,0,0:0:0:0:
32,240,155156,1,0,0:0:0:0:
72,184,155319,1,0,0:0:0:0:
8,168,155482,6,0,P|48:120|136:176,1,135.000005149842,4|0,0:0|0:0,0:0:0:0:
168,176,155971,1,0,0:0:0:0:
232,200,156134,2,0,P|224:136|120:128,1,135.000005149842,4|0,0:0|0:0,0:0:0:0:
160,40,156623,1,0,0:0:0:0:
224,48,156786,2,0,B|280:32|320:80|392:16,1,135.000005149842,4|0,0:0|0:0,0:0:0:0:
368,104,157275,1,0,0:0:0:0:
432,88,157438,1,4,0:0:0:0:
440,24,157601,1,0,0:0:0:0:
440,24,157765,1,0,0:0:0:0:
504,56,157928,1,0,0:0:0:0:
496,120,158091,6,0,B|480:184|480:184|440:176|384:232,1,135.000005149842,4|0,0:0|0:0,0:0:0:0:
416,204,158580,1,0,0:0:0:0:
352,192,158743,2,0,B|368:256|368:256|408:248|464:304,1,135.000005149842,4|0,0:0|0:0,0:0:0:0:
480,328,159232,1,0,0:0:0:0:
416,336,159395,2,0,P|320:304|304:256,1,135.000005149842,4|0,0:0|0:0,0:0:0:0:
280,224,159884,1,0,0:0:0:0:
216,248,160047,1,4,0:0:0:0:
160,280,160210,1,0,0:0:0:0:
96,288,160373,1,0,0:0:0:0:
24,208,160536,5,2,0:0:0:0:
136,136,160862,1,2,0:0:0:0:
264,96,161189,1,2,0:0:0:0:
400,72,161515,1,2,0:0:0:0:
512,72,161841,1,6,0:0:0:0:
512,72,162167,1,6,0:0:0:0:
256,192,162330,12,0,162982,0:0:0:0:
72,112,163308,5,4,0:0:0:0:
136,88,163471,1,0,0:0:0:0:
200,80,163634,1,0,0:0:0:0:
264,80,163797,1,0,0:0:0:0:
328,96,163960,2,0,P|416:128|480:200,1,135.000005149842,4|0,0:0|0:0,0:0:0:0:
440,224,164450,1,0,0:0:0:0:
400,280,164613,2,0,B|328:288|320:336|224:320,1,135.000005149842,4|0,0:0|0:0,0:0:0:0:
208,328,165102,1,0,0:0:0:0:
144,320,165265,1,4,0:0:0:0:
88,280,165428,1,0,0:0:0:0:
88,280,165591,1,0,0:0:0:0:
64,216,165754,1,0,0:0:0:0:
48,152,165917,6,0,B|72:112|144:144|144:144|176:80,1,135.000005149842,4|0,0:0|0:0,0:0:0:0:
216,80,166406,1,0,0:0:0:0:
240,16,166569,2,0,B|280:32|288:64|288:64|328:64|384:112,1,135.000005149842,4|0,0:0|0:0,0:0:0:0:
392,32,167058,1,0,0:0:0:0:
448,72,167222,1,4,0:0:0:0:
400,120,167385,1,0,0:0:0:0:
464,144,167548,1,0,0:0:0:0:
464,144,167711,1,0,0:0:0:0:
488,208,167874,1,4,0:0:0:0:
488,208,168037,1,0,0:0:0:0:
432,240,168200,1,0,0:0:0:0:
432,240,168363,1,0,0:0:0:0:
392,184,168526,6,0,B|344:208|344:208|320:160|240:144,1,135.000005149842,4|0,0:0|0:0,0:0:0:0:
320,104,169015,1,0,0:0:0:0:
256,88,169178,2,0,P|208:56|112:88,1,135.000005149842,4|0,0:0|0:0,0:0:0:0:
176,120,169667,1,0,0:0:0:0:
112,128,169830,2,0,P|64:144|8:176,1,67.5000025749208,4|0,0:0|0:0,0:0:0:0:
104,192,170156,2,0,P|152:208|208:240,1,67.5000025749208
128,272,170483,5,4,0:0:0:0:
128,272,170646,1,0,0:0:0:0:
128,272,170809,1,0,0:0:0:0:
128,272,170972,1,0,0:0:0:0:
176,320,171135,6,0,B|392:360|312:16|512:136,1,405.000015449525,4|0,0:0|0:0,0:0:0:0:
480,184,172276,1,0,0:0:0:0:
440,240,172439,1,4,0:0:0:0:
392,288,172602,1,0,0:0:0:0:
40,40,172928,1,0,0:0:0:0:
40,40,173091,1,4,0:0:0:0:
40,40,173254,1,0,0:0:0:0:
40,40,173417,1,0,0:0:0:0:
40,40,173581,1,0,0:0:0:0:
104,48,173744,6,0,P|192:112|240:80,1,135.000005149842,4|0,0:0|0:0,0:0:0:0:
176,40,174233,1,0,0:0:0:0:
176,40,174396,2,0,P|224:40|264:144,1,135.000005149842,4|0,0:0|0:0,0:0:0:0:
288,168,174885,1,0,0:0:0:0:
336,120,175048,2,0,P|368:72|464:120,1,135.000005149842,4|0,0:0|0:0,0:0:0:0:
464,136,175537,1,0,0:0:0:0:
400,128,175700,1,4,0:0:0:0:
424,192,175863,1,0,0:0:0:0:
488,208,176026,1,0,0:0:0:0:
488,208,176189,1,0,0:0:0:0:
440,256,176352,6,0,P|376:272|336:240,1,67.5000025749208,4|0,0:0|0:0,0:0:0:0:
416,328,176679,2,0,P|352:344|312:312,1,67.5000025749208,0|0,0:0|0:0,0:0:0:0:
312,288,177005,2,0,B|280:312|248:296|248:296|232:336|160:336,1,135.000005149842,4|0,0:0|0:0,0:0:0:0:
152,280,177494,1,0,0:0:0:0:
152,280,177657,2,0,B|184:256|216:272|216:272|232:232|304:232,1,135.000005149842,4|0,0:0|0:0,0:0:0:0:
328,200,178146,1,0,0:0:0:0:
384,168,178309,1,4,0:0:0:0:
416,112,178472,1,0,0:0:0:0:
456,56,178635,1,0,0:0:0:0:
456,56,178798,1,0,0:0:0:0:
456,56,178961,6,0,P|368:40|280:96,2,135.000005149842,4|0|4,0:0|0:0|0:0,0:0:0:0:
416,112,179777,1,0,0:0:0:0:
384,168,179940,1,0,0:0:0:0:
328,200,180103,1,0,0:0:0:0:
264,232,180266,6,0,B|248:200|208:208|208:208|200:160|136:144,2,135.000005149842,4|0|4,0:0|0:0|0:0,0:0:0:0:
304,288,181081,1,0,0:0:0:0:
240,296,181244,1,0,0:0:0:0:
176,280,181407,1,0,0:0:0:0:
112,264,181570,6,0,B|64:280|80:328|80:328|0:352,2,135.000005149842,4|0|4,0:0|0:0|0:0,0:0:0:0:
56,224,182385,1,0,0:0:0:0:
120,200,182548,1,0,0:0:0:0:
64,160,182711,1,0,0:0:0:0:
16,112,182874,1,4,0:0:0:0:
64,64,183038,1,0,0:0:0:0:
128,48,183201,1,0,0:0:0:0:
128,48,183364,1,0,0:0:0:0:
304,32,183527,5,4,0:0:0:0:
352,80,183690,1,2,0:0:0:0:
384,136,183853,1,2,0:0:0:0:
408,200,184016,1,2,0:0:0:0:
416,264,184179,6,0,P|392:304|264:304,1,135.000005149842,4|0,0:0|0:0,0:0:0:0:
264,280,184668,1,0,0:0:0:0:
264,280,184831,2,0,P|240:320|112:320,1,135.000005149842,4|0,0:0|0:0,0:0:0:0:
128,288,185320,1,0,0:0:0:0:
128,288,185483,2,0,P|104:328|-24:328,1,135.000005149842,4|0,0:0|0:0,0:0:0:0:
40,288,185972,1,0,0:0:0:0:
80,232,186136,2,0,L|160:152,1,67.5000025749208,4|0,0:0|0:0,0:0:0:0:
64,160,186462,2,0,L|144:80,1,67.5000025749208,0|0,0:0|0:0,0:0:0:0:
64,64,186788,6,0,P|160:32|248:192,2,270.000010299683,4|4|4,0:0|0:0|0:0,0:0:0:0:
16,112,188255,1,0,0:0:0:0:
32,176,188418,1,0,0:0:0:0:
80,224,188581,1,0,0:0:0:0:
144,240,188744,1,4,0:0:0:0:
200,272,188907,1,0,0:0:0:0:
256,312,189070,1,0,0:0:0:0:
320,288,189234,1,0,0:0:0:0:
368,240,189397,6,0,B|336:176|448:160|376:88,2,135.000005149842,4|0|4,0:0|0:0|0:0,0:0:0:0:
432,216,190212,1,0,0:0:0:0:
432,280,190375,1,0,0:0:0:0:
376,320,190538,1,0,0:0:0:0:
320,288,190701,2,0,P|224:320|200:352,2,135.000005149842,4|0|4,0:0|0:0|0:0,0:0:0:0:
288,232,191516,5,0,0:0:0:0:
224,240,191679,1,0,0:0:0:0:
168,280,191842,1,0,0:0:0:0:
144,344,192005,2,0,B|16:280|152:176|8:120,1,270.000010299683,4|4,0:0|0:0,0:0:0:0:
256,192,192984,12,8,193962,0:0:0:0:
80,304,194614,5,4,0:0:0:0:
144,312,194777,1,0,0:0:0:0:
208,288,194940,1,0,0:0:0:0:
256,240,195103,1,0,0:0:0:0:
280,176,195266,2,0,P|240:120|144:112,1,135.000005149842,4|0,0:0|0:0,0:0:0:0:
112,104,195756,1,0,0:0:0:0:
48,136,195919,1,4,0:0:0:0:
24,200,196082,1,0,0:0:0:0:
32,264,196245,1,0,0:0:0:0:
80,312,196408,1,0,0:0:0:0:
80,312,196571,6,0,P|176:336|224:288,2,135.000005149842,4|0|4,0:0|0:0|0:0,0:0:0:0:
144,272,197386,1,0,0:0:0:0:
208,248,197549,1,0,0:0:0:0:
264,288,197712,1,0,0:0:0:0:
280,352,197875,2,0,P|328:288|288:232,1,135.000005149842,4|0,0:0|0:0,0:0:0:0:
256,200,198364,1,0,0:0:0:0:
256,200,198527,2,0,P|304:176|368:256,1,135.000005149842,4|0,0:0|0:0,0:0:0:0:
400,280,199017,1,0,0:0:0:0:
464,296,199180,1,4,0:0:0:0:
496,240,199343,1,0,0:0:0:0:
464,184,199506,1,0,0:0:0:0:
496,128,199669,1,0,0:0:0:0:
448,80,199832,6,0,P|376:40|288:32,2,135.000005149842,4|0|4,0:0|0:0|0:0,0:0:0:0:
400,128,200647,1,0,0:0:0:0:
336,112,200810,1,0,0:0:0:0:
272,80,200973,1,0,0:0:0:0:
208,56,201136,6,0,B|168:16|128:48|128:48|64:8,2,135.000005149842,4|0|4,0:0|0:0|0:0,0:0:0:0:
160,104,201952,1,0,0:0:0:0:
104,144,202115,1,0,0:0:0:0:
64,200,202278,1,0,0:0:0:0:
32,264,202441,6,0,B|200:384|208:232|440:344,1,405.000015449525,4|0,0:0|0:0,0:0:0:0:
376,168,204397,5,2,0:0:0:0:
256,104,204560,1,2,0:0:0:0:
136,168,204723,1,2,0:0:0:0:
