osu file format v13

[General]
AudioFilename: dogowner.mp3
AudioLeadIn: 0
PreviewTime: -1
Countdown: 0
SampleSet: Soft
StackLeniency: 0.7
Mode: 0
LetterboxInBreaks: 0
WidescreenStoryboard: 0

[Editor]
DistanceSpacing: 1.3
BeatDivisor: 4
GridSize: 4
TimelineZoom: 1

[Metadata]
Title:dogowner
TitleUnicode:dogowner
Artist:PilotRedSun
ArtistUnicode:PilotRedSun
Creator:Kleyar
Version:Insane
Source:
Tags:pilotredsun dog dogowner catchy easy fun super
BeatmapID:453679
BeatmapSetID:190549

[Difficulty]
HPDrainRate:0
CircleSize:4
OverallDifficulty:8
ApproachRate:9
SliderMultiplier:3.59999990463257
SliderTickRate:4

[Events]
//Background and Video events
0,0,"hqdefault.jpg",0,0
//Break Periods
2,55594,59954
//Storyboard Layer 0 (Background)
//Storyboard Layer 1 (Fail)
//Storyboard Layer 2 (Pass)
//Storyboard Layer 3 (Foreground)
//Storyboard Sound Samples
//Background Colour Transformations
3,100,163,162,255

[TimingPoints]
10313.9026576761,0.100000000000005,4,2,0,100,1,0

[Colours]
Combo1 : 213,179,187
Combo2 : 240,236,255
Combo3 : 149,149,0
Combo4 : 95,124,146
Combo5 : 149,134,123

[HitObjects]
8,48,113,5,0,0:0:0:0:
364,56,113,1,0,0:0:0:0:
348,184,113,1,0,0:0:0:0:
328,244,113,1,0,0:0:0:0:
44,180,113,1,0,0:0:0:0:
72,240,113,1,0,0:0:0:0:
116,296,113,1,0,0:0:0:0:
164,344,113,1,0,0:0:0:0:
236,344,113,1,0,0:0:0:0:
296,304,113,1,0,0:0:0:0:
364,128,113,1,0,0:0:0:0:
252,8,113,1,0,0:0:0:0:
308,4,113,1,0,0:0:0:0:
152,32,113,1,0,0:0:0:0:
120,68,113,1,0,0:0:0:0:
72,152,113,1,0,0:0:0:0:
76,196,113,1,0,0:0:0:0:
148,184,2120,1,0,0:0:0:0:
284,112,2830,1,0,0:0:0:0:
292,232,3298,1,0,0:0:0:0:
168,80,4327,1,0,0:0:0:0:
192,224,5174,1,0,0:0:0:0:
356,112,5988,1,0,0:0:0:0:
228,120,6777,1,0,0:0:0:0:
328,260,7277,1,0,0:0:0:0:
364,120,8198,1,0,0:0:0:0:
228,120,8606,1,0,0:0:0:0:
328,28,8977,1,0,0:0:0:0:
220,128,9382,1,0,0:0:0:0:
144,48,9797,1,0,0:0:0:0:
228,120,10220,1,0,0:0:0:0:
84,160,10634,1,0,0:0:0:0:
216,132,11080,1,0,0:0:0:0:
192,288,11508,1,0,0:0:0:0:
216,88,15296,1,0,0:0:0:0:
128,276,15738,1,0,0:0:0:0:
224,92,16199,1,0,0:0:0:0:
356,316,16667,1,0,0:0:0:0:
240,84,17092,1,0,0:0:0:0:
8,140,17482,1,0,0:0:0:0:
216,84,17897,1,0,0:0:0:0:
452,36,18330,1,0,0:0:0:0:
240,76,18742,1,0,0:0:0:0:
244,312,19197,1,0,0:0:0:0:
236,88,19608,1,0,0:0:0:0:
236,88,19665,1,0,0:0:0:0:
84,284,20041,1,0,0:0:0:0:
240,80,20441,1,0,0:0:0:0:
48,128,20857,1,0,0:0:0:0:
236,88,21291,1,0,0:0:0:0:
388,268,21688,1,0,0:0:0:0:
248,88,22121,1,0,0:0:0:0:
156,276,22576,1,0,0:0:0:0:
104,112,23042,1,0,0:0:0:0:
224,72,23478,1,0,0:0:0:0:
356,128,23874,1,0,0:0:0:0:
292,248,24289,1,0,0:0:0:0:
144,276,24703,1,0,0:0:0:0:
144,164,25413,1,0,0:0:0:0:
228,96,25807,1,0,0:0:0:0:
136,120,27190,1,0,0:0:0:0:
296,240,27639,1,0,0:0:0:0:
368,100,28126,1,0,0:0:0:0:
156,252,28526,1,0,0:0:0:0:
28,160,28958,1,0,0:0:0:0:
256,292,29368,1,0,0:0:0:0:
376,224,29818,1,0,0:0:0:0:
312,100,30257,1,0,0:0:0:0:
184,68,30671,1,0,0:0:0:0:
120,108,30903,1,0,0:0:0:0:
84,172,31184,1,0,0:0:0:0:
144,264,31974,1,0,0:0:0:0:
212,208,32388,1,0,0:0:0:0:
220,92,34074,1,0,0:0:0:0:
208,264,34452,1,0,0:0:0:0:
216,104,34937,1,0,0:0:0:0:
208,280,35368,1,0,0:0:0:0:
224,88,35749,1,0,0:0:0:0:
196,284,36184,1,0,0:0:0:0:
224,88,36631,1,0,0:0:0:0:
168,160,38316,1,0,0:0:0:0:
300,96,38764,1,0,0:0:0:0:
160,252,39174,1,0,0:0:0:0:
340,168,39609,1,0,0:0:0:0:
212,308,39999,1,0,0:0:0:0:
408,252,40432,1,0,0:0:0:0:
288,360,40855,1,0,0:0:0:0:
404,176,41294,1,0,0:0:0:0:
200,304,41654,1,0,0:0:0:0:
352,112,42147,1,0,0:0:0:0:
124,256,42562,1,0,0:0:0:0:
288,64,42998,1,0,0:0:0:0:
76,152,43433,1,0,0:0:0:0:
20,208,45957,1,0,0:0:0:0:
80,216,46375,1,0,0:0:0:0:
136,216,46821,1,0,0:0:0:0:
176,220,47257,1,0,0:0:0:0:
224,212,47689,1,0,0:0:0:0:
248,204,48123,1,0,0:0:0:0:
272,184,48540,1,0,0:0:0:0:
284,168,49011,1,0,0:0:0:0:
272,152,49412,1,0,0:0:0:0:
252,144,49774,1,0,0:0:0:0:
196,168,50160,1,0,0:0:0:0:
76,196,51879,2,0,B|200:204|268:184|252:132|196:104|196:104,1,359.999990463257
60,276,55394,2,0,B|32:184|68:120|92:100|92:100,1,359.999990463257
32,168,60554,5,0,0:0:0:0:
32,168,60600,1,0,0:0:0:0:
144,168,60919,1,0,0:0:0:0:
208,172,61295,1,0,0:0:0:0:
296,156,61658,1,0,0:0:0:0:
288,68,62147,1,0,0:0:0:0:
144,56,62532,1,0,0:0:0:0:
76,156,63010,1,0,0:0:0:0:
80,160,63202,1,0,0:0:0:0:
88,176,63888,1,0,0:0:0:0:
88,184,64079,1,0,0:0:0:0:
88,184,64259,1,0,0:0:0:0:
104,204,64738,1,0,0:0:0:0:
104,204,64913,1,0,0:0:0:0:
104,208,65095,1,0,0:0:0:0:
116,224,65572,1,0,0:0:0:0:
116,224,65733,1,0,0:0:0:0:
116,224,65930,1,0,0:0:0:0:
136,244,66452,1,0,0:0:0:0:
136,244,66646,1,0,0:0:0:0:
136,244,66808,1,0,0:0:0:0:
156,268,67232,1,0,0:0:0:0:
156,268,67449,1,0,0:0:0:0:
156,268,67613,1,0,0:0:0:0:
268,104,68188,1,0,0:0:0:0:
268,104,68335,1,0,0:0:0:0:
268,104,68513,1,0,0:0:0:0:
120,120,69017,1,0,0:0:0:0:
120,120,69190,1,0,0:0:0:0:
120,120,69348,1,0,0:0:0:0:
216,220,69870,1,0,0:0:0:0:
216,220,70007,1,0,0:0:0:0:
216,220,70197,1,0,0:0:0:0:
296,224,70766,1,0,0:0:0:0:
296,224,70888,1,0,0:0:0:0:
296,224,71048,1,0,0:0:0:0:
288,116,71521,1,0,0:0:0:0:
288,116,71658,1,0,0:0:0:0:
288,116,71859,1,0,0:0:0:0:
140,200,72331,1,0,0:0:0:0:
140,200,72547,1,0,0:0:0:0:
136,208,72733,1,0,0:0:0:0:
224,280,73260,1,0,0:0:0:0:
224,280,73437,1,0,0:0:0:0:
224,280,73622,1,0,0:0:0:0:
300,240,74116,1,0,0:0:0:0:
300,240,74273,1,0,0:0:0:0:
300,240,74454,1,0,0:0:0:0:
284,164,74949,1,0,0:0:0:0:
212,156,75340,1,0,0:0:0:0:
152,208,75728,1,0,0:0:0:0:
156,232,75978,1,0,0:0:0:0:
164,256,76147,1,0,0:0:0:0:
192,268,76306,1,0,0:0:0:0:
208,268,76431,1,0,0:0:0:0:
236,264,76597,1,0,0:0:0:0:
236,264,76643,1,0,0:0:0:0:
