osu file format v14

[General]
AudioFilename: mp3.mp3
AudioLeadIn: 0
PreviewTime: 116755
Countdown: 0
SampleSet: Soft
StackLeniency: 0.7
Mode: 0
LetterboxInBreaks: 0
WidescreenStoryboard: 0

[Editor]
DistanceSpacing: 1.2
BeatDivisor: 4
GridSize: 4
TimelineZoom: 2.699999

[Metadata]
Title:soldier game
TitleUnicode:soldier game
Artist:Pile, Mimori Suzuko, Nanjo Yoshino
ArtistUnicode:Pile, 三森すずこ, 南條愛乃
Creator:ZZHBOY
Version:Hard
Source:ラブライブ! School idol project
Tags:ラブライブ! Love Live! Nishikino Maki Sonoda Umi Ayase Eli
BeatmapID:500114
BeatmapSetID:212091

[Difficulty]
HPDrainRate:5
CircleSize:3.5
OverallDifficulty:5
ApproachRate:6
SliderMultiplier:1.4
SliderTickRate:1

[Events]
//Background and Video events
0,0,"5.jpg",0,0
//Break Periods
2,75478,79683
2,87978,92183
2,142751,144228
2,162751,172410
//Storyboard Layer 0 (Background)
//Storyboard Layer 1 (Fail)
//Storyboard Layer 2 (Pass)
//Storyboard Layer 3 (Foreground)
//Storyboard Sound Samples

[TimingPoints]
733,454.545454545455,4,2,1,60,1,0
20505,-133.333333333333,4,2,1,60,0,0
21869,-100,4,2,1,60,0,0
51642,-100,4,2,1,60,0,0
53460,-100,4,2,1,70,0,1
58914,-83.3333333333333,4,2,1,70,0,1
60733,-100,4,2,1,70,0,1
73460,-100,4,2,1,60,0,0
87096,-100,4,2,1,60,0,0
88233,-100,4,2,1,60,0,0
118914,-100,4,2,1,70,0,1
124369,-83.3333333333333,4,2,1,70,0,1
126187,-100,4,2,1,70,0,1
138914,-100,4,2,1,60,0,0
142551,-100,4,2,1,20,0,0
145278,-100,4,2,1,60,0,0
145960,-100,4,2,1,60,0,0
153914,-100,4,2,1,60,0,0
154369,-100,4,2,1,60,0,0
162551,-100,4,2,1,80,0,0
177096,-100,4,2,1,70,0,1
182551,-83.3333333333333,4,2,1,70,0,1
184369,-100,4,2,1,70,0,1
198687,-100,4,2,1,60,0,0

[Colours]
Combo1 : 255,128,255
Combo2 : 189,191,210
Combo3 : 254,128,101
Combo4 : 255,252,136

[HitObjects]
443,122,7778,5,4,0:0:0:0:
443,122,8233,2,0,L|457:191,1,70,0|8,0:0|0:0,0:0:0:0:
380,224,8687,1,0,0:0:0:0:
448,272,8914,2,0,P|457:307|447:369,2,70,0|0|8,0:0|0:0|0:0,0:0:0:0:
380,224,9596,1,0,0:0:0:0:
297,237,9823,6,0,L|228:249,1,70,0|0,0:0|0:0,0:0:0:0:
149,219,10278,1,8,0:0:0:0:
206,158,10505,1,0,0:0:0:0:
289,145,10733,2,0,L|337:154,2,35,0|0|0,0:0|0:0|0:0,0:0:0:0:
229,85,11187,2,0,L|192:80,2,35,8|0|0,0:0|0:0|0:0,0:0:0:0:
310,61,11642,5,0,0:0:0:0:
415,191,12096,2,0,P|446:175|480:174,2,70,8|0|0,0:0|0:0|0:0,0:0:0:0:
349,244,12778,1,0,0:0:0:0:
426,274,13005,2,0,P|425:315|406:344,1,70,8|0,0:0|0:0,0:0:0:0:
327,351,13460,6,0,L|256:349,1,70,0|0,0:0|0:0,0:0:0:0:
232,268,13914,2,0,L|158:282,1,70,8|0,0:0|0:0,0:0:0:0:
109,216,14369,2,0,L|77:244,2,35,0|0|0,0:0|0:0|0:0,0:0:0:0:
189,191,14823,1,8,0:0:0:0:
130,130,15051,1,0,0:0:0:0:
130,130,15164,1,0,0:0:0:0:
130,130,15278,6,0,P|125:80|148:40,1,70,4|0,0:0|0:0,0:0:0:0:
200,13,15733,1,8,0:0:0:0:
338,107,16187,2,0,P|288:112|248:89,1,70,0|0,0:0|0:0,0:0:0:0:
306,29,16642,1,8,0:0:0:0:
389,39,16869,1,0,0:0:0:0:
418,117,17096,6,0,L|436:204,1,70
360,229,17551,1,8,0:0:0:0:
294,177,17778,2,0,P|254:220|169:208,1,140,0|0,0:0|0:0,0:0:0:0:
220,143,18460,1,8,0:0:0:0:
220,143,18687,6,0,P|254:225|256:300,1,140,4|0,0:0|0:0,0:0:0:0:
322,327,19369,1,8,0:0:0:0:
322,327,19596,2,0,P|347:254|349:166,1,140,4|0,0:0|0:0,0:0:0:0:
311,115,20278,1,8,0:0:0:0:
311,115,20505,6,0,P|381:28|404:130,1,262.500010013581,4|0,0:0|0:0,0:0:0:0:
409,125,21869,5,4,0:0:0:0:
409,125,22323,1,4,1:0:0:0:
409,125,22778,6,0,L|387:226,1,70,0|8,0:0|0:0,0:0:0:0:
297,330,23460,1,0,0:0:0:0:
288,246,23687,1,0,0:0:0:0:
277,162,23914,1,8,0:0:0:0:
296,80,24142,6,0,P|343:114|353:196,1,140,0|0,0:0|0:0,0:0:0:0:
288,246,24823,1,8,0:0:0:0:
218,93,25278,2,0,L|135:117,1,70,0|0,0:0|0:0,0:0:0:0:
98,178,25733,1,8,0:0:0:0:
166,24,26187,1,0,0:0:0:0:
249,12,26414,6,0,L|330:6,1,70,0|8,0:0|0:0,0:0:0:0:
463,92,27096,1,0,0:0:0:0:
379,88,27323,1,0,0:0:0:0:
294,85,27551,1,8,0:0:0:0:
379,88,27778,6,0,P|388:183|376:243,1,140,0|0,0:0|0:0,0:0:0:0:
309,272,28460,1,8,0:0:0:0:
227,259,28687,1,0,0:0:0:0:
227,259,28801,1,0,0:0:0:0:
227,259,28914,2,0,P|186:287|175:317,2,70,0|8|8,0:0|0:0|0:0,0:0:0:0:
256,337,29596,1,8,0:0:0:0:
199,178,30051,6,0,L|295:166,1,70,0|8,0:0|0:0,0:0:0:0:
187,21,30733,1,0,0:0:0:0:
149,95,30960,1,0,0:0:0:0:
104,166,31187,1,8,0:0:0:0:
58,236,31414,6,0,P|138:247|184:187,1,140,0|0,0:0|0:0,0:0:0:0:
104,166,32096,2,0,L|140:313,2,140,8|0|8,0:0|0:0|0:0,0:0:0:0:
149,95,33233,1,0,0:0:0:0:
190,168,33460,6,0,P|253:153|265:229,1,140,0|8,0:0|0:0,0:0:0:0:
202,254,34142,1,0,0:0:0:0:
121,229,34369,2,0,L|104:320,2,70,0|0|8,0:0|0:0|0:0,0:0:0:0:
189,168,35051,6,0,P|205:103|188:27,1,140,0|0,0:0|0:0,0:0:0:0:
274,41,35733,1,8,0:0:0:0:
356,54,35960,2,0,L|442:42,2,70,0|0|0,0:0|0:0|0:0,0:0:0:0:
304,120,36642,2,0,B|303:155|303:155|313:191,1,70,8|0,0:0|0:0,0:0:0:0:
389,155,37096,6,0,B|398:206|398:206|387:298,1,140,4|8,0:0|0:0,0:0:0:0:
303,276,37778,1,0,0:0:0:0:
220,259,38005,2,0,L|140:275,2,70,0|0|8,0:0|0:0|0:0,0:0:0:0:
278,198,38687,6,0,L|285:128,1,70,0|0,0:0|0:0,0:0:0:0:
209,90,39142,2,0,L|201:159,1,70,0|8,0:0|0:0,0:0:0:0:
126,122,39596,2,0,L|133:52,1,70,0|0,0:0|0:0,0:0:0:0:
202,5,40051,1,0,0:0:0:0:
281,32,40278,1,8,0:0:0:0:
359,60,40505,1,0,0:0:0:0:
359,59,40733,6,0,P|361:129|423:173,1,140,0|8,0:0|0:0,0:0:0:0:
435,89,41414,2,0,L|295:153,1,140,0|0,0:0|0:0,0:0:0:0:
290,229,42096,1,8,0:0:0:0:
228,171,42323,6,0,L|158:163,1,70,0|0,0:0|0:0,0:0:0:0:
94,219,42778,2,0,L|24:225,1,70,0|8,0:0|0:0,0:0:0:0:
54,146,43233,2,0,L|59:89,2,35,0|0|0,0:0|0:0|0:0,0:0:0:0:
137,142,43687,2,0,L|142:85,2,35,0|0|8,0:0|0:0|0:0,0:0:0:0:
221,140,44142,1,0,0:0:0:0:
221,140,44255,1,0,0:0:0:0:
221,140,44369,6,0,L|210:291,1,140,4|8,0:0|0:0,0:0:0:0:
269,339,45051,1,0,0:0:0:0:
300,261,45278,2,0,L|394:289,1,70,0|0,0:0|0:0,0:0:0:0:
428,339,45733,1,8,0:0:0:0:
449,257,45960,6,0,P|497:207|497:139,1,140,0|0,0:0|0:0,0:0:0:0:
428,87,46642,1,8,0:0:0:0:
506,55,46869,1,0,0:0:0:0:
350,117,47323,1,0,0:0:0:0:
270,145,47551,1,8,0:0:0:0:
270,145,47664,1,0,0:0:0:0:
270,145,47778,6,0,P|214:189|141:163,1,140,4|0,0:0|0:0,0:0:0:0:
199,104,48460,1,8,0:0:0:0:
199,104,48687,2,0,L|232:252,1,140,4|0,0:0|0:0,0:0:0:0:
251,322,49369,1,8,0:0:0:0:
251,322,49596,5,4,0:0:0:0:
256,192,49823,12,0,51187,0:0:0:0:
300,97,51642,6,0,L|190:111,2,105,4|4|4,0:0|0:0|0:0,0:0:0:0:
300,97,52778,1,4,0:0:0:0:
68,195,53460,6,0,L|173:204,2,105,4|0|0,0:0|0:0|0:0,0:0:0:0:
40,116,54369,2,0,P|42:72|73:39,1,70,2|0,0:0|0:0,0:0:0:0:
201,15,54823,2,0,L|132:20,1,70,8|0,0:0|0:0,0:0:0:0:
286,21,55278,6,0,B|338:6|338:6|394:7,2,105,0|8|0,0:0|0:0|0:0,0:0:0:0:
241,92,56187,2,0,P|242:143|264:182,1,70,2|0,0:0|0:0,0:0:0:0:
313,288,56642,2,0,P|316:254|306:221,1,70,8|0,0:0|0:0,0:0:0:0:
244,337,57096,6,0,P|303:372|368:353,1,140,0|8,0:0|0:0,0:0:0:0:
396,272,57778,1,0,0:0:0:0:
440,200,58005,2,0,L|512:214,1,70
431,114,58460,2,0,L|500:128,1,70,8|0,0:0|0:0,0:0:0:0:
357,168,58914,6,0,B|304:164|278:192|278:192|243:167|194:175,1,167.999994873047,4|8,0:0|0:0,0:0:0:0:
112,222,59596,1,0,0:0:0:0:
118,120,59823,2,0,P|44:103|19:175,1,167.999994873047,4|8,0:0|0:0,0:0:0:0:
24,276,60505,1,0,0:0:0:0:
115,322,60733,6,0,L|219:328,2,105,4|0|0,0:0|0:0|0:0,0:0:0:0:
112,222,61642,2,0,L|181:226,1,70,2|0,0:0|0:0,0:0:0:0:
330,257,62096,2,0,L|261:253,1,70,8|0,0:0|0:0,0:0:0:0:
409,287,62551,6,0,P|427:245|393:157,1,140,0|8,0:0|0:0,0:0:0:0:
467,114,63233,1,0,0:0:0:0:
322,61,63460,2,0,L|391:77,1,70,2|0,0:0|0:0,0:0:0:0:
215,145,63914,2,0,L|285:136,1,70,8|0,0:0|0:0,0:0:0:0:
136,120,64369,5,10,0:0:0:0:
157,286,64823,1,8,0:0:0:0:
146,202,65050,1,0,0:0:0:0:
136,120,65278,1,2,0:0:0:0:
288,48,65733,1,8,0:0:0:0:
285,132,65961,1,0,0:0:0:0:
281,215,66187,6,2,L|255:300,1,70,2|0,0:0|0:0,0:0:0:0:
303,352,66642,2,0,P|335:366|370:364,1,70,8|0,0:0|0:0,0:0:0:0:
419,296,67096,1,2,0:0:0:0:
502,284,67323,1,0,0:0:0:0:
417,277,67551,1,8,0:0:0:0:
500,269,67778,1,0,0:0:0:0:
416,259,68005,5,4,0:0:0:0:
471,100,68460,1,8,0:0:0:0:
471,100,68687,1,0,0:0:0:0:
471,100,68914,6,0,L|343:69,2,105,2|0|0,0:0|0:0|0:0,0:0:0:0:
444,179,69823,2,0,L|290:142,1,140,2|8,0:0|0:0,0:0:0:0:
238,194,70505,1,0,0:0:0:0:
206,272,70733,6,0,P|200:321|222:360,1,70,0|0,0:0|0:0,0:0:0:0:
56,312,71187,2,0,L|126:313,1,70,8|0,0:0|0:0,0:0:0:0:
0,254,71642,2,0,P|-10:186|23:126,1,140,4|8,0:0|0:0,0:0:0:0:
106,132,72323,1,8,3:0:0:0:
176,178,72551,6,0,P|241:158|265:105,2,105,8|8|8,0:0|0:0|0:0,0:0:0:0:
185,94,73460,1,4,0:0:0:0:
256,192,73573,12,0,75278,0:0:0:0:
191,228,80733,5,4,0:0:0:0:
191,228,81187,2,0,L|286:218,1,70,8|0,0:0|0:0,0:0:0:0:
278,303,81642,2,0,L|173:317,2,105,2|2|2,0:0|0:0|0:0,0:0:0:0:
341,247,82551,5,8,0:0:0:0:
308,82,83005,1,8,0:0:0:0:
324,164,83233,1,0,0:0:0:0:
243,139,83460,1,8,0:0:0:0:
227,56,83688,1,0,0:0:0:0:
165,112,83914,2,0,L|134:173,3,35,8|8|8|8,0:0|0:0|0:0|0:0,0:0:0:0:
165,112,84369,6,0,P|137:72|52:69,1,140,8|8,0:0|0:0,0:0:0:0:
7,140,85051,1,0,0:0:0:0:
10,223,85278,2,0,L|30:338,2,105,2|0|4,0:0|0:0|0:0,0:0:0:0:
256,192,86187,12,4,87778,0:0:0:0:
87,129,93233,5,4,0:0:0:0:
249,87,93687,1,4,0:0:0:0:
168,109,93914,1,12,0:0:0:0:
87,129,94142,2,0,L|39:149,2,35,8|8|8,3:0|3:0|3:0,0:0:0:0:
139,194,94596,1,0,0:0:0:0:
119,275,94823,2,0,L|97:373,1,70,8|4,0:0|0:0,0:0:0:0:
227,167,95505,5,0,0:0:0:0:
280,236,95733,2,0,L|264:325,1,70,8|0,0:0|0:0,0:0:0:0:
348,350,96187,1,0,0:0:0:0:
364,264,96414,1,0,0:0:0:0:
280,236,96642,1,8,0:0:0:0:
202,205,96869,1,0,0:0:0:0:
202,205,97096,6,0,L|206:111,1,70,0|2,0:0|0:0,0:0:0:0:
163,61,97551,2,0,P|129:53|94:58,1,70,10|0,0:0|0:0,0:0:0:0:
28,109,98005,2,0,L|8:262,1,140,2|10,0:0|0:0,0:0:0:0:
65,310,98687,1,0,0:0:0:0:
98,233,98914,6,0,P|128:258|148:313,1,70,0|0,0:0|0:0,0:0:0:0:
226,279,99369,1,8,0:0:0:0:
309,273,99596,2,0,L|402:260,1,70,0|0,0:0|0:0,0:0:0:0:
410,185,100051,1,0,0:0:0:0:
468,245,100278,1,8,0:0:0:0:
494,165,100505,5,4,0:0:0:0:
494,165,100960,2,0,L|482:80,2,70,0|0|0,3:0|3:0|3:0,0:0:0:0:
329,197,101869,2,0,L|319:266,2,70,0|8|0,3:0|0:0|0:0,0:0:0:0:
298,118,102551,5,4,0:0:0:0:
214,118,102778,1,0,0:0:0:0:
183,197,103006,2,0,L|192:266,2,70,8|0|0,0:0|0:0|0:0,0:0:0:0:
108,158,103687,1,0,0:0:0:0:
54,222,103914,1,8,0:0:0:0:
29,140,104142,6,0,P|71:86|139:84,1,140,0|0,0:0|0:0,0:0:0:0:
215,119,104823,1,8,0:0:0:0:
271,180,105051,2,0,P|299:119|272:57,1,140,0|0,0:0|0:0,0:0:0:0:
348,90,105733,1,8,0:0:0:0:
432,83,105960,1,0,0:0:0:0:
501,35,106187,6,0,P|515:101|474:155,1,140,0|8,0:0|0:0,0:0:0:0:
391,170,106869,2,0,P|313:190|288:251,1,140,0|0,0:0|0:0,0:0:0:0:
318,314,107551,1,8,0:0:0:0:
372,250,107778,1,0,0:0:0:0:
391,170,108005,6,0,P|395:135|411:104,1,70,0|0,0:0|0:0,0:0:0:0:
337,63,108460,2,0,P|297:65|245:50,1,70,8|0,0:0|3:0,0:0:0:0:
200,109,108914,2,0,L|200:165,2,35,0|0|0,3:0|0:0|0:0,0:0:0:0:
190,25,109369,2,0,P|155:18|120:21,1,70,8|0,0:0|0:0,0:0:0:0:
38,37,109823,6,0,P|54:94|41:192,1,140,4|8,0:0|0:0,0:0:0:0:
4,246,110505,1,0,0:0:0:0:
88,249,110733,2,0,P|127:253|178:237,1,70,0|0,0:0|0:0,0:0:0:0:
212,184,111187,1,8,0:0:0:0:
273,126,111414,6,0,P|335:114|415:131,1,140,0|0,0:0|0:0,0:0:0:0:
493,117,112096,1,8,0:0:0:0:
463,195,112323,1,0,0:0:0:0:
360,328,112778,2,0,L|403:235,1,70,0|8,0:0|0:0,0:0:0:0:
376,181,113233,6,0,P|342:149|245:160,1,140,4|0,0:0|0:0,0:0:0:0:
228,233,113914,1,8,0:0:0:0:
228,233,114142,2,0,P|171:171|191:100,1,140,4|0,0:0|0:0,0:0:0:0:
242,68,114823,1,8,0:0:0:0:
163,37,115051,5,4,0:0:0:0:
256,192,115278,12,0,116642,0:0:0:0:
212,287,117096,6,0,L|322:273,2,105,4|4|4,0:0|0:0|0:0,0:0:0:0:
212,287,118232,1,4,0:0:0:0:
444,189,118914,6,0,L|339:180,2,105,4|0|0,0:0|0:0|0:0,0:0:0:0:
488,262,119823,2,0,P|486:306|455:339,1,70,2|0,0:0|0:0,0:0:0:0:
322,356,120278,2,0,L|392:352,1,70,8|0,0:0|0:0,0:0:0:0:
238,351,120733,6,0,B|186:366|186:366|130:365,2,105,0|8|0,0:0|0:0|0:0,0:0:0:0:
283,280,121642,2,0,P|282:229|260:190,1,70,2|0,0:0|0:0,0:0:0:0:
191,180,122096,2,0,P|188:214|199:248,1,70,8|0,0:0|0:0,0:0:0:0:
261,132,122551,6,0,P|202:97|137:116,1,140,8|8,0:0|0:0,0:0:0:0:
99,191,123233,1,0,0:0:0:0:
99,274,123460,2,0,L|119:359,1,70
31,342,123914,2,0,L|16:259,1,70,8|0,0:0|0:0,0:0:0:0:
155,216,124369,6,0,B|208:220|234:192|234:192|269:217|318:209,1,167.999994873047,4|12,0:0|0:0,0:0:0:0:
400,162,125051,1,0,0:0:0:0:
394,264,125278,2,0,P|468:281|493:209,1,167.999994873047,4|12,0:0|0:0,0:0:0:0:
488,108,125960,1,0,0:0:0:0:
397,62,126187,6,0,L|293:56,2,105,4|0|0,0:0|0:0|0:0,0:0:0:0:
400,162,127096,2,0,L|331:158,1,70,2|0,0:0|0:0,0:0:0:0:
182,127,127551,2,0,L|251:131,1,70,8|0,0:0|0:0,0:0:0:0:
103,97,128005,6,0,P|85:139|119:227,1,140,0|8,0:0|0:0,0:0:0:0:
45,270,128687,1,0,0:0:0:0:
121,307,128914,2,0,L|212:328,1,70,8|0,0:0|0:0,0:0:0:0:
297,238,129369,2,0,L|228:248,1,70,8|0,0:0|0:0,0:0:0:0:
376,264,129823,5,2,0:0:0:0:
355,98,130278,1,8,0:0:0:0:
366,182,130505,1,0,0:0:0:0:
376,264,130733,1,2,0:0:0:0:
224,336,131187,1,8,0:0:0:0:
227,252,131414,1,0,0:0:0:0:
231,169,131642,6,0,L|257:84,1,70,2|0,0:0|0:0,0:0:0:0:
209,32,132096,2,0,P|177:18|142:20,1,70,8|0,0:0|0:0,0:0:0:0:
93,88,132551,1,2,0:0:0:0:
10,100,132778,1,0,0:0:0:0:
95,107,133005,1,8,0:0:0:0:
12,115,133233,1,0,0:0:0:0:
96,125,133460,5,4,0:0:0:0:
41,284,133914,1,8,0:0:0:0:
41,284,134142,1,0,0:0:0:0:
41,284,134369,6,0,L|175:318,2,105,0|0|0,0:0|0:0|0:0,0:0:0:0:
68,205,135278,2,0,L|222:242,1,140,0|8,0:0|0:0,0:0:0:0:
274,190,135960,1,0,0:0:0:0:
306,112,136187,6,0,P|312:63|290:24,1,70,0|0,0:0|0:0,0:0:0:0:
456,72,136642,2,0,L|386:71,1,70,8|0,0:0|0:0,0:0:0:0:
512,135,137096,2,0,P|522:203|489:263,1,140,4|8,0:0|0:0,0:0:0:0:
406,252,137778,1,0,0:0:0:0:
336,206,138005,6,0,P|271:226|247:279,2,105,8|8|8,0:0|0:0|0:0,0:0:0:0:
330,291,138914,1,4,0:0:0:0:
256,192,139027,12,0,142551,0:0:0:0:
334,88,145278,6,0,L|452:95,2,105,4|4|4,0:0|0:0|0:0,0:0:0:0:
175,144,146414,2,0,L|105:132,2,70,0|8|0,0:0|0:0|0:0,0:0:0:0:
213,218,147096,2,0,B|220:289|220:289|201:343,2,105,0|0|0,0:0|0:0|0:0,0:0:0:0:
259,147,148005,6,0,P|313:148|353:153,1,70,0|0,0:0|0:0,0:0:0:0:
413,153,148460,1,8,0:0:0:0:
496,161,148687,1,0,0:0:0:0:
413,153,148914,2,0,P|448:94|506:78,2,105,0|0|0,0:0|0:0|0:0,0:0:0:0:
446,230,149823,5,0,3:0:0:0:
481,306,150051,2,0,L|453:374,2,70,0|8|0,0:0|0:0|0:0,0:0:0:0:
396,299,150733,2,0,P|367:265|367:215,1,70
393,163,151187,2,0,P|383:129|359:105,1,70,8|0,0:0|0:0,0:0:0:0:
345,103,151528,1,0,0:0:0:0:
330,103,151642,6,0,L|245:109,1,70,4|0,0:0|3:0,0:0:0:0:
200,167,152096,2,0,L|154:164,2,35,8|0|0,0:0|0:0|0:0,0:0:0:0:
280,192,152551,2,0,L|328:186,2,35,0|0|0,0:0|0:0|0:0,0:0:0:0:
222,253,153005,2,0,L|163:263,2,35,0|0|0,3:0|3:0|3:0,0:0:0:0:
303,275,153460,5,0,3:0:0:0:
303,275,153687,1,0,0:0:0:0:
303,275,153914,2,0,L|378:296,1,70,10|0,0:0|0:0,0:0:0:0:
453,283,154369,2,0,P|443:337|406:365,2,70,0|0|8,0:0|0:0|0:0,0:0:0:0:
403,214,155051,1,0,0:0:0:0:
354,145,155278,6,0,L|364:60,1,70,0|0,0:0|0:0,0:0:0:0:
299,16,155733,2,0,P|266:6|232:11,1,70,8|0,0:0|0:0,0:0:0:0:
168,64,156187,2,0,L|159:133,1,70,8|0,0:0|0:0,0:0:0:0:
240,157,156642,2,0,L|248:87,1,70,8|0,0:0|0:0,0:0:0:0:
248,87,156983,1,0,0:0:0:0:
248,87,157096,5,4,0:0:0:0:
256,192,157323,12,4,160733,0:0:0:0:
256,192,161642,5,4,0:0:0:0:
256,192,162551,1,2,0:0:0:0:
229,211,173460,5,2,0:0:0:0:
251,194,174369,5,2,0:0:0:0:
272,176,175278,5,2,0:0:0:0:
256,192,175505,12,0,176642,0:0:0:0:
176,144,177096,6,0,L|200:36,2,105,4|0|0,0:0|0:0|0:0,0:0:0:0:
136,218,178005,2,0,L|136:293,1,70,2|0,0:0|0:0,0:0:0:0:
188,351,178460,1,0,0:0:0:0:
106,366,178687,1,8,0:0:0:0:
270,338,178914,6,0,L|379:353,2,105,0|8|0,0:0|0:0|0:0,0:0:0:0:
216,273,179823,2,0,P|205:239|208:205,1,70,2|0,0:0|0:0,0:0:0:0:
294,233,180278,1,0,0:0:0:0:
274,152,180505,1,8,0:0:0:0:
320,313,180733,6,0,P|372:262|370:198,1,140,0|8,0:0|0:0,0:0:0:0:
445,162,181414,1,0,0:0:0:0:
376,112,181642,2,0,L|383:25,1,70,0|0,0:0|0:0,0:0:0:0:
230,51,182096,2,0,P|264:55|297:43,1,70,8|0,0:0|0:0,0:0:0:0:
129,61,182551,6,0,P|161:120|125:215,1,167.999994873047,4|8,0:0|0:0,0:0:0:0:
198,284,183233,1,0,0:0:0:0:
99,302,183460,2,0,P|137:363|228:378,1,167.999994873047,4|8,0:0|0:0,0:0:0:0:
198,284,184142,1,0,0:0:0:0:
296,308,184369,6,0,L|404:329,2,105,4|0|0,0:0|0:0|0:0,0:0:0:0:
263,219,185278,2,0,P|261:184|274:151,1,70
345,198,185733,1,8,0:0:0:0:
296,308,185960,1,0,0:0:0:0:
181,240,186187,6,0,L|78:269,2,105,0|0|0,0:0|0:0|0:0,0:0:0:0:
112,108,187096,2,0,P|111:143|128:174,1,70
97,25,187551,1,8,0:0:0:0:
176,50,187778,1,0,0:0:0:0:
176,50,187892,1,0,0:0:0:0:
176,50,188005,6,0,P|226:53|323:20,1,140,8|8,0:0|0:0,0:0:0:0:
392,51,188687,1,0,0:0:0:0:
468,86,188914,2,0,L|479:245,1,140,8|8,0:0|0:0,0:0:0:0:
414,281,189596,1,0,0:0:0:0:
345,328,189823,2,0,P|286:332|212:285,1,140,8|8,0:0|0:0,0:0:0:0:
237,210,190505,1,0,0:0:0:0:
184,117,190733,6,0,L|254:127,1,70
116,67,191187,1,8,0:0:0:0:
191,30,191414,1,0,0:0:0:0:
191,30,191528,1,0,0:0:0:0:
191,30,191642,6,0,L|354:54,1,140,4|8,0:0|0:0,0:0:0:0:
409,74,192323,1,0,0:0:0:0:
489,100,192551,2,0,P|479:150|499:226,2,105,2|0|2,0:0|0:0|0:0,0:0:0:0:
329,50,193460,5,0,0:0:0:0:
409,74,193687,1,0,0:0:0:0:
251,20,193914,1,8,0:0:0:0:
261,103,194142,1,0,0:0:0:0:
261,103,194255,1,0,0:0:0:0:
261,103,194369,6,0,P|259:138|245:170,1,70,0|0,0:0|0:0,0:0:0:0:
175,217,194823,2,0,P|161:248|162:284,1,70,8|0,0:0|0:0,0:0:0:0:
244,267,195278,6,0,L|327:297,1,70,2|8,0:0|0:0,0:0:0:0:
378,241,195733,1,8,0:0:0:0:
386,325,195960,1,8,0:0:0:0:
369,157,196187,2,0,L|379:49,2,105,8|8|8,0:0|0:0|0:0,0:0:0:0:
256,192,197096,12,4,198687,0:0:0:0:
