osu file format v14

[General]
AudioFilename: Pile - Lost Paradise.mp3
AudioLeadIn: 0
PreviewTime: 59067
Countdown: 0
SampleSet: Normal
StackLeniency: 0.7
Mode: 1
LetterboxInBreaks: 0
WidescreenStoryboard: 0

[Editor]
Bookmarks: 15340,76613
DistanceSpacing: 0.8
BeatDivisor: 4
GridSize: 32
TimelineZoom: 1.96

[Metadata]
Title:Lost Paradise
TitleUnicode:Lost Paradise
Artist:Pile
ArtistUnicode:Pile
Creator:Chocola_2287
Version:Muzukashii
Source:王様ゲーム The Animation
Tags:Ousama King's Game ED Ending Hori Eriko 堀 絵梨子 Aloda tv size version metal rock
BeatmapID:1498001
BeatmapSetID:708576

[Difficulty]
HPDrainRate:5
CircleSize:6
OverallDifficulty:5
ApproachRate:8.6
SliderMultiplier:1.4
SliderTickRate:1

[Events]
//Background and Video events
0,0,"NBIH7es.jpg",0,0
//Break Periods
//Storyboard Layer 0 (Background)
//Storyboard Layer 1 (Fail)
//Storyboard Layer 2 (Pass)
//Storyboard Layer 3 (Foreground)
//Storyboard Sound Samples

[TimingPoints]
5294,283.018867924528,4,1,0,85,1,0
25954,-100,4,1,0,65,0,0
29633,-100,4,1,0,85,0,0
35010,-100,4,1,0,65,0,0
36567,-100,4,1,0,85,0,0
36709,-100,4,1,0,65,0,0
36850,-100,4,1,0,85,0,0
36921,-100,4,1,0,65,0,0
38690,-100,4,1,0,85,0,0
59492,-100,4,1,0,100,0,1
93454,-100,4,1,0,95,0,0
93472,-100,4,1,0,70,0,0

[HitObjects]
288,192,5292,5,0,0:0:0:0:
288,192,5434,1,8,0:0:0:0:
224,192,5505,1,8,0:0:0:0:
288,192,5576,1,8,0:0:0:0:
288,192,5718,1,8,0:0:0:0:
288,192,5859,1,0,0:0:0:0:
288,192,6143,1,8,0:0:0:0:
288,192,6283,1,4,0:0:0:0:
256,192,6708,1,8,0:0:0:0:
256,192,6991,1,0,0:0:0:0:
256,192,7274,1,8,0:0:0:0:
256,192,7415,1,4,0:0:0:0:
256,192,7840,1,8,0:0:0:0:
256,192,8123,1,0,0:0:0:0:
256,192,8406,1,8,0:0:0:0:
256,192,8547,1,4,0:0:0:0:
256,192,8972,1,8,0:0:0:0:
256,192,9255,1,0,0:0:0:0:
256,192,9538,1,8,0:0:0:0:
256,192,9679,1,4,0:0:0:0:
256,192,9962,1,4,0:0:0:0:
256,192,10245,1,12,0:0:0:0:
224,160,10528,1,12,0:0:0:0:
288,192,10811,1,4,0:0:0:0:
256,192,11236,1,8,0:0:0:0:
256,192,11519,1,0,0:0:0:0:
256,192,11802,1,8,0:0:0:0:
256,192,11943,1,4,0:0:0:0:
256,192,12368,1,8,0:0:0:0:
256,192,12651,1,0,0:0:0:0:
256,192,12934,1,8,0:0:0:0:
256,192,13076,1,4,0:0:0:0:
256,192,13500,1,8,0:0:0:0:
256,192,13783,1,0,0:0:0:0:
256,192,14066,1,8,0:0:0:0:
256,192,14208,1,4,0:0:0:0:
256,192,14491,1,4,0:0:0:0:
288,160,14774,1,12,0:0:0:0:
224,160,15340,5,4,0:0:0:0:
224,192,15623,1,8,0:0:0:0:
224,192,15764,1,0,0:0:0:0:
224,192,15906,1,0,0:0:0:0:
224,192,16047,1,8,0:0:0:0:
224,192,16189,1,0,0:0:0:0:
224,192,16472,1,0,0:0:0:0:
224,192,16613,1,8,0:0:0:0:
224,192,16755,1,8,0:0:0:0:
224,192,16896,1,0,0:0:0:0:
224,192,17038,1,0,0:0:0:0:
224,192,17179,1,8,0:0:0:0:
224,192,17462,1,8,0:0:0:0:
224,192,17604,1,4,0:0:0:0:
224,192,17887,1,8,0:0:0:0:
224,192,18028,1,0,0:0:0:0:
224,192,18170,1,0,0:0:0:0:
224,192,18311,1,8,0:0:0:0:
224,192,18453,1,0,0:0:0:0:
224,192,18736,1,0,0:0:0:0:
224,192,18877,1,8,0:0:0:0:
224,192,19019,1,0,0:0:0:0:
224,192,19160,1,0,0:0:0:0:
224,192,19302,1,8,0:0:0:0:
224,192,19443,1,0,0:0:0:0:
224,192,19585,1,8,0:0:0:0:
224,192,19726,1,8,0:0:0:0:
224,192,19868,1,4,0:0:0:0:
224,192,20151,1,8,0:0:0:0:
224,192,20292,1,0,0:0:0:0:
224,192,20434,1,0,0:0:0:0:
224,192,20576,1,8,0:0:0:0:
224,192,20717,1,0,0:0:0:0:
224,192,21000,1,0,0:0:0:0:
224,192,21142,1,8,0:0:0:0:
224,192,21283,1,8,0:0:0:0:
224,192,21425,1,0,0:0:0:0:
224,192,21566,1,0,0:0:0:0:
224,192,21708,1,8,0:0:0:0:
224,192,21991,1,8,0:0:0:0:
224,192,22132,1,4,0:0:0:0:
224,192,22415,1,8,0:0:0:0:
224,192,22557,1,0,0:0:0:0:
224,192,22698,1,0,0:0:0:0:
224,192,22840,1,8,0:0:0:0:
224,192,22981,1,0,0:0:0:0:
224,192,23264,1,0,0:0:0:0:
224,192,23406,1,8,0:0:0:0:
224,192,23547,1,0,0:0:0:0:
224,192,23689,1,0,0:0:0:0:
224,192,23830,1,8,0:0:0:0:
224,192,23972,1,8,0:0:0:0:
224,192,24255,1,0,0:0:0:0:
224,160,24396,1,8,0:0:0:0:
224,160,24679,1,0,0:0:0:0:
224,160,24821,1,8,0:0:0:0:
224,160,25104,1,0,0:0:0:0:
96,192,25245,1,8,0:0:0:0:
256,192,25387,1,8,0:0:0:0:
288,128,25528,1,4,0:0:0:0:
224,160,25953,1,0,0:0:0:0:
224,160,26236,1,0,0:0:0:0:
224,160,26519,1,0,0:0:0:0:
224,160,26802,1,0,0:0:0:0:
224,160,27085,1,0,0:0:0:0:
224,160,27368,1,0,0:0:0:0:
224,160,27651,1,0,0:0:0:0:
224,160,27934,1,0,0:0:0:0:
224,160,28217,1,0,0:0:0:0:
224,160,28500,1,0,0:0:0:0:
224,160,28783,1,0,0:0:0:0:
224,160,29066,1,0,0:0:0:0:
224,160,29349,1,0,0:0:0:0:
224,160,29632,1,0,0:0:0:0:
224,160,29915,1,8,0:0:0:0:
224,160,30057,1,4,0:0:0:0:
224,160,30340,1,0,0:0:0:0:
224,160,30481,1,8,0:0:0:0:
224,128,30764,1,0,0:0:0:0:
224,128,31047,1,8,0:0:0:0:
224,128,31189,1,4,0:0:0:0:
224,128,31472,1,0,0:0:0:0:
224,128,31613,1,8,0:0:0:0:
224,128,31896,1,8,0:0:0:0:
160,160,32038,1,8,0:0:0:0:
224,128,32179,1,8,0:0:0:0:
224,128,32321,1,4,0:0:0:0:
224,128,32604,1,0,0:0:0:0:
224,128,32745,1,8,0:0:0:0:
224,128,33028,1,0,0:0:0:0:
224,128,33311,1,8,0:0:0:0:
224,128,33453,1,4,0:0:0:0:
320,96,33877,1,0,0:0:0:0:
320,96,34160,1,8,0:0:0:0:
320,96,34585,1,4,0:0:0:0:
320,96,35009,1,0,0:0:0:0:
320,96,35292,1,0,0:0:0:0:
320,96,35576,1,0,0:0:0:0:
320,96,35859,1,0,0:0:0:0:
320,96,36142,1,0,0:0:0:0:
320,96,36425,1,0,0:0:0:0:
320,96,36566,1,12,0:0:0:0:
320,96,36708,1,0,0:0:0:0:
320,96,36849,1,4,0:0:0:0:
320,96,37274,1,0,0:0:0:0:
320,96,37557,1,0,0:0:0:0:
320,96,37840,1,0,0:0:0:0:
320,96,38123,1,0,0:0:0:0:
320,96,38406,1,0,0:0:0:0:
320,96,38689,1,0,0:0:0:0:
320,96,38972,1,8,0:0:0:0:
320,96,39113,1,4,0:0:0:0:
224,160,39396,1,0,0:0:0:0:
224,160,39538,1,8,0:0:0:0:
224,128,39821,1,0,0:0:0:0:
224,128,40104,1,8,0:0:0:0:
224,128,40245,1,4,0:0:0:0:
224,128,40528,1,0,0:0:0:0:
224,128,40670,1,8,0:0:0:0:
224,128,40953,1,8,0:0:0:0:
224,128,41094,1,8,0:0:0:0:
224,128,41236,1,8,0:0:0:0:
224,128,41377,1,4,0:0:0:0:
224,128,41660,1,0,0:0:0:0:
224,128,41802,1,8,0:0:0:0:
224,128,42085,1,0,0:0:0:0:
224,128,42368,1,8,0:0:0:0:
224,128,42509,1,4,0:0:0:0:
320,96,42792,1,0,0:0:0:0:
320,96,42934,1,8,0:0:0:0:
256,128,43076,1,0,0:0:0:0:
256,128,43217,1,12,0:0:0:0:
256,128,43783,1,0,0:0:0:0:
192,160,44066,1,8,0:0:0:0:
192,160,44208,1,0,0:0:0:0:
192,160,44491,1,0,0:0:0:0:
192,160,44775,1,8,0:0:0:0:
192,160,44915,1,0,0:0:0:0:
192,160,45198,1,8,0:0:0:0:
192,160,45340,1,0,0:0:0:0:
192,160,45623,1,8,0:0:0:0:
192,160,45907,1,8,0:0:0:0:
192,160,46047,1,0,0:0:0:0:
192,160,46330,1,8,0:0:0:0:
192,160,46472,1,0,0:0:0:0:
192,160,46755,1,0,0:0:0:0:
192,160,47039,1,8,0:0:0:0:
192,160,47179,1,0,0:0:0:0:
192,160,47462,1,8,0:0:0:0:
192,160,47604,1,0,0:0:0:0:
192,160,47745,1,8,0:0:0:0:
128,160,48170,1,0,0:0:0:0:
224,160,48453,1,0,0:0:0:0:
224,160,48594,1,8,0:0:0:0:
224,160,48877,1,0,0:0:0:0:
224,160,49160,1,0,0:0:0:0:
224,160,49302,1,8,0:0:0:0:
224,160,49585,1,0,0:0:0:0:
224,160,49869,1,8,0:0:0:0:
224,160,50009,1,0,0:0:0:0:
224,160,50292,1,8,0:0:0:0:
224,160,50434,1,0,0:0:0:0:
224,160,50717,1,0,0:0:0:0:
224,160,50859,1,8,0:0:0:0:
224,160,51142,1,0,0:0:0:0:
224,160,51283,1,0,0:0:0:0:
224,160,51425,1,8,0:0:0:0:
224,160,51566,1,0,0:0:0:0:
224,160,51708,1,8,0:0:0:0:
224,160,51991,1,8,0:0:0:0:
224,160,52274,1,8,0:0:0:0:
224,160,52344,1,8,0:0:0:0:
224,160,52415,1,8,0:0:0:0:
224,160,52557,1,0,0:0:0:0:
256,192,52840,12,0,54821,0:0:0:0:
256,192,55104,5,8,0:0:0:0:
256,192,55245,1,0,0:0:0:0:
256,192,55387,1,8,0:0:0:0:
256,192,55528,1,0,0:0:0:0:
256,192,55670,1,8,0:0:0:0:
256,192,55811,1,8,0:0:0:0:
256,192,55953,1,8,0:0:0:0:
256,192,56094,1,0,0:0:0:0:
256,192,56236,1,8,0:0:0:0:
256,192,56519,1,8,0:0:0:0:
192,160,56802,1,0,0:0:0:0:
192,160,56943,1,8,0:0:0:0:
192,160,57014,1,8,0:0:0:0:
256,192,57085,1,8,0:0:0:0:
256,192,57368,1,8,0:0:0:0:
256,192,57509,1,0,0:0:0:0:
256,192,57651,1,0,0:0:0:0:
256,192,57792,1,8,0:0:0:0:
256,192,57934,1,0,0:0:0:0:
256,192,58076,1,0,0:0:0:0:
256,192,58217,1,8,0:0:0:0:
256,192,58500,1,0,0:0:0:0:
224,160,59491,1,4,0:0:0:0:
128,256,59774,1,0,0:0:0:0:
128,256,59915,1,8,0:0:0:0:
128,256,60198,1,0,0:0:0:0:
128,256,60340,1,0,0:0:0:0:
128,256,60481,1,8,0:0:0:0:
128,256,60623,1,0,0:0:0:0:
128,256,60906,1,0,0:0:0:0:
128,256,61047,1,8,0:0:0:0:
128,256,61330,1,8,0:0:0:0:
128,256,61613,1,8,0:0:0:0:
288,192,61755,1,0,0:0:0:0:
288,192,62038,1,0,0:0:0:0:
288,192,62179,1,8,0:0:0:0:
288,192,62462,1,8,0:0:0:0:
288,192,62604,1,0,0:0:0:0:
288,192,62745,1,8,0:0:0:0:
288,192,62887,1,0,0:0:0:0:
288,192,63170,1,0,0:0:0:0:
288,192,63311,1,8,0:0:0:0:
256,224,63594,1,0,0:0:0:0:
256,160,64019,1,4,0:0:0:0:
256,160,64302,1,0,0:0:0:0:
256,160,64443,1,8,0:0:0:0:
256,160,64726,1,0,0:0:0:0:
256,160,64868,1,0,0:0:0:0:
256,160,65009,1,8,0:0:0:0:
256,160,65151,1,0,0:0:0:0:
256,160,65434,1,8,0:0:0:0:
256,160,65576,1,8,0:0:0:0:
256,160,65859,1,0,0:0:0:0:
256,160,66142,1,8,0:0:0:0:
256,160,66283,1,0,0:0:0:0:
256,160,66566,1,0,0:0:0:0:
256,160,66708,1,8,0:0:0:0:
256,160,66849,1,0,0:0:0:0:
256,160,66991,1,0,0:0:0:0:
288,128,67132,1,8,0:0:0:0:
288,128,67274,1,8,0:0:0:0:
288,128,67557,1,0,0:0:0:0:
288,128,67698,1,8,0:0:0:0:
224,128,67769,1,8,0:0:0:0:
288,128,67840,1,8,0:0:0:0:
160,128,67981,1,8,0:0:0:0:
288,128,68123,1,0,0:0:0:0:
224,96,68406,1,8,0:0:0:0:
256,160,68547,1,4,0:0:0:0:
160,160,68831,1,0,0:0:0:0:
192,192,68972,1,8,0:0:0:0:
192,128,69255,1,8,0:0:0:0:
192,128,69396,1,0,0:0:0:0:
192,128,69538,1,8,0:0:0:0:
320,224,69821,1,8,0:0:0:0:
320,224,69962,1,0,0:0:0:0:
320,224,70104,1,8,0:0:0:0:
320,224,70245,1,0,0:0:0:0:
320,224,70387,1,8,0:0:0:0:
320,224,70670,1,8,0:0:0:0:
0,160,70953,1,0,0:0:0:0:
256,160,71236,1,8,0:0:0:0:
256,160,71377,1,0,0:0:0:0:
256,160,71660,1,0,0:0:0:0:
256,160,71802,1,8,0:0:0:0:
256,160,72085,1,8,0:0:0:0:
256,160,72226,1,0,0:0:0:0:
256,160,72368,1,8,0:0:0:0:
256,160,72509,1,0,0:0:0:0:
256,160,72651,1,8,0:0:0:0:
192,160,72934,1,8,0:0:0:0:
192,96,73217,1,0,0:0:0:0:
192,96,73500,1,8,0:0:0:0:
192,96,73642,1,0,0:0:0:0:
192,96,73783,1,0,0:0:0:0:
192,96,73854,1,0,0:0:0:0:
192,96,73925,1,0,0:0:0:0:
192,96,74066,1,8,0:0:0:0:
192,96,74349,1,0,0:0:0:0:
192,96,74632,1,8,0:0:0:0:
192,96,74774,1,0,0:0:0:0:
192,96,74915,1,0,0:0:0:0:
192,96,74986,1,0,0:0:0:0:
192,96,75057,1,0,0:0:0:0:
192,96,75198,1,8,0:0:0:0:
128,320,75340,2,0,B|64:160|160:96|480:192,1,490
256,192,76473,12,0,77180,0:0:0:0:
224,160,77604,5,4,0:0:0:0:
128,256,77887,1,0,0:0:0:0:
128,256,78028,1,8,0:0:0:0:
128,256,78311,1,0,0:0:0:0:
128,256,78453,1,0,0:0:0:0:
128,256,78594,1,8,0:0:0:0:
128,256,78736,1,0,0:0:0:0:
128,256,79019,1,0,0:0:0:0:
128,256,79160,1,8,0:0:0:0:
128,256,79443,1,8,0:0:0:0:
128,256,79726,1,8,0:0:0:0:
288,192,79868,1,0,0:0:0:0:
288,192,80151,1,0,0:0:0:0:
288,192,80292,1,8,0:0:0:0:
288,192,80576,1,8,0:0:0:0:
288,192,80717,1,0,0:0:0:0:
288,192,80859,1,8,0:0:0:0:
288,192,81000,1,0,0:0:0:0:
288,192,81283,1,0,0:0:0:0:
288,192,81425,1,8,0:0:0:0:
256,192,81708,1,0,0:0:0:0:
256,160,82132,1,4,0:0:0:0:
256,160,82415,1,0,0:0:0:0:
256,160,82557,1,8,0:0:0:0:
256,160,82840,1,0,0:0:0:0:
256,160,82981,1,0,0:0:0:0:
256,160,83123,1,8,0:0:0:0:
256,160,83264,1,0,0:0:0:0:
256,160,83547,1,8,0:0:0:0:
192,192,83689,1,8,0:0:0:0:
256,160,83972,1,0,0:0:0:0:
256,160,84255,1,8,0:0:0:0:
256,160,84396,1,0,0:0:0:0:
256,160,84679,1,0,0:0:0:0:
256,160,84821,1,8,0:0:0:0:
256,160,84962,1,0,0:0:0:0:
256,160,85104,1,0,0:0:0:0:
288,128,85245,1,8,0:0:0:0:
288,128,85387,1,8,0:0:0:0:
288,128,85670,1,0,0:0:0:0:
288,128,85811,1,8,0:0:0:0:
224,128,85882,1,8,0:0:0:0:
288,128,85953,1,8,0:0:0:0:
160,128,86094,1,8,0:0:0:0:
288,128,86236,1,0,0:0:0:0:
224,96,86519,1,8,0:0:0:0:
256,160,86660,1,4,0:0:0:0:
192,192,86943,1,0,0:0:0:0:
192,192,87085,1,8,0:0:0:0:
192,128,87368,1,8,0:0:0:0:
192,128,87509,1,0,0:0:0:0:
192,128,87651,1,8,0:0:0:0:
320,224,87934,1,8,0:0:0:0:
320,224,88076,1,0,0:0:0:0:
320,224,88217,1,8,0:0:0:0:
320,224,88359,1,0,0:0:0:0:
320,224,88500,1,8,0:0:0:0:
320,224,88783,1,8,0:0:0:0:
288,192,89066,1,0,0:0:0:0:
288,192,89208,1,0,0:0:0:0:
288,192,89349,1,8,0:0:0:0:
288,192,89491,1,8,0:0:0:0:
288,192,89632,1,0,0:0:0:0:
288,192,89774,1,0,0:0:0:0:
288,192,89915,1,8,0:0:0:0:
192,128,90199,1,0,0:0:0:0:
192,128,90482,1,8,0:0:0:0:
192,128,90624,1,0,0:0:0:0:
192,128,90765,1,0,0:0:0:0:
192,128,90907,1,8,0:0:0:0:
192,128,90977,1,8,0:0:0:0:
192,128,91048,1,8,0:0:0:0:
288,192,91330,5,0,0:0:0:0:
288,192,91613,1,8,0:0:0:0:
288,192,91755,1,0,0:0:0:0:
288,192,92038,1,8,0:0:0:0:
288,192,92321,1,0,0:0:0:0:
288,192,92604,1,0,0:0:0:0:
288,192,92745,1,8,0:0:0:0:
288,192,92887,1,0,0:0:0:0:
288,192,93028,1,0,0:0:0:0:
288,192,93170,1,8,0:0:0:0:
288,192,93311,1,8,0:0:0:0:
288,192,93453,1,4,0:0:0:0:
