osu file format v14

[General]
AudioFilename: Pile - Lost Paradise.mp3
AudioLeadIn: 0
PreviewTime: 59067
Countdown: 0
SampleSet: Normal
StackLeniency: 0.7
Mode: 1
LetterboxInBreaks: 0
WidescreenStoryboard: 0

[Editor]
Bookmarks: 15340,76613
DistanceSpacing: 0.8
BeatDivisor: 4
GridSize: 32
TimelineZoom: 2.459999

[Metadata]
Title:Lost Paradise
TitleUnicode:Lost Paradise
Artist:Pile
ArtistUnicode:Pile
Creator:Chocola_2287
Version:Ura Oni
Source:王様ゲーム The Animation
Tags:Ousama King's Game ED Ending Hori Eriko 堀 絵梨子 Aloda tv size version metal rock
BeatmapID:1497967
BeatmapSetID:708576

[Difficulty]
HPDrainRate:6
CircleSize:6
OverallDifficulty:6.3
ApproachRate:8.6
SliderMultiplier:1.4
SliderTickRate:1

[Events]
//Background and Video events
0,0,"NBIH7es.jpg",0,0
//Break Periods
//Storyboard Layer 0 (Background)
//Storyboard Layer 1 (Fail)
//Storyboard Layer 2 (Pass)
//Storyboard Layer 3 (Foreground)
//Storyboard Sound Samples

[TimingPoints]
5294,283.018867924528,4,1,0,85,1,0
25954,-104.166666666667,4,1,0,65,0,0
26237,-108.695652173913,4,1,0,65,0,0
26520,-113.636363636364,4,1,0,65,0,0
26803,-119.047619047619,4,1,0,65,0,0
27086,-125,4,1,0,65,0,0
27369,-131.578947368421,4,1,0,65,0,0
27652,-138.888888888889,4,1,0,65,0,0
27935,-147.058823529412,4,1,0,65,0,0
28218,-156.25,4,1,0,65,0,0
28501,-166.666666666667,4,1,0,65,0,0
28784,-178.571428571429,4,1,0,65,0,0
29067,-188.679245283019,4,1,0,65,0,0
29350,-200,4,1,0,65,0,0
29633,-100,4,1,0,85,0,0
35010,-104.166666666667,4,1,0,65,0,0
35293,-108.695652173913,4,1,0,65,0,0
35577,-113.636363636364,4,1,0,65,0,0
35860,-119.047619047619,4,1,0,65,0,0
36143,-125,4,1,0,65,0,0
36426,-131.578947368421,4,1,0,65,0,0
36567,-135.135135135135,4,1,0,85,0,0
36709,-138.888888888889,4,1,0,65,0,0
36850,-142.857142857143,4,1,0,85,0,0
36921,-147.058823529412,4,1,0,65,0,0
37275,-156.25,4,1,0,65,0,0
37558,-166.666666666667,4,1,0,65,0,0
37841,-178.571428571429,4,1,0,65,0,0
38124,-188.679245283019,4,1,0,65,0,0
38407,-200,4,1,0,65,0,0
38690,-100,4,1,0,85,0,0
59492,-100,4,1,0,100,0,1
93454,-100,4,1,0,95,0,0
93472,-100,4,1,0,70,0,0

[HitObjects]
288,192,5293,5,0,0:0:0:0:
288,192,5364,1,8,0:0:0:0:
288,192,5435,1,8,0:0:0:0:
288,192,5506,1,8,0:0:0:0:
288,192,5577,1,8,0:0:0:0:
288,192,5718,1,8,0:0:0:0:
288,192,5860,1,0,0:0:0:0:
288,192,6001,1,0,0:0:0:0:
288,192,6143,1,8,0:0:0:0:
288,192,6284,1,4,0:0:0:0:
256,192,6567,1,0,0:0:0:0:
256,192,6709,1,8,0:0:0:0:
256,192,6992,1,0,0:0:0:0:
256,192,7062,1,0,0:0:0:0:
256,192,7133,1,0,0:0:0:0:
256,192,7275,1,8,0:0:0:0:
256,192,7416,1,4,0:0:0:0:
256,192,7699,1,0,0:0:0:0:
256,192,7841,1,8,0:0:0:0:
256,192,8124,1,0,0:0:0:0:
192,160,8194,1,8,0:0:0:0:
256,192,8265,1,8,0:0:0:0:
256,192,8407,1,8,0:0:0:0:
256,192,8548,1,4,0:0:0:0:
256,192,8831,1,0,0:0:0:0:
256,192,8973,1,8,0:0:0:0:
256,192,9256,1,0,0:0:0:0:
256,192,9327,1,0,0:0:0:0:
256,192,9397,1,0,0:0:0:0:
256,192,9539,1,8,0:0:0:0:
256,192,9680,1,4,0:0:0:0:
256,192,9963,1,4,0:0:0:0:
256,192,10246,1,12,0:0:0:0:
256,128,10388,1,0,0:0:0:0:
224,160,10529,1,8,0:0:0:0:
224,160,10577,1,8,0:0:0:0:
224,160,10624,1,8,0:0:0:0:
224,160,10671,1,8,0:0:0:0:
288,192,10812,1,4,0:0:0:0:
256,192,11095,1,0,0:0:0:0:
256,192,11237,1,8,0:0:0:0:
256,192,11520,1,0,0:0:0:0:
256,192,11591,1,0,0:0:0:0:
256,192,11661,1,0,0:0:0:0:
256,192,11803,1,8,0:0:0:0:
256,192,11944,1,4,0:0:0:0:
256,192,12227,1,0,0:0:0:0:
256,192,12369,1,8,0:0:0:0:
256,192,12652,1,0,0:0:0:0:
192,160,12723,1,8,0:0:0:0:
256,192,12793,1,8,0:0:0:0:
256,192,12935,1,8,0:0:0:0:
256,192,13077,1,4,0:0:0:0:
256,192,13360,1,0,0:0:0:0:
256,192,13501,1,8,0:0:0:0:
256,192,13784,1,0,0:0:0:0:
160,192,13855,1,0,0:0:0:0:
256,192,13926,1,0,0:0:0:0:
256,192,14067,1,8,0:0:0:0:
256,192,14209,1,4,0:0:0:0:
256,192,14492,1,4,0:0:0:0:
256,192,14775,1,12,0:0:0:0:
256,128,14916,1,0,0:0:0:0:
224,160,15058,1,8,0:0:0:0:
224,160,15105,1,8,0:0:0:0:
224,160,15152,1,8,0:0:0:0:
224,160,15199,1,8,0:0:0:0:
224,160,15341,1,4,0:0:0:0:
224,192,15624,1,8,0:0:0:0:
224,192,15765,1,0,0:0:0:0:
224,192,15836,1,8,0:0:0:0:
224,192,15907,1,0,0:0:0:0:
224,192,16048,1,8,0:0:0:0:
224,192,16119,1,0,0:0:0:0:
224,192,16190,1,8,0:0:0:0:
224,192,16260,1,8,0:0:0:0:
224,192,16331,1,0,0:0:0:0:
224,192,16473,1,0,0:0:0:0:
224,192,16614,1,8,0:0:0:0:
224,192,16685,1,0,0:0:0:0:
224,192,16756,1,8,0:0:0:0:
224,192,16897,1,0,0:0:0:0:
224,192,17039,1,8,0:0:0:0:
224,192,17110,1,0,0:0:0:0:
224,192,17180,1,0,0:0:0:0:
224,192,17251,1,8,0:0:0:0:
224,192,17322,1,8,0:0:0:0:
224,192,17393,1,0,0:0:0:0:
224,192,17463,1,8,0:0:0:0:
224,192,17605,1,4,0:0:0:0:
224,192,17888,1,8,0:0:0:0:
224,192,18029,1,0,0:0:0:0:
224,192,18100,1,8,0:0:0:0:
224,192,18171,1,0,0:0:0:0:
224,192,18312,1,8,0:0:0:0:
224,192,18383,1,8,0:0:0:0:
224,192,18454,1,0,0:0:0:0:
224,192,18525,1,8,0:0:0:0:
224,192,18595,1,0,0:0:0:0:
224,192,18737,1,8,0:0:0:0:
224,192,18878,1,0,0:0:0:0:
224,192,18949,1,8,0:0:0:0:
224,192,19020,1,0,0:0:0:0:
224,192,19161,1,8,0:0:0:0:
224,192,19303,1,0,0:0:0:0:
224,192,19374,1,8,0:0:0:0:
224,192,19444,1,0,0:0:0:0:
224,192,19515,1,8,0:0:0:0:
224,192,19586,1,8,0:0:0:0:
224,192,19657,1,0,0:0:0:0:
224,192,19727,1,8,0:0:0:0:
224,192,19869,1,4,0:0:0:0:
224,192,20152,1,8,0:0:0:0:
224,192,20293,1,0,0:0:0:0:
224,192,20364,1,8,0:0:0:0:
224,192,20435,1,0,0:0:0:0:
224,192,20577,1,8,0:0:0:0:
224,192,20647,1,0,0:0:0:0:
224,192,20718,1,8,0:0:0:0:
224,192,20789,1,8,0:0:0:0:
224,192,20860,1,0,0:0:0:0:
224,192,21001,1,0,0:0:0:0:
224,192,21143,1,8,0:0:0:0:
224,192,21213,1,0,0:0:0:0:
224,192,21284,1,8,0:0:0:0:
224,192,21426,1,0,0:0:0:0:
224,192,21567,1,8,0:0:0:0:
224,192,21638,1,0,0:0:0:0:
224,192,21709,1,0,0:0:0:0:
224,192,21779,1,8,0:0:0:0:
224,192,21850,1,8,0:0:0:0:
224,192,21921,1,0,0:0:0:0:
224,192,21992,1,8,0:0:0:0:
224,192,22133,1,4,0:0:0:0:
224,192,22416,1,8,0:0:0:0:
224,192,22558,1,0,0:0:0:0:
224,192,22628,1,8,0:0:0:0:
224,192,22699,1,0,0:0:0:0:
224,192,22841,1,8,0:0:0:0:
224,192,22911,1,8,0:0:0:0:
224,192,22982,1,0,0:0:0:0:
224,192,23053,1,8,0:0:0:0:
224,192,23124,1,0,0:0:0:0:
224,192,23265,1,8,0:0:0:0:
224,192,23407,1,0,0:0:0:0:
288,192,23477,1,0,0:0:0:0:
288,192,23548,1,8,0:0:0:0:
288,192,23619,1,8,0:0:0:0:
288,192,23690,1,0,0:0:0:0:
224,96,23831,1,0,0:0:0:0:
224,96,23902,1,8,0:0:0:0:
224,96,23973,1,8,0:0:0:0:
224,96,24043,1,8,0:0:0:0:
224,96,24114,1,0,0:0:0:0:
224,96,24256,1,8,0:0:0:0:
224,96,24327,1,8,0:0:0:0:
224,96,24397,1,0,0:0:0:0:
160,96,24468,1,8,0:0:0:0:
224,96,24539,1,0,0:0:0:0:
288,128,24680,1,8,0:0:0:0:
288,128,24751,1,8,0:0:0:0:
288,128,24822,1,8,0:0:0:0:
288,128,24963,1,0,0:0:0:0:
288,128,25105,1,8,0:0:0:0:
288,128,25176,1,8,0:0:0:0:
288,128,25246,1,8,0:0:0:0:
288,128,25388,1,0,0:0:0:0:
288,128,25529,1,4,0:0:0:0:
224,160,25954,1,0,0:0:0:0:
224,160,26237,1,0,0:0:0:0:
224,160,26520,1,0,0:0:0:0:
224,160,26803,1,0,0:0:0:0:
224,160,27086,1,0,0:0:0:0:
224,160,27369,1,0,0:0:0:0:
224,160,27652,1,0,0:0:0:0:
224,160,27935,1,0,0:0:0:0:
224,160,28218,1,0,0:0:0:0:
224,160,28501,1,0,0:0:0:0:
224,160,28784,1,0,0:0:0:0:
224,160,29067,1,0,0:0:0:0:
224,160,29350,1,0,0:0:0:0:
224,160,29633,1,0,0:0:0:0:
224,160,29775,1,0,0:0:0:0:
224,160,29916,1,8,0:0:0:0:
224,160,30058,1,4,0:0:0:0:
224,160,30341,1,0,0:0:0:0:
224,160,30482,1,8,0:0:0:0:
224,160,30624,1,0,0:0:0:0:
224,128,30765,1,8,0:0:0:0:
224,128,30812,1,8,0:0:0:0:
224,128,30860,1,8,0:0:0:0:
224,128,30907,1,8,0:0:0:0:
224,128,31048,1,0,0:0:0:0:
224,128,31190,1,4,0:0:0:0:
224,128,31473,1,0,0:0:0:0:
224,128,31614,1,8,0:0:0:0:
224,128,31756,1,0,0:0:0:0:
224,128,31897,1,8,0:0:0:0:
224,128,31944,1,8,0:0:0:0:
160,160,31992,1,8,0:0:0:0:
224,128,32039,1,8,0:0:0:0:
224,128,32180,1,8,0:0:0:0:
224,128,32322,1,4,0:0:0:0:
224,128,32605,1,0,0:0:0:0:
224,128,32746,1,8,0:0:0:0:
224,128,32888,1,0,0:0:0:0:
224,128,33029,1,8,0:0:0:0:
224,128,33077,1,8,0:0:0:0:
256,160,33124,1,8,0:0:0:0:
224,128,33171,1,8,0:0:0:0:
224,128,33312,1,0,0:0:0:0:
224,128,33454,1,4,0:0:0:0:
320,96,33737,1,0,0:0:0:0:
320,96,33878,1,8,0:0:0:0:
320,96,34020,1,0,0:0:0:0:
320,96,34161,1,8,0:0:0:0:
320,96,34232,1,0,0:0:0:0:
320,96,34303,1,8,0:0:0:0:
320,96,34374,1,8,0:0:0:0:
320,96,34444,1,8,0:0:0:0:
320,96,34586,1,4,0:0:0:0:
320,96,35010,1,0,0:0:0:0:
320,96,35293,1,0,0:0:0:0:
320,96,35577,1,0,0:0:0:0:
320,96,35860,1,0,0:0:0:0:
320,96,36143,1,0,0:0:0:0:
320,96,36426,1,0,0:0:0:0:
320,96,36567,1,12,0:0:0:0:
192,192,36709,1,0,0:0:0:0:
320,96,36850,1,4,0:0:0:0:
320,96,37275,1,0,0:0:0:0:
320,96,37558,1,0,0:0:0:0:
320,96,37841,1,0,0:0:0:0:
320,96,38124,1,0,0:0:0:0:
320,96,38407,1,0,0:0:0:0:
320,96,38690,1,0,0:0:0:0:
320,96,38831,1,0,0:0:0:0:
320,96,38973,1,8,0:0:0:0:
320,96,39114,1,4,0:0:0:0:
224,160,39397,1,0,0:0:0:0:
224,160,39539,1,8,0:0:0:0:
224,160,39680,1,0,0:0:0:0:
224,128,39822,1,8,0:0:0:0:
224,128,39869,1,8,0:0:0:0:
224,128,39916,1,8,0:0:0:0:
224,128,39963,1,8,0:0:0:0:
224,128,40105,1,0,0:0:0:0:
224,128,40246,1,4,0:0:0:0:
224,128,40529,1,0,0:0:0:0:
224,128,40671,1,8,0:0:0:0:
224,128,40812,1,0,0:0:0:0:
224,128,40954,1,8,0:0:0:0:
224,128,41001,1,8,0:0:0:0:
160,160,41048,1,8,0:0:0:0:
224,128,41095,1,8,0:0:0:0:
224,128,41237,1,8,0:0:0:0:
224,128,41378,1,4,0:0:0:0:
224,128,41661,1,0,0:0:0:0:
224,128,41803,1,8,0:0:0:0:
224,128,41944,1,0,0:0:0:0:
224,128,42086,1,8,0:0:0:0:
224,128,42133,1,8,0:0:0:0:
256,160,42180,1,8,0:0:0:0:
224,128,42227,1,8,0:0:0:0:
224,128,42369,1,0,0:0:0:0:
224,128,42510,1,4,0:0:0:0:
320,96,42793,1,0,0:0:0:0:
320,96,42935,1,8,0:0:0:0:
256,128,43077,1,0,0:0:0:0:
256,128,43147,1,8,0:0:0:0:
256,128,43218,1,8,0:0:0:0:
256,128,43289,1,8,0:0:0:0:
256,128,43360,1,0,0:0:0:0:
256,128,43430,1,0,0:0:0:0:
256,128,43501,1,8,0:0:0:0:
256,128,43643,1,8,0:0:0:0:
256,128,43784,1,0,0:0:0:0:
192,160,44067,1,8,0:0:0:0:
192,160,44209,1,0,0:0:0:0:
192,160,44492,1,0,0:0:0:0:
192,160,44562,1,0,0:0:0:0:
192,160,44633,1,0,0:0:0:0:
192,160,44775,1,8,0:0:0:0:
192,160,44916,1,0,0:0:0:0:
192,160,45199,1,8,0:0:0:0:
192,160,45341,1,0,0:0:0:0:
192,160,45624,1,0,0:0:0:0:
192,160,45694,1,8,0:0:0:0:
192,160,45765,1,8,0:0:0:0:
192,160,45907,1,8,0:0:0:0:
192,160,46048,1,0,0:0:0:0:
192,160,46331,1,8,0:0:0:0:
192,160,46473,1,0,0:0:0:0:
192,160,46756,1,0,0:0:0:0:
192,160,46827,1,0,0:0:0:0:
192,160,46897,1,0,0:0:0:0:
192,160,47039,1,8,0:0:0:0:
192,160,47180,1,0,0:0:0:0:
192,160,47463,1,8,0:0:0:0:
192,160,47605,1,0,0:0:0:0:
192,160,47746,1,0,0:0:0:0:
192,160,47817,1,0,0:0:0:0:
192,160,47888,1,0,0:0:0:0:
192,160,48029,1,8,0:0:0:0:
128,160,48171,1,0,0:0:0:0:
224,160,48454,1,0,0:0:0:0:
224,160,48595,1,8,0:0:0:0:
224,160,48878,1,0,0:0:0:0:
224,160,49020,1,0,0:0:0:0:
224,160,49091,1,0,0:0:0:0:
224,160,49161,1,0,0:0:0:0:
224,160,49303,1,8,0:0:0:0:
224,160,49586,1,0,0:0:0:0:
224,160,49727,1,8,0:0:0:0:
224,160,50010,1,0,0:0:0:0:
224,160,50152,1,8,0:0:0:0:
224,160,50223,1,8,0:0:0:0:
224,160,50293,1,8,0:0:0:0:
224,160,50435,1,0,0:0:0:0:
224,160,50718,1,0,0:0:0:0:
224,160,50860,1,8,0:0:0:0:
224,160,51143,1,0,0:0:0:0:
224,160,51284,1,0,0:0:0:0:
224,160,51355,1,0,0:0:0:0:
224,160,51426,1,8,0:0:0:0:
224,160,51567,1,0,0:0:0:0:
224,160,51709,1,8,0:0:0:0:
224,160,51850,1,0,0:0:0:0:
224,160,51992,1,8,0:0:0:0:
224,160,52133,1,0,0:0:0:0:
224,160,52275,1,8,0:0:0:0:
224,160,52345,1,8,0:0:0:0:
224,160,52416,1,0,0:0:0:0:
224,160,52487,1,0,0:0:0:0:
224,160,52558,1,8,0:0:0:0:
224,160,52628,1,8,0:0:0:0:
224,160,52699,1,8,0:0:0:0:
224,160,52770,1,8,0:0:0:0:
256,192,52841,12,0,54822,0:0:0:0:
256,192,55105,5,8,0:0:0:0:
256,192,55176,1,8,0:0:0:0:
256,192,55246,1,0,0:0:0:0:
256,192,55317,1,0,0:0:0:0:
256,192,55388,1,8,0:0:0:0:
256,192,55459,1,8,0:0:0:0:
256,192,55529,1,8,0:0:0:0:
256,192,55600,1,0,0:0:0:0:
256,192,55671,1,8,0:0:0:0:
256,192,55742,1,8,0:0:0:0:
256,192,55812,1,0,0:0:0:0:
256,192,55883,1,0,0:0:0:0:
256,192,55954,1,8,0:0:0:0:
256,192,56025,1,8,0:0:0:0:
256,192,56095,1,8,0:0:0:0:
256,192,56166,1,0,0:0:0:0:
256,192,56237,1,8,0:0:0:0:
256,192,56378,1,0,0:0:0:0:
256,192,56449,1,0,0:0:0:0:
256,192,56520,1,8,0:0:0:0:
256,192,56591,1,8,0:0:0:0:
256,192,56661,1,0,0:0:0:0:
256,192,56732,1,0,0:0:0:0:
256,192,56803,1,8,0:0:0:0:
256,192,56874,1,0,0:0:0:0:
256,192,56944,1,8,0:0:0:0:
256,192,57015,1,0,0:0:0:0:
256,192,57086,1,8,0:0:0:0:
256,192,57157,1,8,0:0:0:0:
256,192,57227,1,8,0:0:0:0:
256,192,57298,1,0,0:0:0:0:
256,192,57369,1,8,0:0:0:0:
256,192,57510,1,0,0:0:0:0:
256,192,57558,1,0,0:0:0:0:
256,192,57605,1,0,0:0:0:0:
256,192,57652,1,0,0:0:0:0:
256,192,57793,1,8,0:0:0:0:
256,192,57935,1,0,0:0:0:0:
256,192,57982,1,0,0:0:0:0:
192,128,58029,1,0,0:0:0:0:
256,192,58077,1,0,0:0:0:0:
256,192,58218,1,8,0:0:0:0:
256,192,58289,1,0,0:0:0:0:
256,192,58360,1,8,0:0:0:0:
256,192,58407,1,8,0:0:0:0:
160,160,58454,1,8,0:0:0:0:
256,192,58501,1,0,0:0:0:0:
224,160,59492,1,4,0:0:0:0:
128,256,59775,1,0,0:0:0:0:
128,256,59916,1,8,0:0:0:0:
128,256,60058,1,0,0:0:0:0:
128,256,60199,1,0,0:0:0:0:
128,256,60270,1,0,0:0:0:0:
128,256,60341,1,0,0:0:0:0:
128,256,60482,1,8,0:0:0:0:
128,256,60624,1,0,0:0:0:0:
128,256,60765,1,0,0:0:0:0:
128,256,60907,1,8,0:0:0:0:
128,256,60977,1,8,0:0:0:0:
128,256,61048,1,8,0:0:0:0:
128,256,61190,1,0,0:0:0:0:
128,256,61331,1,0,0:0:0:0:
128,256,61402,1,8,0:0:0:0:
128,256,61543,1,0,0:0:0:0:
128,256,61614,1,8,0:0:0:0:
288,192,61756,1,0,0:0:0:0:
288,192,61897,1,0,0:0:0:0:
288,192,61968,1,8,0:0:0:0:
288,192,62039,1,0,0:0:0:0:
288,192,62180,1,8,0:0:0:0:
288,192,62322,1,8,0:0:0:0:
288,192,62393,1,0,0:0:0:0:
288,192,62463,1,8,0:0:0:0:
288,192,62534,1,8,0:0:0:0:
288,192,62605,1,0,0:0:0:0:
288,192,62746,1,8,0:0:0:0:
288,192,62888,1,0,0:0:0:0:
288,192,63171,1,0,0:0:0:0:
288,192,63242,1,0,0:0:0:0:
288,192,63312,1,8,0:0:0:0:
288,192,63454,1,0,0:0:0:0:
256,160,63525,1,8,0:0:0:0:
256,160,63666,1,8,0:0:0:0:
256,160,63737,1,0,0:0:0:0:
256,160,63808,1,0,0:0:0:0:
256,160,63878,1,8,0:0:0:0:
256,160,64020,1,4,0:0:0:0:
256,160,64303,1,0,0:0:0:0:
256,160,64374,1,8,0:0:0:0:
256,160,64444,1,0,0:0:0:0:
256,160,64586,1,0,0:0:0:0:
256,160,64727,1,8,0:0:0:0:
256,160,64798,1,0,0:0:0:0:
256,160,64869,1,8,0:0:0:0:
256,160,65010,1,0,0:0:0:0:
256,160,65152,1,0,0:0:0:0:
256,160,65293,1,8,0:0:0:0:
256,160,65364,1,8,0:0:0:0:
256,160,65435,1,0,0:0:0:0:
256,160,65506,1,0,0:0:0:0:
256,160,65577,1,8,0:0:0:0:
256,160,65718,1,0,0:0:0:0:
256,160,65860,1,8,0:0:0:0:
256,160,65930,1,8,0:0:0:0:
256,160,66001,1,0,0:0:0:0:
256,160,66072,1,8,0:0:0:0:
256,160,66143,1,0,0:0:0:0:
256,160,66284,1,8,0:0:0:0:
256,160,66426,1,0,0:0:0:0:
256,160,66567,1,8,0:0:0:0:
256,160,66638,1,8,0:0:0:0:
256,160,66709,1,8,0:0:0:0:
256,160,66850,1,0,0:0:0:0:
256,160,66992,1,0,0:0:0:0:
288,128,67133,1,8,0:0:0:0:
288,128,67204,1,0,0:0:0:0:
288,128,67275,1,8,0:0:0:0:
288,128,67416,1,0,0:0:0:0:
288,128,67558,1,0,0:0:0:0:
288,128,67628,1,8,0:0:0:0:
288,128,67770,1,0,0:0:0:0:
288,128,67841,1,8,0:0:0:0:
288,128,67982,1,0,0:0:0:0:
288,128,68053,1,8,0:0:0:0:
288,128,68124,1,0,0:0:0:0:
224,96,68194,1,0,0:0:0:0:
224,96,68336,1,8,0:0:0:0:
224,96,68407,1,0,0:0:0:0:
256,160,68548,1,4,0:0:0:0:
192,192,68831,1,0,0:0:0:0:
192,192,68973,1,8,0:0:0:0:
192,128,69114,1,0,0:0:0:0:
192,128,69185,1,0,0:0:0:0:
192,128,69256,1,8,0:0:0:0:
192,128,69397,1,0,0:0:0:0:
192,128,69539,1,8,0:0:0:0:
192,128,69610,1,8,0:0:0:0:
192,128,69680,1,0,0:0:0:0:
320,224,69822,1,8,0:0:0:0:
320,224,69893,1,0,0:0:0:0:
320,224,69963,1,0,0:0:0:0:
320,224,70034,1,0,0:0:0:0:
320,224,70105,1,8,0:0:0:0:
320,224,70246,1,0,0:0:0:0:
320,224,70317,1,0,0:0:0:0:
320,224,70388,1,8,0:0:0:0:
320,224,70459,1,0,0:0:0:0:
320,224,70529,1,8,0:0:0:0:
320,224,70671,1,0,0:0:0:0:
320,224,70742,1,0,0:0:0:0:
320,224,70812,1,8,0:0:0:0:
256,160,70954,1,8,0:0:0:0:
256,160,71095,1,0,0:0:0:0:
256,160,71237,1,8,0:0:0:0:
256,160,71378,1,0,0:0:0:0:
256,160,71449,1,0,0:0:0:0:
256,160,71520,1,8,0:0:0:0:
256,160,71661,1,0,0:0:0:0:
256,160,71803,1,8,0:0:0:0:
256,160,71874,1,8,0:0:0:0:
256,160,71944,1,0,0:0:0:0:
256,160,72086,1,8,0:0:0:0:
256,160,72157,1,0,0:0:0:0:
256,160,72227,1,0,0:0:0:0:
256,160,72298,1,0,0:0:0:0:
256,160,72369,1,8,0:0:0:0:
256,160,72510,1,0,0:0:0:0:
256,160,72581,1,8,0:0:0:0:
256,160,72652,1,8,0:0:0:0:
256,160,72723,1,0,0:0:0:0:
256,160,72793,1,8,0:0:0:0:
192,160,72935,1,0,0:0:0:0:
192,160,73006,1,8,0:0:0:0:
192,160,73077,1,8,0:0:0:0:
192,96,73218,1,0,0:0:0:0:
192,96,73360,1,0,0:0:0:0:
192,96,73430,1,0,0:0:0:0:
192,96,73501,1,8,0:0:0:0:
192,96,73643,1,0,0:0:0:0:
192,96,73784,1,8,0:0:0:0:
192,96,73855,1,8,0:0:0:0:
192,96,73926,1,0,0:0:0:0:
192,96,74067,1,8,0:0:0:0:
192,96,74209,1,0,0:0:0:0:
192,96,74350,1,0,0:0:0:0:
192,96,74492,1,0,0:0:0:0:
192,96,74562,1,0,0:0:0:0:
192,96,74633,1,8,0:0:0:0:
192,96,74775,1,0,0:0:0:0:
192,96,74916,1,8,0:0:0:0:
192,96,74987,1,8,0:0:0:0:
192,96,75058,1,0,0:0:0:0:
192,96,75199,1,8,0:0:0:0:
192,96,75341,1,0,0:0:0:0:
224,192,75482,1,0,0:0:0:0:
224,192,75553,1,0,0:0:0:0:
224,192,75624,1,8,0:0:0:0:
224,192,75694,1,0,0:0:0:0:
224,192,75765,1,8,0:0:0:0:
224,192,75836,1,8,0:0:0:0:
224,192,75907,1,0,0:0:0:0:
224,192,75977,1,0,0:0:0:0:
224,192,76048,1,8,0:0:0:0:
224,192,76119,1,0,0:0:0:0:
224,192,76190,1,8,0:0:0:0:
224,192,76260,1,8,0:0:0:0:
224,192,76331,1,8,0:0:0:0:
224,192,76402,1,0,0:0:0:0:
224,192,76473,1,8,0:0:0:0:
224,192,76543,1,8,0:0:0:0:
224,192,76614,1,0,0:0:0:0:
224,192,76685,1,0,0:0:0:0:
224,192,76756,1,0,0:0:0:0:
224,192,76827,1,8,0:0:0:0:
224,192,76897,1,8,0:0:0:0:
224,192,76968,1,8,0:0:0:0:
224,192,77039,1,0,0:0:0:0:
224,192,77110,1,0,0:0:0:0:
224,192,77180,1,8,0:0:0:0:
224,192,77251,1,8,0:0:0:0:
224,192,77322,1,8,0:0:0:0:
224,192,77393,1,0,0:0:0:0:
224,192,77463,1,8,0:0:0:0:
224,160,77605,1,4,0:0:0:0:
128,256,77888,1,0,0:0:0:0:
128,256,78029,1,8,0:0:0:0:
128,256,78171,1,0,0:0:0:0:
128,256,78312,1,0,0:0:0:0:
128,256,78383,1,0,0:0:0:0:
128,256,78454,1,0,0:0:0:0:
128,256,78595,1,8,0:0:0:0:
128,256,78737,1,0,0:0:0:0:
128,256,78878,1,0,0:0:0:0:
128,256,79020,1,8,0:0:0:0:
128,256,79091,1,8,0:0:0:0:
128,256,79161,1,8,0:0:0:0:
128,256,79303,1,0,0:0:0:0:
128,256,79444,1,0,0:0:0:0:
128,256,79515,1,8,0:0:0:0:
128,256,79657,1,0,0:0:0:0:
128,256,79727,1,8,0:0:0:0:
288,192,79869,1,0,0:0:0:0:
288,192,80010,1,0,0:0:0:0:
288,192,80081,1,8,0:0:0:0:
288,192,80152,1,0,0:0:0:0:
288,192,80293,1,8,0:0:0:0:
288,192,80435,1,8,0:0:0:0:
288,192,80506,1,0,0:0:0:0:
288,192,80577,1,8,0:0:0:0:
288,192,80647,1,8,0:0:0:0:
288,192,80718,1,0,0:0:0:0:
288,192,80860,1,8,0:0:0:0:
288,192,81001,1,0,0:0:0:0:
288,192,81284,1,0,0:0:0:0:
288,192,81355,1,0,0:0:0:0:
288,192,81426,1,8,0:0:0:0:
288,192,81567,1,0,0:0:0:0:
256,160,81638,1,8,0:0:0:0:
256,160,81779,1,8,0:0:0:0:
256,160,81850,1,0,0:0:0:0:
256,160,81921,1,0,0:0:0:0:
256,160,81992,1,8,0:0:0:0:
256,160,82133,1,4,0:0:0:0:
256,160,82416,1,0,0:0:0:0:
256,160,82487,1,8,0:0:0:0:
256,160,82558,1,0,0:0:0:0:
256,160,82699,1,0,0:0:0:0:
256,160,82841,1,8,0:0:0:0:
256,160,82911,1,0,0:0:0:0:
256,160,82982,1,8,0:0:0:0:
256,160,83124,1,0,0:0:0:0:
256,160,83265,1,0,0:0:0:0:
256,160,83407,1,8,0:0:0:0:
256,160,83477,1,8,0:0:0:0:
256,160,83548,1,0,0:0:0:0:
256,160,83619,1,0,0:0:0:0:
256,160,83690,1,8,0:0:0:0:
256,160,83831,1,0,0:0:0:0:
256,160,83973,1,8,0:0:0:0:
256,160,84043,1,8,0:0:0:0:
256,160,84114,1,0,0:0:0:0:
256,160,84185,1,8,0:0:0:0:
256,160,84256,1,0,0:0:0:0:
256,160,84397,1,8,0:0:0:0:
256,160,84539,1,0,0:0:0:0:
256,160,84680,1,8,0:0:0:0:
256,160,84751,1,8,0:0:0:0:
256,160,84822,1,8,0:0:0:0:
256,160,84963,1,0,0:0:0:0:
256,160,85105,1,0,0:0:0:0:
288,128,85246,1,8,0:0:0:0:
288,128,85317,1,0,0:0:0:0:
288,128,85388,1,8,0:0:0:0:
288,128,85529,1,0,0:0:0:0:
288,128,85671,1,0,0:0:0:0:
288,128,85742,1,8,0:0:0:0:
288,128,85883,1,0,0:0:0:0:
288,128,85954,1,8,0:0:0:0:
288,128,86095,1,0,0:0:0:0:
288,128,86166,1,8,0:0:0:0:
288,128,86237,1,0,0:0:0:0:
224,96,86308,1,0,0:0:0:0:
224,96,86449,1,8,0:0:0:0:
224,96,86520,1,0,0:0:0:0:
256,160,86661,1,4,0:0:0:0:
192,192,86944,1,0,0:0:0:0:
192,192,87086,1,8,0:0:0:0:
192,128,87227,1,0,0:0:0:0:
192,128,87298,1,0,0:0:0:0:
192,128,87369,1,8,0:0:0:0:
192,128,87510,1,0,0:0:0:0:
192,128,87652,1,8,0:0:0:0:
192,128,87723,1,8,0:0:0:0:
192,128,87793,1,0,0:0:0:0:
320,224,87935,1,8,0:0:0:0:
320,224,88006,1,0,0:0:0:0:
320,224,88077,1,0,0:0:0:0:
320,224,88147,1,0,0:0:0:0:
320,224,88218,1,8,0:0:0:0:
320,224,88360,1,0,0:0:0:0:
320,224,88430,1,0,0:0:0:0:
320,224,88501,1,8,0:0:0:0:
320,224,88572,1,0,0:0:0:0:
320,224,88643,1,8,0:0:0:0:
320,224,88784,1,0,0:0:0:0:
320,224,88855,1,0,0:0:0:0:
320,224,88926,1,8,0:0:0:0:
256,160,89067,1,8,0:0:0:0:
256,160,89209,1,0,0:0:0:0:
256,160,89350,1,8,0:0:0:0:
256,160,89492,1,0,0:0:0:0:
256,160,89562,1,0,0:0:0:0:
256,160,89633,1,8,0:0:0:0:
256,160,89775,1,0,0:0:0:0:
256,160,89916,1,8,0:0:0:0:
256,160,89987,1,8,0:0:0:0:
256,160,90058,1,0,0:0:0:0:
288,128,90199,1,0,0:0:0:0:
288,128,90482,1,8,0:0:0:0:
288,128,90624,1,0,0:0:0:0:
288,128,90765,1,0,0:0:0:0:
288,128,90907,1,8,0:0:0:0:
288,128,90977,1,8,0:0:0:0:
288,128,91048,1,8,0:0:0:0:
288,128,91190,1,8,0:0:0:0:
288,192,91331,5,0,0:0:0:0:
288,192,91402,1,0,0:0:0:0:
288,192,91473,1,0,0:0:0:0:
288,192,91543,1,0,0:0:0:0:
288,192,91614,1,8,0:0:0:0:
288,192,91685,1,8,0:0:0:0:
288,192,91756,1,0,0:0:0:0:
288,192,92039,1,8,0:0:0:0:
288,192,92322,1,0,0:0:0:0:
288,192,92605,1,0,0:0:0:0:
288,192,92746,1,8,0:0:0:0:
288,192,92888,1,0,0:0:0:0:
288,192,93029,1,0,0:0:0:0:
192,192,93077,1,0,0:0:0:0:
288,192,93124,1,0,0:0:0:0:
288,192,93171,1,8,0:0:0:0:
288,192,93312,1,8,0:0:0:0:
288,192,93454,1,4,0:0:0:0:
