osu file format v14

[General]
AudioFilename: Pile - Lost Paradise.mp3
AudioLeadIn: 0
PreviewTime: 59067
Countdown: 0
SampleSet: Normal
StackLeniency: 0.7
Mode: 1
LetterboxInBreaks: 0
WidescreenStoryboard: 0

[Editor]
DistanceSpacing: 0.8
BeatDivisor: 2
GridSize: 32
TimelineZoom: 3.099998

[Metadata]
Title:Lost Paradise
TitleUnicode:Lost Paradise
Artist:Pile
ArtistUnicode:Pile
Creator:Chocola_2287
Version:Aloda's Kantan
Source:王様ゲーム The Animation
Tags:Ousama King's Game ED Ending Hori Eriko 堀 絵梨子 Aloda tv size version metal rock
BeatmapID:1502237
BeatmapSetID:708576

[Difficulty]
HPDrainRate:7
CircleSize:2
OverallDifficulty:3
ApproachRate:8
SliderMultiplier:1.4
SliderTickRate:1

[Events]
//Background and Video events
0,0,"NBIH7es.jpg",0,0
//Break Periods
//Storyboard Layer 0 (Background)
//Storyboard Layer 1 (Fail)
//Storyboard Layer 2 (Pass)
//Storyboard Layer 3 (Foreground)
//Storyboard Sound Samples

[TimingPoints]
5294,283.018867924528,4,1,0,85,1,0
5294,-117.647058823529,4,1,0,85,0,0
59492,-117.647058823529,4,1,0,100,0,1
93454,-117.647058823529,4,1,0,70,0,0

[HitObjects]
256,192,6283,5,4,0:0:0:0:
256,192,7415,1,4,0:0:0:0:
256,192,8547,1,4,0:0:0:0:
256,192,9679,1,4,0:0:0:0:
256,192,10245,1,12,0:0:0:0:
256,192,10811,1,4,0:0:0:0:
256,192,11943,1,4,0:0:0:0:
256,192,13076,1,4,0:0:0:0:
256,192,14208,1,4,0:0:0:0:
256,192,14774,1,12,0:0:0:0:
256,192,15340,1,4,0:0:0:0:
256,192,16613,1,8,0:0:0:0:
192,160,16897,1,0,0:0:0:0:
256,192,17179,1,8,0:0:0:0:
256,192,17745,1,8,0:0:0:0:
256,192,18877,1,0,0:0:0:0:
256,192,19443,1,8,0:0:0:0:
256,192,19868,1,4,0:0:0:0:
256,192,21142,1,8,0:0:0:0:
256,192,21426,1,0,0:0:0:0:
256,192,21708,1,8,0:0:0:0:
256,192,22274,1,8,0:0:0:0:
256,192,23406,1,8,0:0:0:0:
256,192,23972,1,0,0:0:0:0:
256,192,24538,1,8,0:0:0:0:
256,192,25104,1,0,0:0:0:0:
256,192,25528,1,12,0:0:0:0:
256,192,29632,1,0,0:0:0:0:
256,192,30057,1,12,0:0:0:0:
256,192,30764,1,0,0:0:0:0:
256,192,31189,1,12,0:0:0:0:
256,192,31896,1,0,0:0:0:0:
256,192,32321,1,4,0:0:0:0:
256,192,33028,1,0,0:0:0:0:
256,192,33594,1,8,0:0:0:0:
256,192,34160,1,0,0:0:0:0:
256,192,34585,1,12,0:0:0:0:
256,192,36425,1,0,0:0:0:0:
256,192,36849,1,12,0:0:0:0:
256,192,38689,1,8,0:0:0:0:
256,192,39113,1,4,0:0:0:0:
256,192,39821,1,8,0:0:0:0:
256,192,40245,1,4,0:0:0:0:
256,192,40953,1,8,0:0:0:0:
256,192,41377,1,4,0:0:0:0:
256,192,42651,1,8,0:0:0:0:
256,192,43217,1,0,0:0:0:0:
256,192,43784,1,12,0:0:0:0:
256,192,44915,1,0,0:0:0:0:
256,192,45481,1,8,0:0:0:0:
256,192,46047,1,8,0:0:0:0:
256,192,46331,1,0,0:0:0:0:
256,192,46614,1,0,0:0:0:0:
256,192,47179,1,8,0:0:0:0:
256,192,47745,1,8,0:0:0:0:
256,192,48311,1,0,0:0:0:0:
256,192,49443,1,0,0:0:0:0:
256,192,50009,1,0,0:0:0:0:
256,192,50576,1,8,0:0:0:0:
256,192,51143,1,0,0:0:0:0:
256,192,51708,1,8,0:0:0:0:
256,192,51992,1,8,0:0:0:0:
224,192,52274,1,8,0:0:0:0:
224,192,52840,1,0,0:0:0:0:
256,192,55104,1,0,0:0:0:0:
256,192,55670,1,0,0:0:0:0:
160,160,55954,1,0,0:0:0:0:
256,192,56236,1,0,0:0:0:0:
256,192,56802,1,0,0:0:0:0:
320,192,57086,1,0,0:0:0:0:
256,192,57368,1,12,0:0:0:0:
256,192,57934,1,8,0:0:0:0:
256,192,58500,1,12,0:0:0:0:
256,192,59492,5,4,0:0:0:0:
256,192,60198,1,0,0:0:0:0:
256,192,60764,1,8,0:0:0:0:
256,192,61330,1,8,0:0:0:0:
256,192,61896,1,0,0:0:0:0:
256,192,62179,1,0,0:0:0:0:
256,192,62462,1,8,0:0:0:0:
256,192,62888,1,0,0:0:0:0:
256,192,64019,1,4,0:0:0:0:
256,192,64726,1,8,0:0:0:0:
256,192,65292,1,0,0:0:0:0:
256,192,65859,1,8,0:0:0:0:
256,192,66284,1,0,0:0:0:0:
256,192,67557,1,8,0:0:0:0:
256,192,68123,1,0,0:0:0:0:
256,192,68407,1,0,0:0:0:0:
256,192,68689,1,4,0:0:0:0:
256,192,69255,1,0,0:0:0:0:
256,192,69821,1,8,0:0:0:0:
256,192,70387,1,8,0:0:0:0:
256,192,70671,1,8,0:0:0:0:
256,192,70953,1,0,0:0:0:0:
256,192,71519,1,8,0:0:0:0:
256,192,72085,1,0,0:0:0:0:
256,192,73217,1,0,0:0:0:0:
256,192,73783,1,8,0:0:0:0:
256,192,74349,1,0,0:0:0:0:
256,192,74915,1,0,0:0:0:0:
256,192,75341,1,8,0:0:0:0:
256,192,76613,1,8,0:0:0:0:
256,192,77179,1,8,0:0:0:0:
256,192,77604,5,4,0:0:0:0:
256,192,78311,1,0,0:0:0:0:
256,192,78877,1,8,0:0:0:0:
256,192,79443,1,8,0:0:0:0:
256,192,80009,1,0,0:0:0:0:
256,192,80292,1,0,0:0:0:0:
256,192,80577,1,8,0:0:0:0:
256,192,81001,1,0,0:0:0:0:
256,192,82132,1,4,0:0:0:0:
256,192,82841,1,8,0:0:0:0:
256,192,83407,1,0,0:0:0:0:
256,192,83972,1,8,0:0:0:0:
256,192,84397,1,0,0:0:0:0:
256,192,85670,1,8,0:0:0:0:
256,192,86236,1,0,0:0:0:0:
256,192,86520,1,0,0:0:0:0:
256,192,86802,1,4,0:0:0:0:
256,192,87368,1,0,0:0:0:0:
256,192,87934,1,8,0:0:0:0:
256,192,88500,1,8,0:0:0:0:
256,192,88784,1,8,0:0:0:0:
256,192,89066,1,0,0:0:0:0:
256,192,89632,1,8,0:0:0:0:
256,192,90198,1,0,0:0:0:0:
256,192,90764,1,0,0:0:0:0:
256,192,91047,1,0,0:0:0:0:
256,192,91330,1,8,0:0:0:0:
256,192,92321,1,8,0:0:0:0:
256,192,93028,5,8,0:0:0:0:
256,192,93453,5,4,0:0:0:0:
