osu file format v14

[General]
AudioFilename: Pile - Lost Paradise.mp3
AudioLeadIn: 0
PreviewTime: 59067
Countdown: 0
SampleSet: Normal
StackLeniency: 0.7
Mode: 1
LetterboxInBreaks: 0
WidescreenStoryboard: 0

[Editor]
DistanceSpacing: 0.8
BeatDivisor: 2
GridSize: 32
TimelineZoom: 1.699998

[Metadata]
Title:Lost Paradise
TitleUnicode:Lost Paradise
Artist:Pile
ArtistUnicode:Pile
Creator:Chocola_2287
Version:Aloda's Futsuu
Source:王様ゲーム The Animation
Tags:Ousama King's Game ED Ending Hori Eriko 堀 絵梨子 Aloda tv size version metal rock
BeatmapID:1505748
BeatmapSetID:708576

[Difficulty]
HPDrainRate:6
CircleSize:2
OverallDifficulty:4
ApproachRate:8
SliderMultiplier:1.4
SliderTickRate:1

[Events]
//Background and Video events
0,0,"NBIH7es.jpg",0,0
//Break Periods
//Storyboard Layer 0 (Background)
//Storyboard Layer 1 (Fail)
//Storyboard Layer 2 (Pass)
//Storyboard Layer 3 (Foreground)
//Storyboard Sound Samples

[TimingPoints]
5294,283.018867924528,4,1,0,85,1,0
59492,-100,4,1,0,100,0,1
93454,-100,4,1,0,70,0,0

[HitObjects]
256,192,5292,5,0,0:0:0:0:
256,192,5860,1,8,0:0:0:0:
256,192,6284,5,4,0:0:0:0:
256,192,7416,1,4,0:0:0:0:
256,192,8548,1,4,0:0:0:0:
256,192,9680,1,4,0:0:0:0:
256,192,10246,1,12,0:0:0:0:
256,192,10812,1,4,0:0:0:0:
256,192,11520,1,8,0:0:0:0:
256,192,11944,1,4,0:0:0:0:
256,192,12652,1,8,0:0:0:0:
256,192,13077,1,4,0:0:0:0:
256,192,13784,1,8,0:0:0:0:
256,192,14209,1,4,0:0:0:0:
256,192,14492,1,4,0:0:0:0:
256,192,14775,1,12,0:0:0:0:
256,192,15341,1,4,0:0:0:0:
32,64,15765,1,0,0:0:0:0:
256,192,16048,1,8,0:0:0:0:
256,192,16331,1,0,0:0:0:0:
256,192,16473,1,0,0:0:0:0:
256,192,16614,1,8,0:0:0:0:
256,192,16897,1,0,0:0:0:0:
256,192,17180,1,8,0:0:0:0:
256,192,17605,1,8,0:0:0:0:
32,64,18029,1,0,0:0:0:0:
256,192,18171,1,0,0:0:0:0:
256,192,18312,1,8,0:0:0:0:
256,192,18595,1,0,0:0:0:0:
256,192,18878,1,8,0:0:0:0:
256,192,19444,1,8,0:0:0:0:
256,192,19869,1,4,0:0:0:0:
32,64,20293,1,0,0:0:0:0:
256,192,20577,1,8,0:0:0:0:
256,192,20860,1,0,0:0:0:0:
256,192,21001,1,0,0:0:0:0:
256,192,21143,1,8,0:0:0:0:
256,192,21426,1,0,0:0:0:0:
256,192,21709,1,8,0:0:0:0:
256,192,22133,1,8,0:0:0:0:
32,64,22558,1,0,0:0:0:0:
256,192,22699,1,0,0:0:0:0:
256,192,22841,1,8,0:0:0:0:
32,64,23124,1,0,0:0:0:0:
256,192,23407,1,8,0:0:0:0:
256,192,23690,1,0,0:0:0:0:
256,192,23973,1,0,0:0:0:0:
256,192,24539,1,8,0:0:0:0:
256,192,24822,1,0,0:0:0:0:
256,192,25105,1,8,0:0:0:0:
256,192,25529,1,12,0:0:0:0:
256,192,26237,1,0,0:0:0:0:
256,192,26803,1,0,0:0:0:0:
256,192,27369,1,0,0:0:0:0:
256,192,27935,1,0,0:0:0:0:
256,192,28501,1,0,0:0:0:0:
256,192,29067,1,0,0:0:0:0:
256,192,29633,1,0,0:0:0:0:
256,192,30058,1,12,0:0:0:0:
32,64,30482,1,8,0:0:0:0:
256,192,30765,1,0,0:0:0:0:
256,192,31190,1,12,0:0:0:0:
32,64,31614,1,8,0:0:0:0:
256,192,31897,1,0,0:0:0:0:
256,192,32322,1,4,0:0:0:0:
32,64,32746,1,8,0:0:0:0:
256,192,33029,1,0,0:0:0:0:
256,192,33595,1,8,0:0:0:0:
256,192,33878,1,0,0:0:0:0:
256,192,34161,1,0,0:0:0:0:
256,192,34586,1,12,0:0:0:0:
256,192,35293,1,0,0:0:0:0:
256,192,35860,1,0,0:0:0:0:
256,192,36426,1,0,0:0:0:0:
256,192,36850,1,12,0:0:0:0:
256,192,37558,1,0,0:0:0:0:
256,192,38124,1,0,0:0:0:0:
256,192,38690,1,8,0:0:0:0:
256,192,39114,1,4,0:0:0:0:
32,64,39539,1,0,0:0:0:0:
256,192,39822,1,8,0:0:0:0:
256,192,40246,1,4,0:0:0:0:
32,64,40671,1,0,0:0:0:0:
256,192,40954,1,8,0:0:0:0:
256,192,41378,1,4,0:0:0:0:
32,64,41803,1,0,0:0:0:0:
256,192,42086,1,0,0:0:0:0:
256,192,42652,1,0,0:0:0:0:
256,192,42935,1,8,0:0:0:0:
256,192,43218,1,0,0:0:0:0:
256,192,43501,1,0,0:0:0:0:
256,192,43784,1,12,0:0:0:0:
256,192,44350,1,0,0:0:0:0:
256,192,44916,1,0,0:0:0:0:
256,192,45199,1,8,0:0:0:0:
256,192,45482,1,0,0:0:0:0:
256,192,45765,1,0,0:0:0:0:
256,192,46048,1,8,0:0:0:0:
256,192,46331,1,0,0:0:0:0:
256,192,46473,1,8,0:0:0:0:
256,192,46756,1,8,0:0:0:0:
256,192,47039,1,0,0:0:0:0:
256,192,47463,1,0,0:0:0:0:
256,192,47746,1,8,0:0:0:0:
256,192,48171,1,0,0:0:0:0:
256,192,48595,1,0,0:0:0:0:
256,192,48878,1,8,0:0:0:0:
256,192,49161,1,8,0:0:0:0:
256,192,49444,1,0,0:0:0:0:
256,192,49727,1,8,0:0:0:0:
256,192,50010,1,0,0:0:0:0:
256,192,50293,1,8,0:0:0:0:
256,192,50435,1,0,0:0:0:0:
256,192,50860,1,0,0:0:0:0:
256,192,51143,1,8,0:0:0:0:
256,192,51426,1,0,0:0:0:0:
256,192,51567,1,8,0:0:0:0:
256,192,51709,1,0,0:0:0:0:
256,192,51992,1,8,0:0:0:0:
256,192,52275,1,8,0:0:0:0:
256,192,52841,1,0,0:0:0:0:
256,192,55105,1,0,0:0:0:0:
256,192,55388,1,0,0:0:0:0:
128,160,55529,1,0,0:0:0:0:
256,192,55671,1,0,0:0:0:0:
256,192,55954,1,0,0:0:0:0:
128,160,56095,1,0,0:0:0:0:
256,192,56237,1,0,0:0:0:0:
256,192,56520,1,0,0:0:0:0:
128,160,56661,1,0,0:0:0:0:
256,192,56803,1,0,0:0:0:0:
256,192,57086,1,0,0:0:0:0:
256,192,57369,1,12,0:0:0:0:
256,192,57935,1,8,0:0:0:0:
256,192,58501,1,12,0:0:0:0:
256,192,59492,5,4,0:0:0:0:
256,192,59916,1,8,0:0:0:0:
256,192,60199,1,0,0:0:0:0:
256,192,60482,1,8,0:0:0:0:
0,192,60624,1,8,0:0:0:0:
256,192,60765,1,8,0:0:0:0:
256,192,61048,1,0,0:0:0:0:
256,192,61331,1,8,0:0:0:0:
256,192,61756,1,0,0:0:0:0:
256,192,62180,1,0,0:0:0:0:
0,192,62322,1,0,0:0:0:0:
256,192,62463,1,8,0:0:0:0:
256,192,62746,1,8,0:0:0:0:
256,192,63029,1,0,0:0:0:0:
256,192,63595,1,8,0:0:0:0:
256,192,64020,1,4,0:0:0:0:
256,192,64444,1,0,0:0:0:0:
256,192,64727,1,8,0:0:0:0:
256,192,65010,1,0,0:0:0:0:
0,192,65152,1,0,0:0:0:0:
256,192,65293,1,0,0:0:0:0:
256,192,65577,1,8,0:0:0:0:
256,192,65860,1,8,0:0:0:0:
256,192,66284,1,4,0:0:0:0:
0,32,67275,1,0,0:0:0:0:
256,192,67558,1,8,0:0:0:0:
256,192,67841,1,8,0:0:0:0:
0,192,67982,1,8,0:0:0:0:
256,192,68124,1,0,0:0:0:0:
32,192,68407,1,8,0:0:0:0:
256,192,68690,1,4,0:0:0:0:
256,192,69256,1,0,0:0:0:0:
256,192,69822,1,8,0:0:0:0:
256,192,70105,1,0,0:0:0:0:
256,192,70246,1,0,0:0:0:0:
256,192,70388,1,8,0:0:0:0:
32,96,70671,1,8,0:0:0:0:
32,96,70954,1,0,0:0:0:0:
256,192,71520,1,8,0:0:0:0:
256,192,72086,1,0,0:0:0:0:
256,192,72369,1,8,0:0:0:0:
256,192,72510,1,8,0:0:0:0:
256,192,72652,1,0,0:0:0:0:
0,96,72935,1,8,0:0:0:0:
256,192,73218,1,0,0:0:0:0:
256,192,73784,1,8,0:0:0:0:
256,192,74350,1,0,0:0:0:0:
256,192,74633,1,0,0:0:0:0:
256,192,74916,1,8,0:0:0:0:
256,192,75058,1,8,0:0:0:0:
256,192,75341,1,0,0:0:0:0:
256,192,75765,1,8,0:0:0:0:
256,192,75907,1,8,0:0:0:0:
32,96,76190,1,8,0:0:0:0:
256,192,76473,1,8,0:0:0:0:
256,192,76614,1,4,0:0:0:0:
256,192,77180,1,8,0:0:0:0:
256,192,77605,5,4,0:0:0:0:
256,192,78029,1,8,0:0:0:0:
256,192,78312,1,0,0:0:0:0:
256,192,78595,1,8,0:0:0:0:
0,192,78737,1,8,0:0:0:0:
256,192,78878,1,8,0:0:0:0:
256,192,79161,1,0,0:0:0:0:
256,192,79444,1,8,0:0:0:0:
256,192,79869,1,0,0:0:0:0:
256,192,80293,1,0,0:0:0:0:
0,192,80435,1,8,0:0:0:0:
256,192,80577,1,8,0:0:0:0:
256,192,80860,1,8,0:0:0:0:
256,192,81143,1,0,0:0:0:0:
256,192,81709,1,8,0:0:0:0:
256,192,82133,1,4,0:0:0:0:
256,192,82558,1,0,0:0:0:0:
256,192,82841,1,8,0:0:0:0:
256,192,83124,1,0,0:0:0:0:
0,192,83265,1,0,0:0:0:0:
256,192,83407,1,0,0:0:0:0:
256,192,83690,1,8,0:0:0:0:
256,192,83973,1,8,0:0:0:0:
256,192,84397,1,4,0:0:0:0:
32,128,85388,1,0,0:0:0:0:
256,192,85671,1,8,0:0:0:0:
256,192,85954,1,8,0:0:0:0:
0,192,86095,1,8,0:0:0:0:
256,192,86237,1,0,0:0:0:0:
0,192,86520,1,8,0:0:0:0:
256,192,86803,1,4,0:0:0:0:
256,192,87369,1,0,0:0:0:0:
256,192,87935,1,8,0:0:0:0:
256,192,88218,1,0,0:0:0:0:
256,192,88501,1,8,0:0:0:0:
32,96,88784,1,0,0:0:0:0:
64,192,88926,1,0,0:0:0:0:
256,192,89067,1,0,0:0:0:0:
64,160,89350,1,0,0:0:0:0:
256,192,89633,1,8,0:0:0:0:
256,192,90199,1,0,0:0:0:0:
256,192,90482,1,0,0:0:0:0:
256,192,90765,1,0,0:0:0:0:
256,192,91048,1,0,0:0:0:0:
0,192,91190,1,0,0:0:0:0:
256,192,91331,1,8,0:0:0:0:
256,192,91756,1,0,0:0:0:0:
256,192,92322,1,8,0:0:0:0:
256,192,92746,1,0,0:0:0:0:
256,192,93029,5,8,0:0:0:0:
256,192,93454,5,4,0:0:0:0:
